  0
SECTION
  2
HEADER
  9
$ACADVER
  1
AC1015
  9
$ACADMAINTVER
 70
    10
  9
$DWGCODEPAGE
  3
ANSI_932
  9
$INSBASE
 10
0.0
 20
0.0
 30
0.0
  9
$EXTMIN
 10
453.400356209026
 20
221.8056447085471
 30
0.0
  9
$EXTMAX
 10
539.4711242348678
 20
342.3883363479047
 30
0.0
  9
$LIMMIN
 10
0.0
 20
0.0
  9
$LIMMAX
 10
420.0
 20
297.0
  9
$ORTHOMODE
 70
     1
  9
$REGENMODE
 70
     1
  9
$FILLMODE
 70
     1
  9
$QTEXTMODE
 70
     0
  9
$MIRRTEXT
 70
     1
  9
$LTSCALE
 40
0.5
  9
$ATTMODE
 70
     1
  9
$TEXTSIZE
 40
2.5
  9
$TRACEWID
 40
1.0
  9
$TEXTSTYLE
  7
Standard
  9
$CLAYER
  8
寸法
  9
$CELTYPE
  6
ByLayer
  9
$CECOLOR
 62
     5
  9
$CELTSCALE
 40
1.0
  9
$DISPSILH
 70
     0
  9
$DIMSCALE
 40
2.0
  9
$DIMASZ
 40
1.0
  9
$DIMEXO
 40
0.5
  9
$DIMDLI
 40
3.75
  9
$DIMRND
 40
0.0
  9
$DIMDLE
 40
0.0
  9
$DIMEXE
 40
0.5
  9
$DIMTP
 40
0.0
  9
$DIMTM
 40
0.0
  9
$DIMTXT
 40
0.7
  9
$DIMCEN
 40
2.5
  9
$DIMTSZ
 40
0.0
  9
$DIMTOL
 70
     0
  9
$DIMLIM
 70
     0
  9
$DIMTIH
 70
     0
  9
$DIMTOH
 70
     0
  9
$DIMSE1
 70
     0
  9
$DIMSE2
 70
     0
  9
$DIMTAD
 70
     1
  9
$DIMZIN
 70
     9
  9
$DIMBLK
  1

  9
$DIMASO
 70
     1
  9
$DIMSHO
 70
     1
  9
$DIMPOST
  1

  9
$DIMAPOST
  1

  9
$DIMALT
 70
     0
  9
$DIMALTD
 70
     3
  9
$DIMALTF
 40
0.03937007874016
  9
$DIMLFAC
 40
1.0
  9
$DIMTOFL
 70
     1
  9
$DIMTVP
 40
0.0
  9
$DIMTIX
 70
     0
  9
$DIMSOXD
 70
     0
  9
$DIMSAH
 70
     0
  9
$DIMBLK1
  1

  9
$DIMBLK2
  1

  9
$DIMSTYLE
  2
ISO-25
  9
$DIMCLRD
 70
     0
  9
$DIMCLRE
 70
     0
  9
$DIMCLRT
 70
     0
  9
$DIMTFAC
 40
1.0
  9
$DIMGAP
 40
0.2
  9
$DIMJUST
 70
     0
  9
$DIMSD1
 70
     0
  9
$DIMSD2
 70
     0
  9
$DIMTOLJ
 70
     0
  9
$DIMTZIN
 70
     8
  9
$DIMALTZ
 70
     0
  9
$DIMALTTZ
 70
     0
  9
$DIMUPT
 70
     0
  9
$DIMDEC
 70
     2
  9
$DIMTDEC
 70
     2
  9
$DIMALTU
 70
     2
  9
$DIMALTTD
 70
     3
  9
$DIMTXSTY
  7
Standard
  9
$DIMAUNIT
 70
     0
  9
$DIMADEC
 70
     1
  9
$DIMALTRND
 40
0.0
  9
$DIMAZIN
 70
     1
  9
$DIMDSEP
 70
    46
  9
$DIMATFIT
 70
     3
  9
$DIMFRAC
 70
     0
  9
$DIMLDRBLK
  1

  9
$DIMLUNIT
 70
     2
  9
$DIMLWD
 70
    -2
  9
$DIMLWE
 70
    -2
  9
$DIMTMOVE
 70
     0
  9
$LUNITS
 70
     2
  9
$LUPREC
 70
     4
  9
$SKETCHINC
 40
1.0
  9
$FILLETRAD
 40
0.0
  9
$AUNITS
 70
     0
  9
$AUPREC
 70
     0
  9
$MENU
  1
.
  9
$ELEVATION
 40
0.0
  9
$PELEVATION
 40
0.0
  9
$THICKNESS
 40
0.0
  9
$LIMCHECK
 70
     0
  9
$CHAMFERA
 40
0.0
  9
$CHAMFERB
 40
0.0
  9
$CHAMFERC
 40
20.0
  9
$CHAMFERD
 40
0.0
  9
$SKPOLY
 70
     0
  9
$TDCREATE
 40
2453483.907673240
  9
$TDUCREATE
 40
2453483.532673240
  9
$TDUPDATE
 40
2453518.747474490
  9
$TDUUPDATE
 40
2453518.372474490
  9
$TDINDWG
 40
0.1938556250
  9
$TDUSRTIMER
 40
0.1938554398
  9
$USRTIMER
 70
     1
  9
$ANGBASE
 50
0.0
  9
$ANGDIR
 70
     0
  9
$PDMODE
 70
     0
  9
$PDSIZE
 40
0.0
  9
$PLINEWID
 40
0.0
  9
$SPLFRAME
 70
     0
  9
$SPLINETYPE
 70
     6
  9
$SPLINESEGS
 70
     8
  9
$HANDSEED
  5
1E00
  9
$SURFTAB1
 70
     6
  9
$SURFTAB2
 70
     6
  9
$SURFTYPE
 70
     6
  9
$SURFU
 70
     6
  9
$SURFV
 70
     6
  9
$UCSBASE
  2

  9
$UCSNAME
  2

  9
$UCSORG
 10
0.0
 20
0.0
 30
0.0
  9
$UCSXDIR
 10
1.0
 20
0.0
 30
0.0
  9
$UCSYDIR
 10
0.0
 20
1.0
 30
0.0
  9
$UCSORTHOREF
  2

  9
$UCSORTHOVIEW
 70
     0
  9
$UCSORGTOP
 10
0.0
 20
0.0
 30
0.0
  9
$UCSORGBOTTOM
 10
0.0
 20
0.0
 30
0.0
  9
$UCSORGLEFT
 10
0.0
 20
0.0
 30
0.0
  9
$UCSORGRIGHT
 10
0.0
 20
0.0
 30
0.0
  9
$UCSORGFRONT
 10
0.0
 20
0.0
 30
0.0
  9
$UCSORGBACK
 10
0.0
 20
0.0
 30
0.0
  9
$PUCSBASE
  2

  9
$PUCSNAME
  2

  9
$PUCSORG
 10
0.0
 20
0.0
 30
0.0
  9
$PUCSXDIR
 10
1.0
 20
0.0
 30
0.0
  9
$PUCSYDIR
 10
0.0
 20
1.0
 30
0.0
  9
$PUCSORTHOREF
  2

  9
$PUCSORTHOVIEW
 70
     0
  9
$PUCSORGTOP
 10
0.0
 20
0.0
 30
0.0
  9
$PUCSORGBOTTOM
 10
0.0
 20
0.0
 30
0.0
  9
$PUCSORGLEFT
 10
0.0
 20
0.0
 30
0.0
  9
$PUCSORGRIGHT
 10
0.0
 20
0.0
 30
0.0
  9
$PUCSORGFRONT
 10
0.0
 20
0.0
 30
0.0
  9
$PUCSORGBACK
 10
0.0
 20
0.0
 30
0.0
  9
$USERI1
 70
     0
  9
$USERI2
 70
     0
  9
$USERI3
 70
     0
  9
$USERI4
 70
     0
  9
$USERI5
 70
     0
  9
$USERR1
 40
0.0
  9
$USERR2
 40
0.0
  9
$USERR3
 40
0.0
  9
$USERR4
 40
0.0
  9
$USERR5
 40
0.0
  9
$WORLDVIEW
 70
     1
  9
$SHADEDGE
 70
     3
  9
$SHADEDIF
 70
    70
  9
$TILEMODE
 70
     1
  9
$MAXACTVP
 70
    64
  9
$PINSBASE
 10
0.0
 20
0.0
 30
0.0
  9
$PLIMCHECK
 70
     0
  9
$PEXTMIN
 10
-0.0022107197171408
 20
-0.0056219074012347
 30
-0.0015258207003583
  9
$PEXTMAX
 10
200.3467194242936
 20
287.3876809325698
 30
0.0000000349246037
  9
$PLIMMIN
 10
-4.773083209991455
 20
-4.773089885711669
  9
$PLIMMAX
 10
205.2002444267273
 20
292.1529049873352
  9
$UNITMODE
 70
     0
  9
$VISRETAIN
 70
     1
  9
$PLINEGEN
 70
     0
  9
$PSLTSCALE
 70
     1
  9
$TREEDEPTH
 70
  3020
  9
$CMLSTYLE
  2
Standard
  9
$CMLJUST
 70
     0
  9
$CMLSCALE
 40
20.0
  9
$PROXYGRAPHICS
 70
     1
  9
$MEASUREMENT
 70
     1
  9
$CELWEIGHT
370
    -1
  9
$ENDCAPS
280
     0
  9
$JOINSTYLE
280
     0
  9
$LWDISPLAY
290
     0
  9
$INSUNITS
 70
     4
  9
$HYPERLINKBASE
  1

  9
$STYLESHEET
  1
monochrome.ctb
  9
$XEDIT
290
     1
  9
$CEPSNTYPE
380
     0
  9
$PSTYLEMODE
290
     1
  9
$FINGERPRINTGUID
  2
{FDEAD578-A652-11D2-9A35-0060089B3A3F}
  9
$VERSIONGUID
  2
{8B358ADB-B64C-4BB2-B32E-955C49F2961E}
  9
$EXTNAMES
290
     1
  9
$PSVPSCALE
 40
0.0
  9
$OLESTARTUP
290
     0
  0
ENDSEC
  0
SECTION
  2
CLASSES
  0
CLASS
  1
ACDBDICTIONARYWDFLT
  2
AcDbDictionaryWithDefault
  3
AutoCAD 2000
 90
        0
280
     0
281
     0
  0
CLASS
  1
ACDBPLACEHOLDER
  2
AcDbPlaceHolder
  3
AutoCAD 2000
 90
        0
280
     0
281
     0
  0
CLASS
  1
LAYOUT
  2
AcDbLayout
  3
AutoCAD 2000
 90
        0
280
     0
281
     0
  0
CLASS
  1
TABLESTYLE
  2
AcDbTableStyle
  3
ObjectDBX Classes
 90
     2047
280
     0
281
     0
  0
CLASS
  1
DICTIONARYVAR
  2
AcDbDictionaryVar
  3
AutoCAD 2000
 90
        0
280
     0
281
     0
  0
ENDSEC
  0
SECTION
  2
TABLES
  0
TABLE
  2
VPORT
  5
8
330
0
100
AcDbSymbolTable
 70
     2
  0
VPORT
  5
1DFF
330
8
100
AcDbSymbolTableRecord
100
AcDbViewportTableRecord
  2
*Active
 70
     0
 10
0.0
 20
0.0
 11
1.0
 21
1.0
 12
505.9212675961923
 22
276.2423869670497
 13
0.0
 23
0.0
 14
10.0
 24
10.0
 15
10.0
 25
10.0
 16
0.0
 26
0.0
 36
1.0
 17
0.0
 27
0.0
 37
0.0
 40
139.4671113616282
 41
1.561128526645767
 42
50.0
 43
0.0
 44
0.0
 50
0.0
 51
0.0
 71
     0
 72
   100
 73
     1
 74
     3
 75
     0
 76
     0
 77
     0
 78
     0
281
     0
 65
     1
110
0.0
120
0.0
130
0.0
111
1.0
121
0.0
131
0.0
112
0.0
122
1.0
132
0.0
 79
     0
146
0.0
  0
ENDTAB
  0
TABLE
  2
LTYPE
  5
5
330
0
100
AcDbSymbolTable
 70
     3
  0
LTYPE
  5
14
330
5
100
AcDbSymbolTableRecord
100
AcDbLinetypeTableRecord
  2
ByBlock
 70
     0
  3

 72
    65
 73
     0
 40
0.0
  0
LTYPE
  5
15
330
5
100
AcDbSymbolTableRecord
100
AcDbLinetypeTableRecord
  2
ByLayer
 70
     0
  3

 72
    65
 73
     0
 40
0.0
  0
LTYPE
  5
16
330
5
100
AcDbSymbolTableRecord
100
AcDbLinetypeTableRecord
  2
Continuous
 70
     0
  3
Solid line
 72
    65
 73
     0
 40
0.0
  0
LTYPE
  5
19D4
330
5
100
AcDbSymbolTableRecord
100
AcDbLinetypeTableRecord
  2
DASHED2
 70
     0
  3
Dashed (.5x) _ _ _ _ _ _ _ _ _ _ _ _ _ _ _ _ _
 72
    65
 73
     2
 40
9.524999999999998
 49
6.349999999999999
 74
     0
 49
-3.174999999999999
 74
     0
  0
LTYPE
  5
1DF4
330
5
100
AcDbSymbolTableRecord
100
AcDbLinetypeTableRecord
  2
CENTER
 70
     0
  3
Center ____ _ ____ _ ____ _ ____ _ ____ _ ____
 72
    65
 73
     4
 40
50.8
 49
31.75
 74
     0
 49
-6.349999999999999
 74
     0
 49
6.349999999999999
 74
     0
 49
-6.349999999999999
 74
     0
  0
ENDTAB
  0
TABLE
  2
LAYER
  5
2
330
0
100
AcDbSymbolTable
 70
     4
  0
LAYER
  5
10
330
2
100
AcDbSymbolTableRecord
100
AcDbLayerTableRecord
  2
0
 70
     0
 62
     7
  6
Continuous
370
    -3
390
F
  0
LAYER
  5
64
330
2
100
AcDbSymbolTableRecord
100
AcDbLayerTableRecord
  2
外形
 70
     0
 62
     7
  6
Continuous
370
    -3
390
F
  0
LAYER
  5
65
330
2
100
AcDbSymbolTableRecord
100
AcDbLayerTableRecord
  2
寸法
 70
     0
 62
     7
  6
Continuous
370
    -3
390
F
  0
LAYER
  5
E3
330
2
100
AcDbSymbolTableRecord
100
AcDbLayerTableRecord
  2
Defpoints
 70
     0
 62
     7
  6
Continuous
290
     0
370
    -3
390
F
  0
ENDTAB
  0
TABLE
  2
STYLE
  5
3
330
0
100
AcDbSymbolTable
 70
     2
  0
STYLE
  5
11
330
3
100
AcDbSymbolTableRecord
100
AcDbTextStyleTableRecord
  2
Standard
 70
     0
 40
0.0
 41
1.0
 50
0.0
 71
     0
 42
2.5
  3
txt
  4

  0
STYLE
  5
1DF3
330
3
100
AcDbSymbolTableRecord
100
AcDbTextStyleTableRecord
  2

 70
     1
 40
0.0
 41
1.0
 50
0.0
 71
     0
 42
2.5
  3
ltypeshp.shx
  4

  0
ENDTAB
  0
TABLE
  2
VIEW
  5
6
330
0
100
AcDbSymbolTable
 70
     0
  0
ENDTAB
  0
TABLE
  2
UCS
  5
7
330
0
100
AcDbSymbolTable
 70
     0
  0
ENDTAB
  0
TABLE
  2
APPID
  5
9
330
0
100
AcDbSymbolTable
 70
     2
  0
APPID
  5
12
330
9
100
AcDbSymbolTableRecord
100
AcDbRegAppTableRecord
  2
ACAD
 70
     0
  0
APPID
  5
313
330
9
100
AcDbSymbolTableRecord
100
AcDbRegAppTableRecord
  2
QDRX_VIEW
 70
     0
  0
ENDTAB
  0
TABLE
  2
DIMSTYLE
  5
A
330
0
100
AcDbSymbolTable
 70
     1
100
AcDbDimStyleTable
 71
     1
340
27
  0
DIMSTYLE
105
27
102
{ACAD_REACTORS
330
455
330
4BF
330
53C
330
53A
330
53B
330
840
330
774
330
454
330
744
330
1470
330
157C
330
17B1
330
1807
330
1893
330
154B
330
154C
102
}
330
A
100
AcDbSymbolTableRecord
100
AcDbDimStyleTableRecord
  2
ISO-25
 70
     0
 40
2.0
 41
1.0
 42
0.5
 43
3.75
 44
0.5
 73
     0
 74
     0
 77
     1
 78
     9
 79
     1
140
0.7
141
2.5
143
0.03937007874016
147
0.2
171
     3
172
     1
179
     1
271
     2
272
     2
274
     3
283
     0
284
     8
340
11
  0
ENDTAB
  0
TABLE
  2
BLOCK_RECORD
  5
1
330
0
100
AcDbSymbolTable
 70
    14
  0
BLOCK_RECORD
  5
1F
330
1
100
AcDbSymbolTableRecord
100
AcDbBlockTableRecord
  2
*Model_Space
340
22
  0
BLOCK_RECORD
  5
2D1
330
1
100
AcDbSymbolTableRecord
100
AcDbBlockTableRecord
  2
*Paper_Space
340
2D2
  0
BLOCK_RECORD
  5
456
330
1
100
AcDbSymbolTableRecord
100
AcDbBlockTableRecord
  2
*D0
340
0
  0
BLOCK_RECORD
  5
462
330
1
100
AcDbSymbolTableRecord
100
AcDbBlockTableRecord
  2
*D1
340
0
  0
BLOCK_RECORD
  5
4C3
330
1
100
AcDbSymbolTableRecord
100
AcDbBlockTableRecord
  2
*D2
340
0
  0
BLOCK_RECORD
  5
53D
330
1
100
AcDbSymbolTableRecord
100
AcDbBlockTableRecord
  2
*D3
340
0
  0
BLOCK_RECORD
  5
549
330
1
100
AcDbSymbolTableRecord
100
AcDbBlockTableRecord
  2
*D4
340
0
  0
BLOCK_RECORD
  5
555
330
1
100
AcDbSymbolTableRecord
100
AcDbBlockTableRecord
  2
*D5
340
0
  0
BLOCK_RECORD
  5
745
330
1
100
AcDbSymbolTableRecord
100
AcDbBlockTableRecord
  2
*D6
340
0
  0
BLOCK_RECORD
  5
791
330
1
100
AcDbSymbolTableRecord
100
AcDbBlockTableRecord
  2
*D7
340
0
  0
BLOCK_RECORD
  5
841
330
1
100
AcDbSymbolTableRecord
100
AcDbBlockTableRecord
  2
*D8
340
0
  0
BLOCK_RECORD
  5
1471
330
1
100
AcDbSymbolTableRecord
100
AcDbBlockTableRecord
  2
*D9
340
0
  0
BLOCK_RECORD
  5
157D
330
1
100
AcDbSymbolTableRecord
100
AcDbBlockTableRecord
  2
*D10
340
0
  0
BLOCK_RECORD
  5
17B2
330
1
100
AcDbSymbolTableRecord
100
AcDbBlockTableRecord
  2
*D11
340
0
  0
BLOCK_RECORD
  5
1808
330
1
100
AcDbSymbolTableRecord
100
AcDbBlockTableRecord
  2
*D12
340
0
  0
BLOCK_RECORD
  5
1894
330
1
100
AcDbSymbolTableRecord
100
AcDbBlockTableRecord
  2
*D13
340
0
  0
ENDTAB
  0
ENDSEC
  0
SECTION
  2
BLOCKS
  0
BLOCK
  5
20
330
1F
100
AcDbEntity
  8
0
100
AcDbBlockBegin
  2
*Model_Space
 70
     0
 10
0.0
 20
0.0
 30
0.0
  3
*Model_Space
  1

  0
ENDBLK
  5
21
330
1F
100
AcDbEntity
  8
0
100
AcDbBlockEnd
  0
BLOCK
  5
2D3
330
2D1
100
AcDbEntity
 67
     1
  8
0
 62
     5
100
AcDbBlockBegin
  2
*Paper_Space
 70
     0
 10
0.0
 20
0.0
 30
0.0
  3
*Paper_Space
  1

  0
ENDBLK
  5
2D4
330
2D1
100
AcDbEntity
 67
     1
  8
0
 62
     5
100
AcDbBlockEnd
  0
BLOCK
  5
460
330
456
100
AcDbEntity
  8
0
 62
     5
100
AcDbBlockBegin
  2
*D0
 70
     1
 10
0.0
 20
0.0
 30
0.0
  3
*D0
  1

  0
LINE
  5
1BFC
330
456
100
AcDbEntity
  8
寸法
 62
     0
370
    -2
100
AcDbLine
 10
494.9681320752039
 20
300.3474570709881
 30
0.0
 11
500.8711242348677
 21
300.3474570709881
 31
0.0
  0
LINE
  5
1BFD
330
456
100
AcDbEntity
  8
寸法
 62
     0
370
    -2
100
AcDbLine
 10
494.9681320752039
 20
277.2474570709881
 30
0.0
 11
500.8711242348677
 21
277.2474570709881
 31
0.0
  0
LINE
  5
1BFE
330
456
100
AcDbEntity
  8
寸法
 62
     0
370
    -2
100
AcDbLine
 10
499.8711242348678
 20
298.3474570709881
 30
0.0
 11
499.8711242348678
 21
279.2474570709881
 31
0.0
  0
SOLID
  5
1BFF
330
456
100
AcDbEntity
  8
寸法
 62
     0
100
AcDbTrace
 10
499.5377909015345
 20
298.3474570709881
 30
0.0
 11
500.2044575682011
 21
298.3474570709881
 31
0.0
 12
499.8711242348678
 22
300.3474570709881
 32
0.0
 13
499.8711242348678
 23
300.3474570709881
 33
0.0
  0
SOLID
  5
1C00
330
456
100
AcDbEntity
  8
寸法
 62
     0
100
AcDbTrace
 10
499.5377909015345
 20
279.2474570709881
 30
0.0
 11
500.2044575682011
 21
279.2474570709881
 31
0.0
 12
499.8711242348678
 22
277.2474570709881
 32
0.0
 13
499.8711242348678
 23
277.2474570709881
 33
0.0
  0
MTEXT
  5
1C01
330
456
100
AcDbEntity
  8
寸法
 62
     0
100
AcDbMText
 10
498.7711242348677
 20
288.7974570709881
 30
0.0
 40
1.399999999999999
 41
0.0
 71
     5
 72
     1
  1
23.1
 11
0.0000000000000001
 21
1.0
 31
0.0
 73
     1
 44
1.0
  0
POINT
  5
1C02
330
456
100
AcDbEntity
  8
Defpoints
 62
     0
100
AcDbPoint
 10
493.9681320752039
 20
300.3474570709881
 30
0.0
  0
POINT
  5
1C03
330
456
100
AcDbEntity
  8
Defpoints
 62
     0
100
AcDbPoint
 10
493.9681320752039
 20
277.2474570709881
 30
0.0
  0
POINT
  5
1C04
330
456
100
AcDbEntity
  8
Defpoints
 62
     0
100
AcDbPoint
 10
499.8711242348678
 20
277.2474570709881
 30
0.0
  0
ENDBLK
  5
461
330
456
100
AcDbEntity
  8
0
 62
     5
100
AcDbBlockEnd
  0
BLOCK
  5
46C
330
462
100
AcDbEntity
  8
0
 62
     5
100
AcDbBlockBegin
  2
*D1
 70
     1
 10
0.0
 20
0.0
 30
0.0
  3
*D1
  1

  0
LINE
  5
1C3F
330
462
100
AcDbEntity
  8
寸法
 62
     0
370
    -2
100
AcDbLine
 10
458.4681320752037
 20
301.3474570709881
 30
0.0
 11
458.4681320752037
 21
327.384983639208
 31
0.0
  0
LINE
  5
1C40
330
462
100
AcDbEntity
  8
寸法
 62
     0
370
    -2
100
AcDbLine
 10
493.9681320752036
 20
301.3474570709881
 30
0.0
 11
493.9681320752036
 21
327.384983639208
 31
0.0
  0
LINE
  5
1C41
330
462
100
AcDbEntity
  8
寸法
 62
     0
370
    -2
100
AcDbLine
 10
460.4681320752036
 20
326.384983639208
 30
0.0
 11
491.9681320752036
 21
326.384983639208
 31
0.0
  0
SOLID
  5
1C42
330
462
100
AcDbEntity
  8
寸法
 62
     0
100
AcDbTrace
 10
460.4681320752036
 20
326.7183169725413
 30
0.0
 11
460.4681320752036
 21
326.0516503058747
 31
0.0
 12
458.4681320752037
 22
326.384983639208
 32
0.0
 13
458.4681320752037
 23
326.384983639208
 33
0.0
  0
SOLID
  5
1C43
330
462
100
AcDbEntity
  8
寸法
 62
     0
100
AcDbTrace
 10
491.9681320752036
 20
326.7183169725413
 30
0.0
 11
491.9681320752036
 21
326.0516503058747
 31
0.0
 12
493.9681320752036
 22
326.384983639208
 32
0.0
 13
493.9681320752036
 23
326.384983639208
 33
0.0
  0
MTEXT
  5
1C44
330
462
100
AcDbEntity
  8
寸法
 62
     0
100
AcDbMText
 10
476.2181320752037
 20
327.484983639208
 30
0.0
 40
1.399999999999999
 41
0.0
 71
     5
 72
     1
  1
35.5Max
 73
     1
 44
1.0
  0
POINT
  5
1C45
330
462
100
AcDbEntity
  8
Defpoints
 62
     0
100
AcDbPoint
 10
458.4681320752037
 20
300.3474570709881
 30
0.0
  0
POINT
  5
1C46
330
462
100
AcDbEntity
  8
Defpoints
 62
     0
100
AcDbPoint
 10
493.9681320752036
 20
300.3474570709881
 30
0.0
  0
POINT
  5
1C47
330
462
100
AcDbEntity
  8
Defpoints
 62
     0
100
AcDbPoint
 10
493.9681320752036
 20
326.384983639208
 30
0.0
  0
ENDBLK
  5
46D
330
462
100
AcDbEntity
  8
0
 62
     5
100
AcDbBlockEnd
  0
BLOCK
  5
4CD
330
4C3
100
AcDbEntity
  8
0
 62
     5
100
AcDbBlockBegin
  2
*D2
 70
     1
 10
0.0
 20
0.0
 30
0.0
  3
*D2
  1

  0
LINE
  5
1C05
330
4C3
100
AcDbEntity
  8
寸法
 62
     0
370
    -2
100
AcDbLine
 10
516.8711242348678
 20
277.247457070988
 30
0.0
 11
498.8711242348678
 21
277.247457070988
 31
0.0
  0
LINE
  5
1C06
330
4C3
100
AcDbEntity
  8
寸法
 62
     0
370
    -2
100
AcDbLine
 10
490.0581320752037
 20
273.247457070988
 30
0.0
 11
500.8711242348677
 21
273.247457070988
 31
0.0
  0
LINE
  5
1C07
330
4C3
100
AcDbEntity
  8
寸法
 62
     0
370
    -2
100
AcDbLine
 10
499.8711242348678
 20
279.247457070988
 30
0.0
 11
499.8711242348678
 21
281.247457070988
 31
0.0
  0
LINE
  5
1C08
330
4C3
100
AcDbEntity
  8
寸法
 62
     0
370
    -2
100
AcDbLine
 10
499.8711242348678
 20
271.247457070988
 30
0.0
 11
499.8711242348678
 21
269.247457070988
 31
0.0
  0
LINE
  5
1C09
330
4C3
100
AcDbEntity
  8
寸法
 62
     0
370
    -2
100
AcDbLine
 10
499.8711242348678
 20
277.247457070988
 30
0.0
 11
499.8711242348678
 21
273.247457070988
 31
0.0
  0
SOLID
  5
1C0A
330
4C3
100
AcDbEntity
  8
寸法
 62
     0
100
AcDbTrace
 10
499.5377909015345
 20
279.247457070988
 30
0.0
 11
500.2044575682011
 21
279.247457070988
 31
0.0
 12
499.8711242348678
 22
277.247457070988
 32
0.0
 13
499.8711242348678
 23
277.247457070988
 33
0.0
  0
SOLID
  5
1C0B
330
4C3
100
AcDbEntity
  8
寸法
 62
     0
100
AcDbTrace
 10
499.5377909015345
 20
271.247457070988
 30
0.0
 11
500.2044575682011
 21
271.247457070988
 31
0.0
 12
499.8711242348678
 22
273.247457070988
 32
0.0
 13
499.8711242348678
 23
273.247457070988
 33
0.0
  0
MTEXT
  5
1C0C
330
4C3
100
AcDbEntity
  8
寸法
 62
     0
100
AcDbMText
 10
498.7711242348677
 20
275.247457070988
 30
0.0
 40
1.399999999999999
 41
0.0
 71
     5
 72
     1
  1
4
 11
0.0000000000000001
 21
1.0
 31
0.0
 73
     1
 44
1.0
  0
POINT
  5
1C0D
330
4C3
100
AcDbEntity
  8
Defpoints
 62
     0
100
AcDbPoint
 10
517.8711242348677
 20
277.247457070988
 30
0.0
  0
POINT
  5
1C0E
330
4C3
100
AcDbEntity
  8
Defpoints
 62
     0
100
AcDbPoint
 10
489.0581320752036
 20
273.247457070988
 30
0.0
  0
POINT
  5
1C0F
330
4C3
100
AcDbEntity
  8
Defpoints
 62
     0
100
AcDbPoint
 10
499.8711242348678
 20
273.247457070988
 30
0.0
  0
ENDBLK
  5
4CE
330
4C3
100
AcDbEntity
  8
0
 62
     5
100
AcDbBlockEnd
  0
BLOCK
  5
547
330
53D
100
AcDbEntity
  8
0
 62
     5
100
AcDbBlockBegin
  2
*D3
 70
     1
 10
0.0
 20
0.0
 30
0.0
  3
*D3
  1

  0
LINE
  5
1C10
330
53D
100
AcDbEntity
  8
寸法
 62
     0
370
    -2
100
AcDbLine
 10
465.6981320752036
 20
271.247457070988
 30
0.0
 11
465.6981320752036
 21
259.2194496632122
 31
0.0
  0
LINE
  5
1C11
330
53D
100
AcDbEntity
  8
寸法
 62
     0
370
    -2
100
AcDbLine
 10
473.3181320752036
 20
271.247457070988
 30
0.0
 11
473.3181320752036
 21
259.2194496632122
 31
0.0
  0
LINE
  5
1C12
330
53D
100
AcDbEntity
  8
寸法
 62
     0
370
    -2
100
AcDbLine
 10
467.6981320752036
 20
260.2194496632122
 30
0.0
 11
471.3181320752036
 21
260.2194496632122
 31
0.0
  0
SOLID
  5
1C13
330
53D
100
AcDbEntity
  8
寸法
 62
     0
100
AcDbTrace
 10
467.6981320752036
 20
260.5527829965455
 30
0.0
 11
467.6981320752036
 21
259.8861163298789
 31
0.0
 12
465.6981320752036
 22
260.2194496632122
 32
0.0
 13
465.6981320752036
 23
260.2194496632122
 33
0.0
  0
SOLID
  5
1C14
330
53D
100
AcDbEntity
  8
寸法
 62
     0
100
AcDbTrace
 10
471.3181320752036
 20
260.5527829965455
 30
0.0
 11
471.3181320752036
 21
259.8861163298789
 31
0.0
 12
473.3181320752036
 22
260.2194496632122
 32
0.0
 13
473.3181320752036
 23
260.2194496632122
 33
0.0
  0
MTEXT
  5
1C15
330
53D
100
AcDbEntity
  8
寸法
 62
     0
100
AcDbMText
 10
469.5081320752036
 20
261.3194496632122
 30
0.0
 40
1.399999999999999
 41
0.0
 71
     5
 72
     1
  1
7.62
 73
     1
 44
1.0
  0
POINT
  5
1C16
330
53D
100
AcDbEntity
  8
Defpoints
 62
     0
100
AcDbPoint
 10
465.6981320752036
 20
272.247457070988
 30
0.0
  0
POINT
  5
1C17
330
53D
100
AcDbEntity
  8
Defpoints
 62
     0
100
AcDbPoint
 10
473.3181320752036
 20
272.247457070988
 30
0.0
  0
POINT
  5
1C18
330
53D
100
AcDbEntity
  8
Defpoints
 62
     0
100
AcDbPoint
 10
473.3181320752036
 20
260.2194496632122
 30
0.0
  0
ENDBLK
  5
548
330
53D
100
AcDbEntity
  8
0
 62
     5
100
AcDbBlockEnd
  0
BLOCK
  5
553
330
549
100
AcDbEntity
  8
0
 62
     5
100
AcDbBlockBegin
  2
*D4
 70
     1
 10
0.0
 20
0.0
 30
0.0
  3
*D4
  1

  0
LINE
  5
1C19
330
549
100
AcDbEntity
  8
寸法
 62
     0
370
    -2
100
AcDbLine
 10
473.3181320752036
 20
271.247457070988
 30
0.0
 11
473.3181320752036
 21
259.2194496632122
 31
0.0
  0
LINE
  5
1C1A
330
549
100
AcDbEntity
  8
寸法
 62
     0
370
    -2
100
AcDbLine
 10
483.4781320752036
 20
271.247457070988
 30
0.0
 11
483.4781320752036
 21
259.2194496632122
 31
0.0
  0
LINE
  5
1C1B
330
549
100
AcDbEntity
  8
寸法
 62
     0
370
    -2
100
AcDbLine
 10
475.3181320752037
 20
260.2194496632122
 30
0.0
 11
481.4781320752037
 21
260.2194496632122
 31
0.0
  0
SOLID
  5
1C1C
330
549
100
AcDbEntity
  8
寸法
 62
     0
100
AcDbTrace
 10
475.3181320752037
 20
260.5527829965455
 30
0.0
 11
475.3181320752037
 21
259.8861163298789
 31
0.0
 12
473.3181320752036
 22
260.2194496632122
 32
0.0
 13
473.3181320752036
 23
260.2194496632122
 33
0.0
  0
SOLID
  5
1C1D
330
549
100
AcDbEntity
  8
寸法
 62
     0
100
AcDbTrace
 10
481.4781320752037
 20
260.5527829965455
 30
0.0
 11
481.4781320752037
 21
259.8861163298789
 31
0.0
 12
483.4781320752036
 22
260.2194496632122
 32
0.0
 13
483.4781320752036
 23
260.2194496632122
 33
0.0
  0
MTEXT
  5
1C1E
330
549
100
AcDbEntity
  8
寸法
 62
     0
100
AcDbMText
 10
478.3981320752036
 20
261.3194496632122
 30
0.0
 40
1.399999999999999
 41
0.0
 71
     5
 72
     1
  1
10.16
 73
     1
 44
1.0
  0
POINT
  5
1C1F
330
549
100
AcDbEntity
  8
Defpoints
 62
     0
100
AcDbPoint
 10
473.3181320752036
 20
272.247457070988
 30
0.0
  0
POINT
  5
1C20
330
549
100
AcDbEntity
  8
Defpoints
 62
     0
100
AcDbPoint
 10
483.4781320752036
 20
272.247457070988
 30
0.0
  0
POINT
  5
1C21
330
549
100
AcDbEntity
  8
Defpoints
 62
     0
100
AcDbPoint
 10
483.4781320752036
 20
260.2194496632122
 30
0.0
  0
ENDBLK
  5
554
330
549
100
AcDbEntity
  8
0
 62
     5
100
AcDbBlockEnd
  0
BLOCK
  5
55F
330
555
100
AcDbEntity
  8
0
 62
     5
100
AcDbBlockBegin
  2
*D5
 70
     1
 10
0.0
 20
0.0
 30
0.0
  3
*D5
  1

  0
LINE
  5
1C22
330
555
100
AcDbEntity
  8
寸法
 62
     0
370
    -2
100
AcDbLine
 10
483.4781320752036
 20
271.247457070988
 30
0.0
 11
483.4781320752036
 21
259.2194496632122
 31
0.0
  0
LINE
  5
1C23
330
555
100
AcDbEntity
  8
寸法
 62
     0
370
    -2
100
AcDbLine
 10
488.5581320752036
 20
271.247457070988
 30
0.0
 11
488.5581320752036
 21
259.2194496632122
 31
0.0
  0
LINE
  5
1C24
330
555
100
AcDbEntity
  8
寸法
 62
     0
370
    -2
100
AcDbLine
 10
485.4781320752037
 20
260.2194496632122
 30
0.0
 11
486.5581320752037
 21
260.2194496632122
 31
0.0
  0
SOLID
  5
1C25
330
555
100
AcDbEntity
  8
寸法
 62
     0
100
AcDbTrace
 10
485.4781320752037
 20
260.5527829965455
 30
0.0
 11
485.4781320752037
 21
259.8861163298789
 31
0.0
 12
483.4781320752036
 22
260.2194496632122
 32
0.0
 13
483.4781320752036
 23
260.2194496632122
 33
0.0
  0
SOLID
  5
1C26
330
555
100
AcDbEntity
  8
寸法
 62
     0
100
AcDbTrace
 10
486.5581320752037
 20
260.5527829965455
 30
0.0
 11
486.5581320752037
 21
259.8861163298789
 31
0.0
 12
488.5581320752036
 22
260.2194496632122
 32
0.0
 13
488.5581320752036
 23
260.2194496632122
 33
0.0
  0
MTEXT
  5
1C27
330
555
100
AcDbEntity
  8
寸法
 62
     0
100
AcDbMText
 10
486.0181320752036
 20
261.3194496632122
 30
0.0
 40
1.399999999999999
 41
0.0
 71
     5
 72
     1
  1
5.08
 73
     1
 44
1.0
  0
POINT
  5
1C28
330
555
100
AcDbEntity
  8
Defpoints
 62
     0
100
AcDbPoint
 10
483.4781320752036
 20
272.247457070988
 30
0.0
  0
POINT
  5
1C29
330
555
100
AcDbEntity
  8
Defpoints
 62
     0
100
AcDbPoint
 10
488.5581320752036
 20
272.247457070988
 30
0.0
  0
POINT
  5
1C2A
330
555
100
AcDbEntity
  8
Defpoints
 62
     0
100
AcDbPoint
 10
488.5581320752036
 20
260.2194496632122
 30
0.0
  0
ENDBLK
  5
560
330
555
100
AcDbEntity
  8
0
 62
     5
100
AcDbBlockEnd
  0
BLOCK
  5
74F
330
745
100
AcDbEntity
  8
0
 62
     5
100
AcDbBlockBegin
  2
*D6
 70
     1
 10
0.0
 20
0.0
 30
0.0
  3
*D6
  1

  0
LINE
  5
1C48
330
745
100
AcDbEntity
  8
寸法
 62
     0
370
    -2
100
AcDbLine
 10
522.1711242348678
 20
301.3474570709881
 30
0.0
 11
522.1711242348678
 21
321.384983639208
 31
0.0
  0
LINE
  5
1C49
330
745
100
AcDbEntity
  8
寸法
 62
     0
370
    -2
100
AcDbLine
 10
531.8711242348678
 20
309.2474570709881
 30
0.0
 11
531.8711242348678
 21
321.384983639208
 31
0.0
  0
LINE
  5
1C4A
330
745
100
AcDbEntity
  8
寸法
 62
     0
370
    -2
100
AcDbLine
 10
524.1711242348677
 20
320.384983639208
 30
0.0
 11
529.8711242348677
 21
320.384983639208
 31
0.0
  0
SOLID
  5
1C4B
330
745
100
AcDbEntity
  8
寸法
 62
     0
100
AcDbTrace
 10
524.1711242348677
 20
320.7183169725413
 30
0.0
 11
524.1711242348677
 21
320.0516503058747
 31
0.0
 12
522.1711242348678
 22
320.384983639208
 32
0.0
 13
522.1711242348678
 23
320.384983639208
 33
0.0
  0
SOLID
  5
1C4C
330
745
100
AcDbEntity
  8
寸法
 62
     0
100
AcDbTrace
 10
529.8711242348677
 20
320.7183169725413
 30
0.0
 11
529.8711242348677
 21
320.0516503058747
 31
0.0
 12
531.8711242348678
 22
320.384983639208
 32
0.0
 13
531.8711242348678
 23
320.384983639208
 33
0.0
  0
MTEXT
  5
1C4D
330
745
100
AcDbEntity
  8
寸法
 62
     0
100
AcDbMText
 10
527.0211242348677
 20
321.484983639208
 30
0.0
 40
1.399999999999999
 41
0.0
 71
     5
 72
     1
  1
9.7
 73
     1
 44
1.0
  0
POINT
  5
1C4E
330
745
100
AcDbEntity
  8
Defpoints
 62
     0
100
AcDbPoint
 10
522.1711242348678
 20
300.3474570709881
 30
0.0
  0
POINT
  5
1C4F
330
745
100
AcDbEntity
  8
Defpoints
 62
     0
100
AcDbPoint
 10
531.8711242348678
 20
308.2474570709881
 30
0.0
  0
POINT
  5
1C50
330
745
100
AcDbEntity
  8
Defpoints
 62
     0
100
AcDbPoint
 10
531.8711242348678
 20
320.384983639208
 30
0.0
  0
ENDBLK
  5
750
330
745
100
AcDbEntity
  8
0
 62
     5
100
AcDbBlockEnd
  0
BLOCK
  5
79D
330
791
100
AcDbEntity
  8
0
 62
     5
100
AcDbBlockBegin
  2
*D7
 70
     1
 10
0.0
 20
0.0
 30
0.0
  3
*D7
  1

  0
LINE
  5
1C34
330
791
100
AcDbEntity
  8
寸法
 62
     0
370
    -2
100
AcDbLine
 10
520.5711242348678
 20
272.247457070988
 30
0.0
 11
520.5711242348678
 21
265.2194496632122
 31
0.0
  0
LINE
  5
1C35
330
791
100
AcDbEntity
  8
寸法
 62
     0
370
    -2
100
AcDbLine
 10
521.5711242348678
 20
272.247457070988
 30
0.0
 11
521.5711242348678
 21
265.2194496632122
 31
0.0
  0
LINE
  5
1C36
330
791
100
AcDbEntity
  8
寸法
 62
     0
370
    -2
100
AcDbLine
 10
523.5711242348678
 20
266.2194496632122
 30
0.0
 11
525.5711242348678
 21
266.2194496632122
 31
0.0
  0
LINE
  5
1C37
330
791
100
AcDbEntity
  8
寸法
 62
     0
370
    -2
100
AcDbLine
 10
518.5711242348678
 20
266.2194496632122
 30
0.0
 11
511.1044575682011
 21
266.2194496632122
 31
0.0
  0
LINE
  5
1C38
330
791
100
AcDbEntity
  8
寸法
 62
     0
370
    -2
100
AcDbLine
 10
521.5711242348678
 20
266.2194496632122
 30
0.0
 11
520.5711242348678
 21
266.2194496632122
 31
0.0
  0
SOLID
  5
1C39
330
791
100
AcDbEntity
  8
寸法
 62
     0
100
AcDbTrace
 10
523.5711242348678
 20
266.5527829965455
 30
0.0
 11
523.5711242348678
 21
265.8861163298789
 31
0.0
 12
521.5711242348678
 22
266.2194496632122
 32
0.0
 13
521.5711242348678
 23
266.2194496632122
 33
0.0
  0
SOLID
  5
1C3A
330
791
100
AcDbEntity
  8
寸法
 62
     0
100
AcDbTrace
 10
518.5711242348678
 20
266.5527829965455
 30
0.0
 11
518.5711242348678
 21
265.8861163298789
 31
0.0
 12
520.5711242348678
 22
266.2194496632122
 32
0.0
 13
520.5711242348678
 23
266.2194496632122
 33
0.0
  0
MTEXT
  5
1C3B
330
791
100
AcDbEntity
  8
寸法
 62
     0
100
AcDbMText
 10
513.8377909015344
 20
267.3194496632122
 30
0.0
 40
1.399999999999999
 41
0.0
 71
     5
 72
     1
  1
4-%%c1
 73
     1
 44
1.0
  0
POINT
  5
1C3C
330
791
100
AcDbEntity
  8
Defpoints
 62
     0
100
AcDbPoint
 10
520.5711242348678
 20
273.247457070988
 30
0.0
  0
POINT
  5
1C3D
330
791
100
AcDbEntity
  8
Defpoints
 62
     0
100
AcDbPoint
 10
521.5711242348678
 20
273.247457070988
 30
0.0
  0
POINT
  5
1C3E
330
791
100
AcDbEntity
  8
Defpoints
 62
     0
100
AcDbPoint
 10
521.5711242348678
 20
266.2194496632122
 30
0.0
  0
ENDBLK
  5
79E
330
791
100
AcDbEntity
  8
0
 62
     5
100
AcDbBlockEnd
  0
BLOCK
  5
84D
330
841
100
AcDbEntity
  8
0
 62
     5
100
AcDbBlockBegin
  2
*D8
 70
     1
 10
0.0
 20
0.0
 30
0.0
  3
*D8
  1

  0
LINE
  5
1C2B
330
841
100
AcDbEntity
  8
寸法
 62
     0
370
    -2
100
AcDbLine
 10
521.0711242348678
 20
271.247457070988
 30
0.0
 11
521.0711242348678
 21
259.2194496632122
 31
0.0
  0
LINE
  5
1C2C
330
841
100
AcDbEntity
  8
寸法
 62
     0
370
    -2
100
AcDbLine
 10
531.8711242348678
 20
276.997457070988
 30
0.0
 11
531.8711242348678
 21
259.2194496632122
 31
0.0
  0
LINE
  5
1C2D
330
841
100
AcDbEntity
  8
寸法
 62
     0
370
    -2
100
AcDbLine
 10
523.0711242348678
 20
260.2194496632122
 30
0.0
 11
529.8711242348677
 21
260.2194496632122
 31
0.0
  0
SOLID
  5
1C2E
330
841
100
AcDbEntity
  8
寸法
 62
     0
100
AcDbTrace
 10
523.0711242348678
 20
260.5527829965455
 30
0.0
 11
523.0711242348678
 21
259.8861163298789
 31
0.0
 12
521.0711242348678
 22
260.2194496632122
 32
0.0
 13
521.0711242348678
 23
260.2194496632122
 33
0.0
  0
SOLID
  5
1C2F
330
841
100
AcDbEntity
  8
寸法
 62
     0
100
AcDbTrace
 10
529.8711242348677
 20
260.5527829965455
 30
0.0
 11
529.8711242348677
 21
259.8861163298789
 31
0.0
 12
531.8711242348678
 22
260.2194496632122
 32
0.0
 13
531.8711242348678
 23
260.2194496632122
 33
0.0
  0
MTEXT
  5
1C30
330
841
100
AcDbEntity
  8
寸法
 62
     0
100
AcDbMText
 10
526.4711242348678
 20
261.3194496632122
 30
0.0
 40
1.399999999999999
 41
0.0
 71
     5
 72
     1
  1
10.8
 73
     1
 44
1.0
  0
POINT
  5
1C31
330
841
100
AcDbEntity
  8
Defpoints
 62
     0
100
AcDbPoint
 10
521.0711242348678
 20
272.247457070988
 30
0.0
  0
POINT
  5
1C32
330
841
100
AcDbEntity
  8
Defpoints
 62
     0
100
AcDbPoint
 10
531.8711242348678
 20
277.997457070988
 30
0.0
  0
POINT
  5
1C33
330
841
100
AcDbEntity
  8
Defpoints
 62
     0
100
AcDbPoint
 10
531.8711242348678
 20
260.2194496632122
 30
0.0
  0
ENDBLK
  5
84E
330
841
100
AcDbEntity
  8
0
 62
     5
100
AcDbBlockEnd
  0
BLOCK
  5
147B
330
1471
100
AcDbEntity
  8
0
 62
     5
100
AcDbBlockBegin
  2
*D9
 70
     1
 10
0.0
 20
0.0
 30
0.0
  3
*D9
  1

  0
LINE
  5
1DD0
330
1471
100
AcDbEntity
  8
寸法
 62
     0
370
    -3
100
AcDbLine
 10
473.3181320752036
 20
271.247457070988
 30
0.0
 11
473.3181320752036
 21
265.8194496632122
 31
0.0
  0
LINE
  5
1DD1
330
1471
100
AcDbEntity
  8
寸法
 62
     0
370
    -3
100
AcDbLine
 10
476.2181320752039
 20
271.247457070988
 30
0.0
 11
476.2181320752039
 21
265.8194496632122
 31
0.0
  0
LINE
  5
1DD2
330
1471
100
AcDbEntity
  8
寸法
 62
     0
370
    -2
100
AcDbLine
 10
471.3181320752036
 20
266.2194496632122
 30
0.0
 11
469.3181320752036
 21
266.2194496632122
 31
0.0
  0
LINE
  5
1DD3
330
1471
100
AcDbEntity
  8
寸法
 62
     0
370
    -2
100
AcDbLine
 10
478.2181320752038
 20
266.2194496632122
 30
0.0
 11
480.2181320752039
 21
266.2194496632122
 31
0.0
  0
MTEXT
  5
1DD4
330
1471
100
AcDbEntity
  8
寸法
 62
     0
100
AcDbMText
 10
480.2675498033181
 20
267.6853499148957
 30
0.0
 40
1.399999999999999
 41
0.0
 71
     5
 72
     1
  1
2.9
 73
     1
 44
1.0
  0
LINE
  5
1DD5
330
1471
100
AcDbEntity
  8
寸法
 62
     0
370
    -2
100
AcDbLine
 10
473.3181320752036
 20
266.2194496632122
 30
0.0
 11
476.2181320752039
 21
266.2194496632122
 31
0.0
  0
SOLID
  5
1DD6
330
1471
100
AcDbEntity
  8
寸法
 62
     0
100
AcDbTrace
 10
471.3181320752036
 20
266.5527829965455
 30
0.0
 11
471.3181320752036
 21
265.8861163298789
 31
0.0
 12
473.3181320752036
 22
266.2194496632122
 32
0.0
 13
473.3181320752036
 23
266.2194496632122
 33
0.0
  0
SOLID
  5
1DD7
330
1471
100
AcDbEntity
  8
寸法
 62
     0
100
AcDbTrace
 10
478.2181320752038
 20
266.5527829965455
 30
0.0
 11
478.2181320752038
 21
265.8861163298789
 31
0.0
 12
476.2181320752039
 22
266.2194496632122
 32
0.0
 13
476.2181320752039
 23
266.2194496632122
 33
0.0
  0
POINT
  5
1DD8
330
1471
100
AcDbEntity
  8
Defpoints
 62
     0
100
AcDbPoint
 10
473.3181320752036
 20
272.247457070988
 30
0.0
  0
POINT
  5
1DD9
330
1471
100
AcDbEntity
  8
Defpoints
 62
     0
100
AcDbPoint
 10
476.2181320752039
 20
272.2474570709881
 30
0.0
  0
POINT
  5
1DDA
330
1471
100
AcDbEntity
  8
Defpoints
 62
     0
100
AcDbPoint
 10
476.2181320752039
 20
266.2194496632122
 30
0.0
  0
ENDBLK
  5
147C
330
1471
100
AcDbEntity
  8
0
 62
     5
100
AcDbBlockEnd
  0
BLOCK
  5
1587
330
157D
100
AcDbEntity
  8
0
 62
     5
100
AcDbBlockBegin
  2
*D10
 70
     1
 10
0.0
 20
0.0
 30
0.0
  3
*D10
  1

  0
LINE
  5
1C5C
330
157D
100
AcDbEntity
  8
寸法
 62
     0
370
    -2
100
AcDbLine
 10
517.8711242348677
 20
279.977457070988
 30
0.0
 11
517.8711242348677
 21
327.384983639208
 31
0.0
  0
LINE
  5
1C5D
330
157D
100
AcDbEntity
  8
寸法
 62
     0
370
    -2
100
AcDbLine
 10
531.8711242348678
 20
309.2474570709881
 30
0.0
 11
531.8711242348678
 21
327.384983639208
 31
0.0
  0
LINE
  5
1C5E
330
157D
100
AcDbEntity
  8
寸法
 62
     0
370
    -2
100
AcDbLine
 10
519.8711242348678
 20
326.384983639208
 30
0.0
 11
529.8711242348677
 21
326.384983639208
 31
0.0
  0
SOLID
  5
1C5F
330
157D
100
AcDbEntity
  8
寸法
 62
     0
100
AcDbTrace
 10
519.8711242348678
 20
326.7183169725413
 30
0.0
 11
519.8711242348678
 21
326.0516503058747
 31
0.0
 12
517.8711242348677
 22
326.384983639208
 32
0.0
 13
517.8711242348677
 23
326.384983639208
 33
0.0
  0
SOLID
  5
1C60
330
157D
100
AcDbEntity
  8
寸法
 62
     0
100
AcDbTrace
 10
529.8711242348677
 20
326.7183169725413
 30
0.0
 11
529.8711242348677
 21
326.0516503058747
 31
0.0
 12
531.8711242348678
 22
326.384983639208
 32
0.0
 13
531.8711242348678
 23
326.384983639208
 33
0.0
  0
MTEXT
  5
1C61
330
157D
100
AcDbEntity
  8
寸法
 62
     0
100
AcDbMText
 10
524.8711242348678
 20
327.484983639208
 30
0.0
 40
1.399999999999999
 41
0.0
 71
     5
 72
     1
  1
14Max
 73
     1
 44
1.0
  0
POINT
  5
1C62
330
157D
100
AcDbEntity
  8
Defpoints
 62
     0
100
AcDbPoint
 10
517.8711242348677
 20
278.977457070988
 30
0.0
  0
POINT
  5
1C63
330
157D
100
AcDbEntity
  8
Defpoints
 62
     0
100
AcDbPoint
 10
531.8711242348678
 20
308.2474570709881
 30
0.0
  0
POINT
  5
1C64
330
157D
100
AcDbEntity
  8
Defpoints
 62
     0
100
AcDbPoint
 10
531.8711242348678
 20
326.384983639208
 30
0.0
  0
ENDBLK
  5
1588
330
157D
100
AcDbEntity
  8
0
 62
     5
100
AcDbBlockEnd
  0
BLOCK
  5
17BC
330
17B2
100
AcDbEntity
  8
0
 62
     5
100
AcDbBlockBegin
  2
*D11
 70
     1
 10
0.0
 20
0.0
 30
0.0
  3
*D11
  1

  0
LINE
  5
1D19
330
17B2
100
AcDbEntity
  8
寸法
 62
     0
370
    -2
100
AcDbLine
 10
526.4928622408389
 20
303.5474570709881
 30
0.0
 11
479.8711242348677
 21
303.5474570709881
 31
0.0
  0
LINE
  5
1D1A
330
17B2
100
AcDbEntity
  8
寸法
 62
     0
370
    -2
100
AcDbLine
 10
505.8711242348677
 20
301.5474570709881
 30
0.0
 11
505.8711242348677
 21
279.247457070988
 31
0.0
  0
SOLID
  5
1D1B
330
17B2
100
AcDbEntity
  8
寸法
 62
     0
100
AcDbTrace
 10
505.5377909015344
 20
301.5474570709881
 30
0.0
 11
506.2044575682011
 21
301.5474570709881
 31
0.0
 12
505.8711242348677
 22
303.5474570709881
 32
0.0
 13
505.8711242348677
 23
303.5474570709881
 33
0.0
  0
SOLID
  5
1D1C
330
17B2
100
AcDbEntity
  8
寸法
 62
     0
100
AcDbTrace
 10
505.5377909015344
 20
279.247457070988
 30
0.0
 11
506.2044575682011
 21
279.247457070988
 31
0.0
 12
505.8711242348677
 22
277.247457070988
 32
0.0
 13
505.8711242348677
 23
277.247457070988
 33
0.0
  0
MTEXT
  5
1D1D
330
17B2
100
AcDbEntity
  8
寸法
 62
     0
100
AcDbMText
 10
504.7711242348677
 20
290.3974570709881
 30
0.0
 40
1.399999999999999
 41
0.0
 71
     5
 72
     1
  1
26.3
 11
0.0000000000000001
 21
1.0
 31
0.0
 73
     1
 44
1.0
  0
POINT
  5
1D1E
330
17B2
100
AcDbEntity
  8
Defpoints
 62
     0
100
AcDbPoint
 10
527.4928622408388
 20
303.5474570709881
 30
0.0
  0
POINT
  5
1D1F
330
17B2
100
AcDbEntity
  8
Defpoints
 62
     0
100
AcDbPoint
 10
493.9681320752036
 20
277.247457070988
 30
0.0
  0
POINT
  5
1D20
330
17B2
100
AcDbEntity
  8
Defpoints
 62
     0
100
AcDbPoint
 10
505.8711242348677
 20
277.247457070988
 30
0.0
  0
ENDBLK
  5
17BD
330
17B2
100
AcDbEntity
  8
0
 62
     5
100
AcDbBlockEnd
  0
BLOCK
  5
1812
330
1808
100
AcDbEntity
  8
0
 62
     5
100
AcDbBlockBegin
  2
*D12
 70
     1
 10
0.0
 20
0.0
 30
0.0
  3
*D12
  1

  0
LINE
  5
1C6D
330
1808
100
AcDbEntity
  8
寸法
 62
     0
370
    -2
100
AcDbLine
 10
528.5711242348678
 20
309.2474570709881
 30
0.0
 11
528.5711242348678
 21
315.384983639208
 31
0.0
  0
LINE
  5
1C6E
330
1808
100
AcDbEntity
  8
寸法
 62
     0
370
    -2
100
AcDbLine
 10
531.8711242348678
 20
309.2474570709881
 30
0.0
 11
531.8711242348678
 21
315.384983639208
 31
0.0
  0
LINE
  5
1C6F
330
1808
100
AcDbEntity
  8
寸法
 62
     0
370
    -2
100
AcDbLine
 10
526.5711242348678
 20
314.384983639208
 30
0.0
 11
524.5711242348678
 21
314.384983639208
 31
0.0
  0
LINE
  5
1C70
330
1808
100
AcDbEntity
  8
寸法
 62
     0
370
    -2
100
AcDbLine
 10
533.8711242348677
 20
314.384983639208
 30
0.0
 11
539.4711242348678
 21
314.384983639208
 31
0.0
  0
LINE
  5
1C71
330
1808
100
AcDbEntity
  8
寸法
 62
     0
370
    -2
100
AcDbLine
 10
528.5711242348678
 20
314.384983639208
 30
0.0
 11
531.8711242348678
 21
314.384983639208
 31
0.0
  0
SOLID
  5
1C72
330
1808
100
AcDbEntity
  8
寸法
 62
     0
100
AcDbTrace
 10
526.5711242348678
 20
314.7183169725413
 30
0.0
 11
526.5711242348678
 21
314.0516503058747
 31
0.0
 12
528.5711242348678
 22
314.384983639208
 32
0.0
 13
528.5711242348678
 23
314.384983639208
 33
0.0
  0
SOLID
  5
1C73
330
1808
100
AcDbEntity
  8
寸法
 62
     0
100
AcDbTrace
 10
533.8711242348677
 20
314.7183169725413
 30
0.0
 11
533.8711242348677
 21
314.0516503058747
 31
0.0
 12
531.8711242348678
 22
314.384983639208
 32
0.0
 13
531.8711242348678
 23
314.384983639208
 33
0.0
  0
MTEXT
  5
1C74
330
1808
100
AcDbEntity
  8
寸法
 62
     0
100
AcDbMText
 10
537.6711242348677
 20
315.484983639208
 30
0.0
 40
1.399999999999999
 41
0.0
 71
     5
 72
     1
  1
3.3
 73
     1
 44
1.0
  0
POINT
  5
1C75
330
1808
100
AcDbEntity
  8
Defpoints
 62
     0
100
AcDbPoint
 10
528.5711242348678
 20
308.2474570709881
 30
0.0
  0
POINT
  5
1C76
330
1808
100
AcDbEntity
  8
Defpoints
 62
     0
100
AcDbPoint
 10
531.8711242348678
 20
308.2474570709881
 30
0.0
  0
POINT
  5
1C77
330
1808
100
AcDbEntity
  8
Defpoints
 62
     0
100
AcDbPoint
 10
531.8711242348678
 20
314.384983639208
 30
0.0
  0
ENDBLK
  5
1813
330
1808
100
AcDbEntity
  8
0
 62
     5
100
AcDbBlockEnd
  0
BLOCK
  5
189E
330
1894
100
AcDbEntity
  8
0
 62
     5
100
AcDbBlockBegin
  2
*D13
 70
     1
 10
0.0
 20
0.0
 30
0.0
  3
*D13
  1

  0
LINE
  5
1CF9
330
1894
100
AcDbEntity
  8
寸法
 62
     0
370
    -2
100
AcDbLine
 10
527.5711242348678
 20
308.2474570709881
 30
0.0
 11
481.8711242348678
 21
308.2474570709881
 31
0.0
  0
LINE
  5
1CFA
330
1894
100
AcDbEntity
  8
寸法
 62
     0
370
    -2
100
AcDbLine
 10
511.8711242348678
 20
306.2474570709881
 30
0.0
 11
511.8711242348678
 21
279.247457070988
 31
0.0
  0
SOLID
  5
1CFB
330
1894
100
AcDbEntity
  8
寸法
 62
     0
100
AcDbTrace
 10
511.5377909015345
 20
306.2474570709881
 30
0.0
 11
512.2044575682012
 21
306.2474570709881
 31
0.0
 12
511.8711242348678
 22
308.2474570709881
 32
0.0
 13
511.8711242348678
 23
308.2474570709881
 33
0.0
  0
SOLID
  5
1CFC
330
1894
100
AcDbEntity
  8
寸法
 62
     0
100
AcDbTrace
 10
511.5377909015345
 20
279.247457070988
 30
0.0
 11
512.2044575682012
 21
279.247457070988
 31
0.0
 12
511.8711242348678
 22
277.247457070988
 32
0.0
 13
511.8711242348678
 23
277.247457070988
 33
0.0
  0
MTEXT
  5
1CFD
330
1894
100
AcDbEntity
  8
寸法
 62
     0
100
AcDbMText
 10
510.7711242348677
 20
292.7474570709881
 30
0.0
 40
1.399999999999999
 41
0.0
 71
     5
 72
     1
  1
31Max
 11
0.0000000000000001
 21
1.0
 31
0.0
 73
     1
 44
1.0
  0
POINT
  5
1CFE
330
1894
100
AcDbEntity
  8
Defpoints
 62
     0
100
AcDbPoint
 10
528.5711242348678
 20
308.2474570709881
 30
0.0
  0
POINT
  5
1CFF
330
1894
100
AcDbEntity
  8
Defpoints
 62
     0
100
AcDbPoint
 10
493.9681320752036
 20
277.247457070988
 30
0.0
  0
POINT
  5
1D00
330
1894
100
AcDbEntity
  8
Defpoints
 62
     0
100
AcDbPoint
 10
511.8711242348678
 20
277.247457070988
 30
0.0
  0
ENDBLK
  5
189F
330
1894
100
AcDbEntity
  8
0
 62
     5
100
AcDbBlockEnd
  0
ENDSEC
  0
SECTION
  2
ENTITIES
  0
MTEXT
  5
F7
330
1F
100
AcDbEntity
  8
外形
100
AcDbMText
 10
467.619106209026
 20
338.6809499842683
 30
0.0
 40
5.0
 41
34.01253043142153
 71
     5
 72
     5
  1
{\fMS UI Gothic|b0|i0|c128|p17;外形寸法}
 73
     1
 44
1.0
  0
LINE
  5
44F
330
1F
100
AcDbEntity
  8
外形
100
AcDbLine
 10
458.4681320752036
 20
300.3474570709881
 30
0.0
 11
458.4681320752036
 21
277.2474570709881
 31
0.0
  0
LINE
  5
450
330
1F
100
AcDbEntity
  8
外形
100
AcDbLine
 10
493.9681320752036
 20
300.3474570709882
 30
0.0
 11
493.9681320752036
 21
277.247457070988
 31
0.0
  0
LINE
  5
451
330
1F
100
AcDbEntity
  8
外形
100
AcDbLine
 10
458.4681320752036
 20
300.3474570709881
 30
0.0
 11
493.9681320752036
 21
300.3474570709882
 31
0.0
  0
DIMENSION
  5
454
330
1F
100
AcDbEntity
  8
寸法
 62
     5
100
AcDbDimension
  2
*D1
 10
493.9681320752036
 20
326.384983639208
 30
0.0
 11
476.2181320752037
 21
327.484983639208
 31
0.0
 70
    32
 71
     5
 42
35.49999999999994
  3
ISO-25
100
AcDbAlignedDimension
 13
458.4681320752037
 23
300.3474570709881
 33
0.0
 14
493.9681320752036
 24
300.3474570709881
 34
0.0
100
AcDbRotatedDimension
1001
ACAD
1000
DSTYLE
1002
{
1070
     3
1000
Max
1002
}
  0
DIMENSION
  5
455
330
1F
100
AcDbEntity
  8
寸法
 62
     5
100
AcDbDimension
  2
*D0
 10
499.8711242348678
 20
277.2474570709881
 30
0.0
 11
498.7711242348677
 21
288.7974570709881
 31
0.0
 70
    32
 71
     5
 42
23.10000000000002
  3
ISO-25
100
AcDbAlignedDimension
 13
493.9681320752039
 23
300.3474570709881
 33
0.0
 14
493.9681320752039
 24
277.2474570709881
 34
0.0
 50
90.0
100
AcDbRotatedDimension
  0
DIMENSION
  5
4BF
330
1F
100
AcDbEntity
  8
寸法
 62
     5
100
AcDbDimension
  2
*D2
 10
499.8711242348678
 20
273.247457070988
 30
0.0
 11
498.7711242348677
 21
275.247457070988
 31
0.0
 70
    32
 71
     5
 42
4.000000000000056
  3
ISO-25
100
AcDbAlignedDimension
 13
517.8711242348677
 23
277.247457070988
 33
0.0
 14
489.0581320752036
 24
273.247457070988
 34
0.0
 50
90.0
100
AcDbRotatedDimension
  0
LINE
  5
4EC
330
1F
100
AcDbEntity
  8
外形
100
AcDbLine
 10
459.4681320752036
 20
277.2474570709881
 30
0.0
 11
458.4681320752038
 21
277.2474570709881
 31
0.0
  0
LINE
  5
4EE
330
1F
100
AcDbEntity
  8
外形
100
AcDbLine
 10
459.4681320752036
 20
277.2474570709881
 30
0.0
 11
459.4681320752036
 21
277.477457070988
 31
0.0
  0
DIMENSION
  5
53A
330
1F
100
AcDbEntity
  8
寸法
 62
     5
100
AcDbDimension
  2
*D4
 10
483.4781320752036
 20
260.2194496632122
 30
0.0
 11
478.3981320752036
 21
261.3194496632122
 31
0.0
 70
    32
 71
     5
 42
10.16000000000002
  3
ISO-25
100
AcDbAlignedDimension
 13
473.3181320752036
 23
272.247457070988
 33
0.0
 14
483.4781320752036
 24
272.247457070988
 34
0.0
100
AcDbRotatedDimension
  0
DIMENSION
  5
53B
330
1F
100
AcDbEntity
  8
寸法
 62
     5
100
AcDbDimension
  2
*D5
 10
488.5581320752036
 20
260.2194496632122
 30
0.0
 11
486.0181320752036
 21
261.3194496632122
 31
0.0
 70
    32
 71
     5
 42
5.079999999999984
  3
ISO-25
100
AcDbAlignedDimension
 13
483.4781320752036
 23
272.247457070988
 33
0.0
 14
488.5581320752036
 24
272.247457070988
 34
0.0
100
AcDbRotatedDimension
  0
DIMENSION
  5
53C
330
1F
100
AcDbEntity
  8
寸法
 62
     5
100
AcDbDimension
  2
*D3
 10
473.3181320752036
 20
260.2194496632122
 30
0.0
 11
469.5081320752036
 21
261.3194496632122
 31
0.0
 70
    32
 71
     5
 42
7.619999999999947
  3
ISO-25
100
AcDbAlignedDimension
 13
465.6981320752036
 23
272.247457070988
 33
0.0
 14
473.3181320752036
 24
272.247457070988
 34
0.0
100
AcDbRotatedDimension
  0
LINE
  5
584
330
1F
100
AcDbEntity
  8
外形
100
AcDbLine
 10
492.9681320752036
 20
277.247457070988
 30
0.0
 11
492.9681320752036
 21
277.477457070988
 31
0.0
  0
LINE
  5
585
330
1F
100
AcDbEntity
  8
外形
100
AcDbLine
 10
492.9681320752036
 20
277.247457070988
 30
0.0
 11
493.9681320752035
 21
277.247457070988
 31
0.0
  0
LINE
  5
588
330
1F
100
AcDbEntity
  8
外形
100
AcDbLine
 10
473.8181320752038
 20
280.2681547454068
 30
0.0
 11
473.8181320752037
 21
273.247457070988
 31
0.0
  0
LINE
  5
589
330
1F
100
AcDbEntity
  8
外形
100
AcDbLine
 10
473.8181320752037
 20
273.247457070988
 30
0.0
 11
472.8181320752037
 21
273.247457070988
 31
0.0
  0
LINE
  5
58A
330
1F
100
AcDbEntity
  8
外形
100
AcDbLine
 10
472.8181320752039
 20
280.2681547454068
 30
0.0
 11
472.8181320752037
 21
273.247457070988
 31
0.0
  0
LINE
  5
651
330
1F
100
AcDbEntity
  8
外形
 62
     1
100
AcDbLine
 10
465.6981320752036
 20
223.8056447085471
 30
0.0
 11
465.6981320752036
 21
221.8056447085471
 31
0.0
  0
LINE
  5
652
330
1F
100
AcDbEntity
  8
外形
 62
     1
100
AcDbLine
 10
483.4781320752037
 20
223.8056447085471
 30
0.0
 11
483.4781320752037
 21
221.8056447085471
 31
0.0
  0
LINE
  5
654
330
1F
100
AcDbEntity
  8
外形
  6
CENTER
 62
     1
 48
0.25
100
AcDbLine
 10
464.6981320752035
 20
222.8056447085471
 30
0.0
 11
489.5581320752036
 21
222.8056447085471
 31
0.0
  0
LINE
  5
658
330
1F
100
AcDbEntity
  8
外形
 62
     1
100
AcDbLine
 10
473.3181320752037
 20
223.8056447085471
 30
0.0
 11
473.3181320752037
 21
221.8056447085471
 31
0.0
  0
LINE
  5
65B
330
1F
100
AcDbEntity
  8
外形
 62
     1
100
AcDbLine
 10
488.5581320752036
 20
223.8056447085472
 30
0.0
 11
488.5581320752036
 21
221.8056447085472
 31
0.0
  0
MTEXT
  5
65D
330
1F
100
AcDbEntity
  8
寸法
 62
     5
100
AcDbMText
 10
498.0524102748892
 20
226.9625586265815
 30
0.0
 40
1.399999999999999
 41
0.0
 71
     8
 72
     1
  1
{\fMS UI Gothic|b0|i0|c128|p17;穴径φ1.4}
 73
     2
 44
1.0
  0
MTEXT
  5
6F4
330
1F
100
AcDbEntity
  8
外形
100
AcDbMText
 10
473.2412875164749
 20
283.4585588827832
 30
0.0
 40
1.399999999999999
 41
0.5
 71
     5
 72
     5
  1
{\fＭＳ ゴシック|b0|i0|c128|p49;2}
 73
     1
 44
1.0
  0
LINE
  5
740
330
1F
100
AcDbEntity
  8
外形
100
AcDbLine
 10
531.8711242348678
 20
308.2474570709881
 30
0.0
 11
531.8711242348678
 21
277.997457070988
 31
0.0
  0
DIMENSION
  5
744
330
1F
100
AcDbEntity
  8
寸法
 62
     5
100
AcDbDimension
  2
*D6
 10
531.8711242348678
 20
320.384983639208
 30
0.0
 11
527.0211242348677
 21
321.484983639208
 31
0.0
 70
    32
 71
     5
 42
9.700000000000045
  3
ISO-25
100
AcDbAlignedDimension
 13
522.1711242348678
 23
300.3474570709881
 33
0.0
 14
531.8711242348678
 24
308.2474570709881
 34
0.0
100
AcDbRotatedDimension
  0
LINE
  5
75A
330
1F
100
AcDbEntity
  8
外形
100
AcDbLine
 10
522.1711242348678
 20
300.3474570709881
 30
0.0
 11
522.1711242348678
 21
280.477457070988
 31
0.0
  0
DIMENSION
  5
774
330
1F
100
AcDbEntity
  8
寸法
 62
     5
100
AcDbDimension
  2
*D7
 10
521.5711242348678
 20
266.2194496632122
 30
0.0
 11
513.8377909015344
 21
266.2194496632122
 31
0.0
 70
   160
 71
     5
  3
ISO-25
100
AcDbAlignedDimension
 13
520.5711242348678
 23
273.247457070988
 33
0.0
 14
521.5711242348678
 24
273.247457070988
 34
0.0
100
AcDbRotatedDimension
1001
ACAD
1000
DSTYLE
1002
{
1070
     3
1000
4-%%c<>
1002
}
  0
DIMENSION
  5
840
330
1F
100
AcDbEntity
  8
寸法
 62
     5
100
AcDbDimension
  2
*D8
 10
531.8711242348678
 20
260.2194496632122
 30
0.0
 11
526.4711242348678
 21
261.3194496632122
 31
0.0
 70
    32
 71
     5
 42
10.79999999999995
  3
ISO-25
100
AcDbAlignedDimension
 13
521.0711242348678
 23
272.247457070988
 33
0.0
 14
531.8711242348678
 24
277.997457070988
 34
0.0
100
AcDbRotatedDimension
  0
LINE
  5
11DA
330
1F
100
AcDbEntity
  8
外形
100
AcDbLine
 10
531.3711242348678
 20
277.247457070988
 30
0.0
 11
517.8711242348677
 21
277.247457070988
 31
0.0
  0
LINE
  5
11EF
330
1F
100
AcDbEntity
  8
外形
100
AcDbLine
 10
492.9681320752035
 20
277.477457070988
 30
0.0
 11
489.0581320752038
 21
277.477457070988
 31
0.0
  0
MTEXT
  5
1255
330
1F
100
AcDbEntity
  8
外形
100
AcDbMText
 10
492.4305210399106
 20
239.5132850802381
 30
0.0
 40
5.0
 41
83.01367496358844
 71
     5
 72
     5
  1
{\fMS UI Gothic|b0|i0|c128|p17;プリント基板取付穴寸法図 }
 73
     1
 44
1.0
  0
LINE
  5
1326
330
1F
100
AcDbEntity
  8
外形
100
AcDbLine
 10
472.7181320752036
 20
308.2474570709881
 30
0.0
 11
479.7181320752036
 21
308.2474570709881
 31
0.0
  0
LINE
  5
1327
330
1F
100
AcDbEntity
  8
外形
  6
CENTER
 62
     1
 48
0.25
100
AcDbLine
 10
476.2181320752039
 20
269.7194496632122
 30
0.0
 11
476.2181320752036
 21
310.3474570709881
 31
0.0
  0
LINE
  5
1363
330
1F
100
AcDbEntity
  8
外形
  6
CENTER
 62
     1
 48
0.25
100
AcDbLine
 10
473.4681320752037
 20
303.5474570709881
 30
0.0
 11
478.9681320752037
 21
303.5474570709881
 31
0.0
  0
CIRCLE
  5
1364
330
1F
100
AcDbEntity
  8
外形
100
AcDbCircle
 10
476.2181320752036
 20
303.5474570709881
 30
0.0
 40
1.75
  0
LINE
  5
136E
330
1F
100
AcDbEntity
  8
外形
  6
CENTER
 62
     1
 48
0.25
100
AcDbLine
 10
473.3181320752036
 20
272.247457070988
 30
0.0
 11
473.3181320752036
 21
281.2681547454068
 31
0.0
  0
LINE
  5
1371
330
1F
100
AcDbEntity
  8
外形
100
AcDbLine
 10
472.7181320752036
 20
308.2474570709881
 30
0.0
 11
458.4681320752036
 21
300.3474570709881
 31
0.0
  0
LINE
  5
1372
330
1F
100
AcDbEntity
  8
外形
100
AcDbLine
 10
479.7181320752036
 20
308.2474570709881
 30
0.0
 11
493.9681320752036
 21
300.3474570709882
 31
0.0
  0
LINE
  5
138F
330
1F
100
AcDbEntity
  8
外形
100
AcDbLine
 10
493.9681320752036
 20
278.977457070988
 30
0.0
 11
489.0581320752038
 21
278.977457070988
 31
0.0
  0
LINE
  5
1390
330
1F
100
AcDbEntity
  8
外形
100
AcDbLine
 10
492.4681320752036
 20
298.8474570709882
 30
0.0
 11
492.4681320752037
 21
278.977457070988
 31
0.0
  0
LINE
  5
1391
330
1F
100
AcDbEntity
  8
外形
100
AcDbLine
 10
459.9681320752036
 20
298.8474570709881
 30
0.0
 11
459.9681320752036
 21
278.977457070988
 31
0.0
  0
LINE
  5
1392
330
1F
100
AcDbEntity
  8
外形
100
AcDbLine
 10
459.9681320752036
 20
298.8474570709881
 30
0.0
 11
492.4681320752036
 21
298.8474570709882
 31
0.0
  0
LINE
  5
1393
330
1F
100
AcDbEntity
  8
外形
100
AcDbLine
 10
492.9681320752036
 20
277.477457070988
 30
0.0
 11
492.9681320752036
 21
277.247457070988
 31
0.0
  0
LINE
  5
1394
330
1F
100
AcDbEntity
  8
外形
100
AcDbLine
 10
459.4681320752036
 20
277.477457070988
 30
0.0
 11
459.4681320752036
 21
277.2474570709881
 31
0.0
  0
LINE
  5
1398
330
1F
100
AcDbEntity
  8
外形
100
AcDbLine
 10
465.1981320752039
 20
280.2681547454068
 30
0.0
 11
465.1981320752037
 21
273.247457070988
 31
0.0
  0
LINE
  5
1399
330
1F
100
AcDbEntity
  8
外形
100
AcDbLine
 10
466.1981320752038
 20
280.2681547454068
 30
0.0
 11
466.1981320752037
 21
273.247457070988
 31
0.0
  0
LINE
  5
139A
330
1F
100
AcDbEntity
  8
外形
100
AcDbLine
 10
466.1981320752037
 20
273.247457070988
 30
0.0
 11
465.1981320752037
 21
273.247457070988
 31
0.0
  0
LINE
  5
139C
330
1F
100
AcDbEntity
  8
外形
  6
CENTER
 62
     1
 48
0.25
100
AcDbLine
 10
465.6981320752036
 20
272.247457070988
 30
0.0
 11
465.6981320752036
 21
281.2681547454068
 31
0.0
  0
LINE
  5
13DE
330
1F
100
AcDbEntity
  8
外形
  6
CENTER
 62
     1
 48
0.25
100
AcDbLine
 10
483.4781320752036
 20
272.247457070988
 30
0.0
 11
483.4781320752036
 21
281.2681547454068
 31
0.0
  0
LINE
  5
13DF
330
1F
100
AcDbEntity
  8
外形
100
AcDbLine
 10
482.9781320752039
 20
280.2681547454068
 30
0.0
 11
482.9781320752037
 21
273.247457070988
 31
0.0
  0
LINE
  5
13E0
330
1F
100
AcDbEntity
  8
外形
100
AcDbLine
 10
483.9781320752038
 20
280.2681547454068
 30
0.0
 11
483.9781320752037
 21
273.247457070988
 31
0.0
  0
LINE
  5
13E1
330
1F
100
AcDbEntity
  8
外形
100
AcDbLine
 10
483.9781320752037
 20
273.247457070988
 30
0.0
 11
482.9781320752037
 21
273.247457070988
 31
0.0
  0
LINE
  5
13E3
330
1F
100
AcDbEntity
  8
外形
100
AcDbLine
 10
489.0581320752038
 20
280.2681547454068
 30
0.0
 11
489.0581320752037
 21
273.247457070988
 31
0.0
  0
LINE
  5
13E4
330
1F
100
AcDbEntity
  8
外形
100
AcDbLine
 10
488.0581320752039
 20
280.2681547454068
 30
0.0
 11
488.0581320752037
 21
273.247457070988
 31
0.0
  0
LINE
  5
13E5
330
1F
100
AcDbEntity
  8
外形
  6
CENTER
 62
     1
 48
0.25
100
AcDbLine
 10
488.5581320752036
 20
272.247457070988
 30
0.0
 11
488.5581320752036
 21
281.2681547454068
 31
0.0
  0
LINE
  5
13E6
330
1F
100
AcDbEntity
  8
外形
100
AcDbLine
 10
489.0581320752037
 20
273.247457070988
 30
0.0
 11
488.0581320752037
 21
273.247457070988
 31
0.0
  0
DIMENSION
  5
1470
330
1F
100
AcDbEntity
  8
寸法
 62
     5
100
AcDbDimension
  2
*D9
 10
476.2181320752039
 20
266.2194496632122
 30
0.0
 11
480.2675498033181
 21
267.6853499148957
 31
0.0
 70
   160
 71
     5
 42
2.900000000000204
  3
ISO-25
100
AcDbAlignedDimension
 13
473.3181320752036
 23
272.247457070988
 33
0.0
 14
476.2181320752039
 24
272.2474570709881
 34
0.0
100
AcDbRotatedDimension
1001
ACAD
1000
DSTYLE
1002
{
1070
   279
1070
     2
1070
   175
1070
     0
1070
   172
1070
     1
1070
   372
1070
    -3
1070
    44
1040
0.2
1070
    42
1040
0.5
1002
}
  0
MTEXT
  5
14AB
330
1F
100
AcDbEntity
  8
外形
100
AcDbMText
 10
465.6212875164749
 20
283.4585588827832
 30
0.0
 40
1.399999999999999
 41
0.5
 71
     5
 72
     5
  1
{\fＭＳ ゴシック|b0|i0|c128|p49;1}
 73
     1
 44
1.0
  0
MTEXT
  5
14AD
330
1F
100
AcDbEntity
  8
外形
100
AcDbMText
 10
483.4012875164749
 20
283.4585588827832
 30
0.0
 40
1.399999999999999
 41
0.5
 71
     5
 72
     5
  1
{\fＭＳ ゴシック|b0|i0|c128|p49;3}
 73
     1
 44
1.0
  0
MTEXT
  5
14AF
330
1F
100
AcDbEntity
  8
外形
100
AcDbMText
 10
488.4812875164749
 20
283.4585588827832
 30
0.0
 40
1.399999999999999
 41
0.5
 71
     5
 72
     5
  1
{\fＭＳ ゴシック|b0|i0|c128|p49;4}
 73
     1
 44
1.0
  0
LINE
  5
14D5
330
1F
100
AcDbEntity
  8
外形
100
AcDbLine
 10
493.9681320752036
 20
280.477457070988
 30
0.0
 11
492.4681320752037
 21
280.4774570709881
 31
0.0
  0
LINE
  5
14D6
330
1F
100
AcDbEntity
  8
外形
100
AcDbLine
 10
459.9681320752036
 20
280.477457070988
 30
0.0
 11
458.4681320752036
 21
280.477457070988
 31
0.0
  0
MTEXT
  5
154A
330
1F
100
AcDbEntity
  8
寸法
 62
     5
100
AcDbMText
 10
486.7174274925034
 20
312.3998793106923
 30
0.0
 40
1.399999999999999
 41
0.0
 71
     8
 72
     1
  1
{\fMS UI Gothic|b0|i0|c128|p17;φ3.5}
 73
     2
 44
1.0
  0
LEADER
  5
154B
330
1F
100
AcDbEntity
  8
寸法
 62
     5
100
AcDbLeader
  3
ISO-25
 76
     3
 10
477.3717121882532
 20
304.8634179073264
 30
0.0
 10
483.9782249032364
 20
312.3998793106923
 30
0.0
 10
489.5316171556507
 20
312.3998793106923
 30
0.0
1001
ACAD
1000
DSTYLE
1002
{
1070
   147
1040
0.2
1070
    77
1070
     0
1002
}
  0
LEADER
  5
154C
330
1F
100
AcDbEntity
  8
寸法
 62
     5
100
AcDbLeader
  3
ISO-25
 76
     3
 10
489.0869070514535
 20
223.2643352627249
 30
0.0
 10
493.3501907698109
 20
226.9625586265815
 30
0.0
 10
502.6889858625301
 20
226.9625586265815
 30
0.0
1001
ACAD
1000
DSTYLE
1002
{
1070
   147
1040
0.2
1070
    77
1070
     0
1002
}
  0
LINE
  5
1552
330
1F
100
AcDbEntity
  8
外形
100
AcDbLine
 10
528.5711242348678
 20
308.2474570709881
 30
0.0
 11
531.8711242348678
 21
308.2474570709881
 31
0.0
  0
LINE
  5
1554
330
1F
100
AcDbEntity
  8
外形
100
AcDbLine
 10
522.1711242348678
 20
300.3474570709881
 30
0.0
 11
531.3711242348679
 21
300.347457070988
 31
0.0
  0
DIMENSION
  5
157C
330
1F
100
AcDbEntity
  8
寸法
 62
     5
100
AcDbDimension
  2
*D10
 10
531.8711242348678
 20
326.384983639208
 30
0.0
 11
524.8711242348678
 21
327.484983639208
 31
0.0
 70
    32
 71
     5
 42
14.0
  3
ISO-25
100
AcDbAlignedDimension
 13
517.8711242348677
 23
278.977457070988
 33
0.0
 14
531.8711242348678
 24
308.2474570709881
 34
0.0
100
AcDbRotatedDimension
1001
ACAD
1000
DSTYLE
1002
{
1070
     3
1000
Max
1002
}
  0
LINE
  5
1592
330
1F
100
AcDbEntity
  8
外形
100
AcDbLine
 10
517.8711242348677
 20
278.977457070988
 30
0.0
 11
517.8711242348677
 21
277.247457070988
 31
0.0
  0
LINE
  5
15EF
330
1F
100
AcDbEntity
  8
外形
100
AcDbLine
 10
517.8711242348677
 20
278.977457070988
 30
0.0
 11
522.1711242348678
 21
280.477457070988
 31
0.0
  0
LINE
  5
15F3
330
1F
100
AcDbEntity
  8
外形
100
AcDbLine
 10
521.5711242348678
 20
273.247457070988
 30
0.0
 11
520.5711242348678
 21
273.247457070988
 31
0.0
  0
LINE
  5
15F4
330
1F
100
AcDbEntity
  8
外形
  6
CENTER
 62
     1
 48
0.25
100
AcDbLine
 10
521.0711242348678
 20
272.247457070988
 30
0.0
 11
521.0711242348678
 21
281.2681547454068
 31
0.0
  0
LINE
  5
15F5
330
1F
100
AcDbEntity
  8
外形
100
AcDbLine
 10
520.571124234868
 20
280.2681547454068
 30
0.0
 11
520.571124234868
 21
279.9193175361044
 31
0.0
  0
LINE
  5
15F6
330
1F
100
AcDbEntity
  8
外形
100
AcDbLine
 10
521.5711242348681
 20
280.2681547454068
 30
0.0
 11
521.5711242348681
 21
280.2681547454068
 31
0.0
  0
LINE
  5
15F7
330
1F
100
AcDbEntity
  8
外形
100
AcDbLine
 10
488.0581320752039
 20
278.977457070988
 30
0.0
 11
483.9781320752038
 21
278.977457070988
 31
0.0
  0
LINE
  5
15F8
330
1F
100
AcDbEntity
  8
外形
100
AcDbLine
 10
488.0581320752037
 20
277.477457070988
 30
0.0
 11
483.9781320752038
 21
277.477457070988
 31
0.0
  0
LINE
  5
15F9
330
1F
100
AcDbEntity
  8
外形
100
AcDbLine
 10
465.1981320752039
 20
277.477457070988
 30
0.0
 11
459.4681320752036
 21
277.477457070988
 31
0.0
  0
LINE
  5
15FA
330
1F
100
AcDbEntity
  8
外形
100
AcDbLine
 10
465.1981320752039
 20
278.9774570709881
 30
0.0
 11
458.4681320752036
 21
278.977457070988
 31
0.0
  0
LINE
  5
15FB
330
1F
100
AcDbEntity
  8
外形
100
AcDbLine
 10
472.8181320752039
 20
278.977457070988
 30
0.0
 11
466.1981320752038
 21
278.9774570709881
 31
0.0
  0
LINE
  5
15FC
330
1F
100
AcDbEntity
  8
外形
100
AcDbLine
 10
472.8181320752039
 20
277.477457070988
 30
0.0
 11
466.1981320752038
 21
277.477457070988
 31
0.0
  0
LINE
  5
15FD
330
1F
100
AcDbEntity
  8
外形
100
AcDbLine
 10
482.9781320752039
 20
278.977457070988
 30
0.0
 11
473.8181320752039
 21
278.977457070988
 31
0.0
  0
LINE
  5
15FE
330
1F
100
AcDbEntity
  8
外形
100
AcDbLine
 10
482.9781320752039
 20
277.477457070988
 30
0.0
 11
473.8181320752038
 21
277.477457070988
 31
0.0
  0
LINE
  5
15FF
330
1F
100
AcDbEntity
  8
外形
100
AcDbLine
 10
521.5711242348681
 20
277.247457070988
 30
0.0
 11
521.5711242348678
 21
273.247457070988
 31
0.0
  0
LINE
  5
1600
330
1F
100
AcDbEntity
  8
外形
100
AcDbLine
 10
520.571124234868
 20
277.247457070988
 30
0.0
 11
520.5711242348678
 21
273.247457070988
 31
0.0
  0
LINE
  5
16D2
330
1F
100
AcDbEntity
  8
外形
100
AcDbLine
 10
528.5711242348678
 20
308.2474570709881
 30
0.0
 11
528.5711242348678
 21
300.3474570709881
 31
0.0
  0
LINE
  5
16D5
330
1F
100
AcDbEntity
  8
外形
100
AcDbLine
 10
531.8711242348678
 20
277.997457070988
 30
0.0
 11
531.3711242348676
 21
277.997457070988
 31
0.0
  0
DIMENSION
  5
17B1
330
1F
100
AcDbEntity
  8
寸法
 62
     5
100
AcDbDimension
  2
*D11
 10
505.8711242348677
 20
277.247457070988
 30
0.0
 11
504.7711242348677
 21
290.3974570709881
 31
0.0
 70
    32
 71
     5
 42
26.30000000000012
  3
ISO-25
100
AcDbAlignedDimension
 13
527.4928622408388
 23
303.5474570709881
 33
0.0
 14
493.9681320752036
 24
277.247457070988
 34
0.0
 50
90.0
100
AcDbRotatedDimension
1001
ACAD
1000
DSTYLE
1002
{
1070
    76
1070
     1
1070
    44
1040
13.0
1002
}
  0
DIMENSION
  5
1807
330
1F
100
AcDbEntity
  8
寸法
 62
     5
100
AcDbDimension
  2
*D12
 10
531.8711242348678
 20
314.384983639208
 30
0.0
 11
537.6711242348677
 21
314.384983639208
 31
0.0
 70
   160
 71
     5
 42
3.299999999999954
  3
ISO-25
100
AcDbAlignedDimension
 13
528.5711242348678
 23
308.2474570709881
 33
0.0
 14
531.8711242348678
 24
308.2474570709881
 34
0.0
100
AcDbRotatedDimension
  0
DIMENSION
  5
1893
330
1F
100
AcDbEntity
  8
寸法
 62
     5
100
AcDbDimension
  2
*D13
 10
511.8711242348678
 20
277.247457070988
 30
0.0
 11
510.7711242348677
 21
292.7474570709881
 31
0.0
 70
    32
 71
     5
 42
31.00000000000011
  3
ISO-25
100
AcDbAlignedDimension
 13
528.5711242348678
 23
308.2474570709881
 33
0.0
 14
493.9681320752036
 24
277.247457070988
 34
0.0
 50
90.0
100
AcDbRotatedDimension
1001
ACAD
1000
DSTYLE
1002
{
1070
    42
1040
0.5
1070
    75
1070
     0
1070
    73
1070
     0
1070
   174
1070
     0
1070
    76
1070
     1
1070
    44
1040
15.0
1070
     3
1000
Max
1002
}
  0
LINE
  5
1917
330
1F
100
AcDbEntity
  8
外形
  6
CENTER
 62
     1
 48
0.25
100
AcDbLine
 10
527.4928622408388
 20
303.5474570709881
 30
0.0
 11
532.9928622408389
 21
303.5474570709881
 31
0.0
  0
CIRCLE
  5
1DDB
330
1F
100
AcDbEntity
  8
外形
100
AcDbCircle
 10
465.6981320752036
 20
222.8056447085471
 30
0.0
 40
0.7
  0
CIRCLE
  5
1DDC
330
1F
100
AcDbEntity
  8
外形
100
AcDbCircle
 10
473.3181320752037
 20
222.8056447085471
 30
0.0
 40
0.7
  0
CIRCLE
  5
1DDD
330
1F
100
AcDbEntity
  8
外形
100
AcDbCircle
 10
483.4781320752037
 20
222.8056447085471
 30
0.0
 40
0.7
  0
CIRCLE
  5
1DDE
330
1F
100
AcDbEntity
  8
外形
100
AcDbCircle
 10
488.5581320752036
 20
222.8056447085471
 30
0.0
 40
0.7
  0
CIRCLE
  5
1DE0
330
1F
100
AcDbEntity
  8
外形
100
AcDbCircle
 10
465.6212875164749
 20
283.4585588827832
 30
0.0
 40
0.9601065181401045
  0
CIRCLE
  5
1DE1
330
1F
100
AcDbEntity
  8
外形
100
AcDbCircle
 10
473.2412875164749
 20
283.4585588827832
 30
0.0
 40
0.9601065181401045
  0
CIRCLE
  5
1DE2
330
1F
100
AcDbEntity
  8
外形
100
AcDbCircle
 10
483.4012875164749
 20
283.4585588827832
 30
0.0
 40
0.9601065181401045
  0
CIRCLE
  5
1DE3
330
1F
100
AcDbEntity
  8
外形
100
AcDbCircle
 10
488.4812875164749
 20
283.4585588827832
 30
0.0
 40
0.9601065181401045
  0
ARC
  5
1DE5
330
1F
100
AcDbEntity
  8
外形
100
AcDbCircle
 10
465.6981320752036
 20
280.2681547454068
 30
0.0
 40
0.4999999999997158
100
AcDbArc
 50
0.0
 51
180.0
  0
ARC
  5
1DE6
330
1F
100
AcDbEntity
  8
外形
100
AcDbCircle
 10
473.3181320752036
 20
280.2681547454068
 30
0.0
 40
0.4999999999997158
100
AcDbArc
 50
0.0
 51
180.0
  0
ARC
  5
1DE7
330
1F
100
AcDbEntity
  8
外形
100
AcDbCircle
 10
483.4781320752036
 20
280.2681547454068
 30
0.0
 40
0.4999999999997158
100
AcDbArc
 50
0.0
 51
180.0
  0
ARC
  5
1DE8
330
1F
100
AcDbEntity
  8
外形
100
AcDbCircle
 10
488.5581320752036
 20
280.2681547454068
 30
0.0
 40
0.4999999999997158
100
AcDbArc
 50
0.0
 51
180.0
  0
ARC
  5
1DE9
330
1F
100
AcDbEntity
  8
外形
100
AcDbCircle
 10
521.0711242348675
 20
280.2681547454068
 30
0.0
 40
0.4999999999997158
100
AcDbArc
 50
0.0
 51
180.0
  0
LINE
  5
1DF5
330
1F
100
AcDbEntity
  8
外形
100
AcDbLine
 10
531.3711242348678
 20
308.2474570709881
 30
0.0
 11
531.3711242348678
 21
277.247457070988
 31
0.0
  0
VIEWPORT
  5
2D8
102
{ACAD_XDICTIONARY
360
305
102
}
330
2D1
100
AcDbEntity
 67
     1
  8
0
 62
     5
100
AcDbViewport
 10
100.1722543522882
 20
143.6910295125843
 30
0.0
 40
381.4718101371926
 41
290.6715534427084
 68
     1
 69
     1
 12
100.1722543522882
 22
143.6910295125843
 13
0.0
 23
0.0
 14
10.0
 24
10.0
 15
10.0
 25
10.0
 16
0.0
 26
0.0
 36
1.0
 17
0.0
 27
0.0
 37
0.0
 42
50.0
 43
0.0
 44
0.0
 45
290.6715534427084
 50
0.0
 51
0.0
 72
   100
 90
    32800
  1

281
     0
 71
     1
 74
     0
110
0.0
120
0.0
130
0.0
111
1.0
121
0.0
131
0.0
112
0.0
122
1.0
132
0.0
 79
     0
146
0.0
  0
VIEWPORT
  5
19D1
330
2D1
100
AcDbEntity
 67
     1
  8
寸法
 62
     5
100
AcDbViewport
 10
100.1712510585784
 20
143.6899168491363
 30
0.0
 40
200.3425021171569
 41
287.3798336982726
 68
     2
 69
     2
 12
488.3833204832443
 22
282.536040899073
 13
0.0
 23
0.0
 14
10.0
 24
10.0
 15
10.0
 25
10.0
 16
0.0
 26
0.0
 36
1.0
 17
0.0
 27
0.0
 37
0.0
 42
50.0
 43
0.0
 44
0.0
 45
114.3120230803743
 50
0.0
 51
0.0
 72
   100
 90
    32864
  1

281
     0
 71
     1
 74
     0
110
0.0
120
0.0
130
0.0
111
1.0
121
0.0
131
0.0
112
0.0
122
1.0
132
0.0
 79
     0
146
0.0
  0
ENDSEC
  0
SECTION
  2
OBJECTS
  0
DICTIONARY
  5
C
330
0
100
AcDbDictionary
281
     1
  3
ACAD_COLOR
350
2EC
  3
ACAD_GROUP
350
D
  3
ACAD_LAYOUT
350
1A
  3
ACAD_MATERIAL
350
2EB
  3
ACAD_MLINESTYLE
350
17
  3
ACAD_PLOTSETTINGS
350
19
  3
ACAD_PLOTSTYLENAME
350
E
  3
ACAD_TABLESTYLE
350
2F4
  3
AcadDim
350
11D0
  3
AcDbVariableDictionary
350
309
  0
DICTIONARY
  5
305
330
2D8
100
AcDbDictionary
280
     1
281
     1
  3
ACAD_XREC_ROUNDTRIP
360
306
  0
DICTIONARY
  5
2EC
102
{ACAD_REACTORS
330
C
102
}
330
C
100
AcDbDictionary
281
     1
  0
DICTIONARY
  5
D
102
{ACAD_REACTORS
330
C
102
}
330
C
100
AcDbDictionary
281
     1
  0
DICTIONARY
  5
1A
102
{ACAD_REACTORS
330
C
102
}
330
C
100
AcDbDictionary
281
     1
  3
Model
350
22
  3
ﾚｲｱｳﾄ2
350
2D2
  0
DICTIONARY
  5
2EB
102
{ACAD_REACTORS
330
C
102
}
330
C
100
AcDbDictionary
281
     1
  0
DICTIONARY
  5
17
102
{ACAD_REACTORS
330
C
102
}
330
C
100
AcDbDictionary
281
     1
  3
Standard
350
18
  0
DICTIONARY
  5
19
102
{ACAD_REACTORS
330
C
102
}
330
C
100
AcDbDictionary
281
     1
  0
ACDBDICTIONARYWDFLT
  5
E
102
{ACAD_REACTORS
330
C
102
}
330
C
100
AcDbDictionary
281
     1
  3
Normal
350
F
100
AcDbDictionaryWithDefault
340
F
  0
DICTIONARY
  5
2F4
102
{ACAD_REACTORS
330
C
102
}
330
C
100
AcDbDictionary
281
     1
  3
Standard
350
2F5
  0
XRECORD
  5
11D0
102
{ACAD_REACTORS
330
C
102
}
330
C
100
AcDbXrecord
280
     1
 90
   990106
  3

 60
     0
 61
     0
 62
     1
 63
     3
 64
     0
 65
     0
 66
     1
 67
     6
 68
     1
 69
     0
 70
     0
 71
     0
 72
     0
 40
0.0
170
     1
  0
DICTIONARY
  5
309
102
{ACAD_REACTORS
330
C
102
}
330
C
100
AcDbDictionary
281
     1
  3
CTABLESTYLE
350
30A
  3
DIMASSOC
350
30B
  3
PROJECTNAME
350
30C
  0
XRECORD
  5
306
102
{ACAD_REACTORS
330
305
102
}
330
305
100
AcDbXrecord
280
     1
102
SHADEPLOT
 70
     0
  0
LAYOUT
  5
22
102
{ACAD_XDICTIONARY
360
301
102
}
102
{ACAD_REACTORS
330
1A
102
}
330
1A
100
AcDbPlotSettings
  1

  2
Canon LBP-1420(RYU)
  4
A4
  6
QQQQ
 40
5.873749732971191
 41
5.873747825622558
 42
5.873748779296875
 43
5.873748779296875
 44
209.9733276367187
 45
296.9259948730469
 46
16.26
 47
38.29
 48
441.4758226560642
 49
218.5281054706833
140
540.9026756178597
141
343.6817571101156
142
1.0
143
0.6
 70
 11940
 72
     1
 73
     0
 74
     4
  7
monochrome.ctb
 75
     0
147
1.666666666666666
148
-441.4758226560642
149
-218.5281054706833
100
AcDbLayout
  1
Model
 70
     1
 71
     0
 10
0.0
 20
0.0
 11
12.0
 21
9.0
 12
0.0
 22
0.0
 32
0.0
 14
0.0
 24
0.0
 34
0.0
 15
0.0
 25
0.0
 35
0.0
146
0.0
 13
0.0
 23
0.0
 33
0.0
 16
1.0
 26
0.0
 36
0.0
 17
0.0
 27
1.0
 37
0.0
 76
     0
330
1F
  0
LAYOUT
  5
2D2
102
{ACAD_XDICTIONARY
360
303
102
}
102
{ACAD_REACTORS
330
1A
102
}
330
1A
100
AcDbPlotSettings
  1

  2
none_device
  4
none_user_media
  6

 40
4.773083209991455
 41
4.773089885711669
 42
4.857742309570312
 43
4.7730712890625
 44
209.9733276367187
 45
296.9259948730469
 46
0.0
 47
0.0
 48
0.0
 49
0.0
140
0.0
141
0.0
142
1.0
143
1.0
 70
   688
 72
     1
 73
     0
 74
     5
  7
monochrome.ctb
 75
    16
147
1.0
148
0.0
149
0.0
100
AcDbLayout
  1
ﾚｲｱｳﾄ2
 70
     1
 71
     1
 10
-4.773083209991455
 20
-4.773089885711669
 11
205.2002444267273
 21
292.1529049873352
 12
0.0
 22
0.0
 32
0.0
 14
-0.0022107197171408
 24
-0.0056219074012347
 34
-0.0015258207003583
 15
200.3467194242936
 25
287.3876809325698
 35
0.0000000349246037
146
0.0
 13
0.0
 23
0.0
 33
0.0
 16
1.0
 26
0.0
 36
0.0
 17
0.0
 27
1.0
 37
0.0
 76
     0
330
2D1
331
2D8
  0
MLINESTYLE
  5
18
102
{ACAD_REACTORS
330
17
102
}
330
17
100
AcDbMlineStyle
  2
STANDARD
 70
     0
  3

 62
   256
 51
90.0
 52
90.0
 71
     2
 49
0.5
 62
   256
  6
BYLAYER
 49
-0.5
 62
   256
  6
BYLAYER
  0
ACDBPLACEHOLDER
  5
F
102
{ACAD_REACTORS
330
E
102
}
330
E
  0
ACAD_PROXY_OBJECT
  5
2F5
102
{ACAD_REACTORS
330
2F4
102
}
330
2F4
100
AcDbProxyObject
 90
      499
 91
      503
 95
   655383
 70
     0
 93
     1841
310
4214DD185B99185C9928000000000000F83F0000000000003E0FC00000000000004901028000000C1008070000C3001FDFF8000000C1003FBFF000000182007F7FE00000030400FEFFC00000060801FDFF8000000C1003FBFF000000182000000000000000C2020B0000001820100E000186003FBFF000000182007F7FE000
310
00030400FEFFC00000060801FDFF8000000C1003FBFF000000182007F7FE0000003040000000000000012404160000003040201C00030C007F7FE00000030400FEFFC00000060801FDFF8000000C1003FBFF000000182007F7FE00000030400FEFFC00000060804D
340
11
340
11
340
11
 94
        0
  0
DICTIONARYVAR
  5
30A
102
{ACAD_REACTORS
330
309
102
}
330
309
100
DictionaryVariables
280
     0
  1
STANDARD
  0
DICTIONARYVAR
  5
30B
102
{ACAD_REACTORS
330
309
102
}
330
309
100
DictionaryVariables
280
     0
  1
1
  0
DICTIONARYVAR
  5
30C
102
{ACAD_REACTORS
330
309
102
}
330
309
100
DictionaryVariables
280
     0
  1

  0
DICTIONARY
  5
301
330
22
100
AcDbDictionary
280
     1
281
     1
  3
ACAD_XREC_ROUNDTRIP
360
302
  0
DICTIONARY
  5
303
330
2D2
100
AcDbDictionary
280
     1
281
     1
  3
ACAD_XREC_ROUNDTRIP
360
304
  0
XRECORD
  5
302
102
{ACAD_REACTORS
330
301
102
}
330
301
100
AcDbXrecord
280
     1
102
SHADEPLOT
 70
     0
102
SHADEPLOTRESLEVEL
 70
     2
102
SHADEPLOTCUSTOMDPI
 70
   300
  0
XRECORD
  5
304
102
{ACAD_REACTORS
330
303
102
}
330
303
100
AcDbXrecord
280
     1
102
SHADEPLOT
 70
     0
102
SHADEPLOTRESLEVEL
 70
     2
102
SHADEPLOTCUSTOMDPI
 70
   300
  0
ENDSEC
  0
EOF
