  0
SECTION
  2
HEADER
  9
$ACADVER
  1
AC1015
  9
$ACADMAINTVER
 70
    10
  9
$DWGCODEPAGE
  3
ANSI_932
  9
$INSBASE
 10
0.0
 20
0.0
 30
0.0
  9
$EXTMIN
 10
456.0539185128305
 20
235.4912011674584
 30
0.0
  9
$EXTMAX
 10
514.7929985304612
 20
318.4467380548872
 30
0.0
  9
$LIMMIN
 10
0.0
 20
0.0
  9
$LIMMAX
 10
420.0
 20
297.0
  9
$ORTHOMODE
 70
     1
  9
$REGENMODE
 70
     1
  9
$FILLMODE
 70
     1
  9
$QTEXTMODE
 70
     0
  9
$MIRRTEXT
 70
     1
  9
$LTSCALE
 40
0.5
  9
$ATTMODE
 70
     1
  9
$TEXTSIZE
 40
2.5
  9
$TRACEWID
 40
1.0
  9
$TEXTSTYLE
  7
Standard
  9
$CLAYER
  8
寸法
  9
$CELTYPE
  6
ByLayer
  9
$CECOLOR
 62
     5
  9
$CELTSCALE
 40
1.0
  9
$DISPSILH
 70
     0
  9
$DIMSCALE
 40
1.0
  9
$DIMASZ
 40
1.0
  9
$DIMEXO
 40
2.0
  9
$DIMDLI
 40
3.75
  9
$DIMRND
 40
0.0
  9
$DIMDLE
 40
0.0
  9
$DIMEXE
 40
0.5
  9
$DIMTP
 40
0.0
  9
$DIMTM
 40
0.0
  9
$DIMTXT
 40
0.7
  9
$DIMCEN
 40
2.5
  9
$DIMTSZ
 40
0.0
  9
$DIMTOL
 70
     0
  9
$DIMLIM
 70
     0
  9
$DIMTIH
 70
     0
  9
$DIMTOH
 70
     0
  9
$DIMSE1
 70
     0
  9
$DIMSE2
 70
     0
  9
$DIMTAD
 70
     1
  9
$DIMZIN
 70
     9
  9
$DIMBLK
  1

  9
$DIMASO
 70
     1
  9
$DIMSHO
 70
     1
  9
$DIMPOST
  1

  9
$DIMAPOST
  1

  9
$DIMALT
 70
     0
  9
$DIMALTD
 70
     3
  9
$DIMALTF
 40
0.03937007874016
  9
$DIMLFAC
 40
1.0
  9
$DIMTOFL
 70
     1
  9
$DIMTVP
 40
0.0
  9
$DIMTIX
 70
     0
  9
$DIMSOXD
 70
     0
  9
$DIMSAH
 70
     0
  9
$DIMBLK1
  1

  9
$DIMBLK2
  1

  9
$DIMSTYLE
  2
ISO-25
  9
$DIMCLRD
 70
     0
  9
$DIMCLRE
 70
     0
  9
$DIMCLRT
 70
     0
  9
$DIMTFAC
 40
1.0
  9
$DIMGAP
 40
0.2
  9
$DIMJUST
 70
     0
  9
$DIMSD1
 70
     0
  9
$DIMSD2
 70
     0
  9
$DIMTOLJ
 70
     0
  9
$DIMTZIN
 70
     8
  9
$DIMALTZ
 70
     0
  9
$DIMALTTZ
 70
     0
  9
$DIMUPT
 70
     0
  9
$DIMDEC
 70
     2
  9
$DIMTDEC
 70
     2
  9
$DIMALTU
 70
     2
  9
$DIMALTTD
 70
     3
  9
$DIMTXSTY
  7
Standard
  9
$DIMAUNIT
 70
     0
  9
$DIMADEC
 70
     1
  9
$DIMALTRND
 40
0.0
  9
$DIMAZIN
 70
     1
  9
$DIMDSEP
 70
    46
  9
$DIMATFIT
 70
     3
  9
$DIMFRAC
 70
     0
  9
$DIMLDRBLK
  1

  9
$DIMLUNIT
 70
     2
  9
$DIMLWD
 70
    -2
  9
$DIMLWE
 70
    -2
  9
$DIMTMOVE
 70
     0
  9
$LUNITS
 70
     2
  9
$LUPREC
 70
     4
  9
$SKETCHINC
 40
1.0
  9
$FILLETRAD
 40
0.2
  9
$AUNITS
 70
     0
  9
$AUPREC
 70
     0
  9
$MENU
  1
.
  9
$ELEVATION
 40
0.0
  9
$PELEVATION
 40
0.0
  9
$THICKNESS
 40
0.0
  9
$LIMCHECK
 70
     0
  9
$CHAMFERA
 40
0.0
  9
$CHAMFERB
 40
0.0
  9
$CHAMFERC
 40
20.0
  9
$CHAMFERD
 40
0.0
  9
$SKPOLY
 70
     0
  9
$TDCREATE
 40
2453483.907673240
  9
$TDUCREATE
 40
2453483.532673240
  9
$TDUPDATE
 40
2453518.747879051
  9
$TDUUPDATE
 40
2453518.372879051
  9
$TDINDWG
 40
0.2566218403
  9
$TDUSRTIMER
 40
0.2566216551
  9
$USRTIMER
 70
     1
  9
$ANGBASE
 50
0.0
  9
$ANGDIR
 70
     0
  9
$PDMODE
 70
     0
  9
$PDSIZE
 40
0.0
  9
$PLINEWID
 40
0.0
  9
$SPLFRAME
 70
     0
  9
$SPLINETYPE
 70
     6
  9
$SPLINESEGS
 70
     8
  9
$HANDSEED
  5
253E
  9
$SURFTAB1
 70
     6
  9
$SURFTAB2
 70
     6
  9
$SURFTYPE
 70
     6
  9
$SURFU
 70
     6
  9
$SURFV
 70
     6
  9
$UCSBASE
  2

  9
$UCSNAME
  2

  9
$UCSORG
 10
0.0
 20
0.0
 30
0.0
  9
$UCSXDIR
 10
1.0
 20
0.0
 30
0.0
  9
$UCSYDIR
 10
0.0
 20
1.0
 30
0.0
  9
$UCSORTHOREF
  2

  9
$UCSORTHOVIEW
 70
     0
  9
$UCSORGTOP
 10
0.0
 20
0.0
 30
0.0
  9
$UCSORGBOTTOM
 10
0.0
 20
0.0
 30
0.0
  9
$UCSORGLEFT
 10
0.0
 20
0.0
 30
0.0
  9
$UCSORGRIGHT
 10
0.0
 20
0.0
 30
0.0
  9
$UCSORGFRONT
 10
0.0
 20
0.0
 30
0.0
  9
$UCSORGBACK
 10
0.0
 20
0.0
 30
0.0
  9
$PUCSBASE
  2

  9
$PUCSNAME
  2

  9
$PUCSORG
 10
0.0
 20
0.0
 30
0.0
  9
$PUCSXDIR
 10
1.0
 20
0.0
 30
0.0
  9
$PUCSYDIR
 10
0.0
 20
1.0
 30
0.0
  9
$PUCSORTHOREF
  2

  9
$PUCSORTHOVIEW
 70
     0
  9
$PUCSORGTOP
 10
0.0
 20
0.0
 30
0.0
  9
$PUCSORGBOTTOM
 10
0.0
 20
0.0
 30
0.0
  9
$PUCSORGLEFT
 10
0.0
 20
0.0
 30
0.0
  9
$PUCSORGRIGHT
 10
0.0
 20
0.0
 30
0.0
  9
$PUCSORGFRONT
 10
0.0
 20
0.0
 30
0.0
  9
$PUCSORGBACK
 10
0.0
 20
0.0
 30
0.0
  9
$USERI1
 70
     0
  9
$USERI2
 70
     0
  9
$USERI3
 70
     0
  9
$USERI4
 70
     0
  9
$USERI5
 70
     0
  9
$USERR1
 40
0.0
  9
$USERR2
 40
0.0
  9
$USERR3
 40
0.0
  9
$USERR4
 40
0.0
  9
$USERR5
 40
0.0
  9
$WORLDVIEW
 70
     1
  9
$SHADEDGE
 70
     3
  9
$SHADEDIF
 70
    70
  9
$TILEMODE
 70
     1
  9
$MAXACTVP
 70
    64
  9
$PINSBASE
 10
0.0
 20
0.0
 30
0.0
  9
$PLIMCHECK
 70
     0
  9
$PEXTMIN
 10
-6.072939263452838
 20
-13.89798483671347
 30
-0.0015258207003583
  9
$PEXTMAX
 10
189.5841875675847
 20
272.7480156891926
 30
0.0000000349246037
  9
$PLIMMIN
 10
-11.11171940006971
 20
-18.94284635962515
  9
$PLIMMAX
 10
198.8192803557896
 20
278.1101626735779
  9
$UNITMODE
 70
     0
  9
$VISRETAIN
 70
     1
  9
$PLINEGEN
 70
     0
  9
$PSLTSCALE
 70
     1
  9
$TREEDEPTH
 70
  3020
  9
$CMLSTYLE
  2
Standard
  9
$CMLJUST
 70
     0
  9
$CMLSCALE
 40
20.0
  9
$PROXYGRAPHICS
 70
     1
  9
$MEASUREMENT
 70
     1
  9
$CELWEIGHT
370
    -1
  9
$ENDCAPS
280
     0
  9
$JOINSTYLE
280
     0
  9
$LWDISPLAY
290
     0
  9
$INSUNITS
 70
     4
  9
$HYPERLINKBASE
  1

  9
$STYLESHEET
  1
monochrome.ctb
  9
$XEDIT
290
     1
  9
$CEPSNTYPE
380
     0
  9
$PSTYLEMODE
290
     1
  9
$FINGERPRINTGUID
  2
{FDEAD578-A652-11D2-9A35-0060089B3A3F}
  9
$VERSIONGUID
  2
{D522A803-4A2D-4CA0-B027-95A2F684819C}
  9
$EXTNAMES
290
     1
  9
$PSVPSCALE
 40
0.0
  9
$OLESTARTUP
290
     0
  0
ENDSEC
  0
SECTION
  2
CLASSES
  0
CLASS
  1
ACDBDICTIONARYWDFLT
  2
AcDbDictionaryWithDefault
  3
AutoCAD 2000
 90
        0
280
     0
281
     0
  0
CLASS
  1
ACDBPLACEHOLDER
  2
AcDbPlaceHolder
  3
AutoCAD 2000
 90
        0
280
     0
281
     0
  0
CLASS
  1
LAYOUT
  2
AcDbLayout
  3
AutoCAD 2000
 90
        0
280
     0
281
     0
  0
CLASS
  1
TABLESTYLE
  2
AcDbTableStyle
  3
ObjectDBX Classes
 90
     2047
280
     0
281
     0
  0
CLASS
  1
DICTIONARYVAR
  2
AcDbDictionaryVar
  3
AutoCAD 2000
 90
        0
280
     0
281
     0
  0
CLASS
  1
IMAGEDEF
  2
AcDbRasterImageDef
  3
ISM
 90
        0
280
     0
281
     0
  0
CLASS
  1
RASTERVARIABLES
  2
AcDbRasterVariables
  3
ISM
 90
        0
280
     0
281
     0
  0
CLASS
  1
IMAGEDEF_REACTOR
  2
AcDbRasterImageDefReactor
  3
ISM
 90
    32769
280
     0
281
     0
  0
CLASS
  1
IMAGE
  2
AcDbRasterImage
  3
ISM
 90
    32895
280
     0
281
     1
  0
ENDSEC
  0
SECTION
  2
TABLES
  0
TABLE
  2
VPORT
  5
8
330
0
100
AcDbSymbolTable
 70
     2
  0
VPORT
  5
253D
330
8
100
AcDbSymbolTableRecord
100
AcDbViewportTableRecord
  2
*Active
 70
     0
 10
0.0
 20
0.0
 11
1.0
 21
1.0
 12
490.1235367366183
 22
275.5187038986913
 13
0.0
 23
0.0
 14
10.0
 24
10.0
 15
10.0
 25
10.0
 16
0.0
 26
0.0
 36
1.0
 17
0.0
 27
0.0
 37
0.0
 40
90.88407166243687
 41
1.561128526645767
 42
50.0
 43
0.0
 44
0.0
 50
0.0
 51
0.0
 71
     0
 72
   100
 73
     1
 74
     3
 75
     0
 76
     0
 77
     0
 78
     0
281
     0
 65
     1
110
0.0
120
0.0
130
0.0
111
1.0
121
0.0
131
0.0
112
0.0
122
1.0
132
0.0
 79
     0
146
0.0
  0
ENDTAB
  0
TABLE
  2
LTYPE
  5
5
330
0
100
AcDbSymbolTable
 70
     2
  0
LTYPE
  5
14
330
5
100
AcDbSymbolTableRecord
100
AcDbLinetypeTableRecord
  2
ByBlock
 70
     0
  3

 72
    65
 73
     0
 40
0.0
  0
LTYPE
  5
15
330
5
100
AcDbSymbolTableRecord
100
AcDbLinetypeTableRecord
  2
ByLayer
 70
     0
  3

 72
    65
 73
     0
 40
0.0
  0
LTYPE
  5
16
330
5
100
AcDbSymbolTableRecord
100
AcDbLinetypeTableRecord
  2
Continuous
 70
     0
  3
Solid line
 72
    65
 73
     0
 40
0.0
  0
LTYPE
  5
1E5C
330
5
100
AcDbSymbolTableRecord
100
AcDbLinetypeTableRecord
  2
CENTER
 70
     0
  3
Center ____ _ ____ _ ____ _ ____ _ ____ _ ____
 72
    65
 73
     4
 40
50.8
 49
31.75
 74
     0
 49
-6.349999999999999
 74
     0
 49
6.349999999999999
 74
     0
 49
-6.349999999999999
 74
     0
  0
ENDTAB
  0
TABLE
  2
LAYER
  5
2
330
0
100
AcDbSymbolTable
 70
     4
  0
LAYER
  5
10
330
2
100
AcDbSymbolTableRecord
100
AcDbLayerTableRecord
  2
0
 70
     0
 62
     7
  6
Continuous
370
    -3
390
F
  0
LAYER
  5
64
330
2
100
AcDbSymbolTableRecord
100
AcDbLayerTableRecord
  2
外形
 70
     0
 62
     7
  6
Continuous
370
    -3
390
F
  0
LAYER
  5
65
330
2
100
AcDbSymbolTableRecord
100
AcDbLayerTableRecord
  2
寸法
 70
     0
 62
     7
  6
Continuous
370
    -3
390
F
  0
LAYER
  5
E3
330
2
100
AcDbSymbolTableRecord
100
AcDbLayerTableRecord
  2
Defpoints
 70
     0
 62
     7
  6
Continuous
290
     0
370
    -3
390
F
  0
ENDTAB
  0
TABLE
  2
STYLE
  5
3
330
0
100
AcDbSymbolTable
 70
     1
  0
STYLE
  5
11
330
3
100
AcDbSymbolTableRecord
100
AcDbTextStyleTableRecord
  2
Standard
 70
     0
 40
0.0
 41
1.0
 50
0.0
 71
     0
 42
2.5
  3
txt
  4

  0
ENDTAB
  0
TABLE
  2
VIEW
  5
6
330
0
100
AcDbSymbolTable
 70
     0
  0
ENDTAB
  0
TABLE
  2
UCS
  5
7
330
0
100
AcDbSymbolTable
 70
     0
  0
ENDTAB
  0
TABLE
  2
APPID
  5
9
330
0
100
AcDbSymbolTable
 70
     2
  0
APPID
  5
12
330
9
100
AcDbSymbolTableRecord
100
AcDbRegAppTableRecord
  2
ACAD
 70
     0
  0
APPID
  5
313
330
9
100
AcDbSymbolTableRecord
100
AcDbRegAppTableRecord
  2
QDRX_VIEW
 70
     0
  0
ENDTAB
  0
TABLE
  2
DIMSTYLE
  5
A
330
0
100
AcDbSymbolTable
 70
     1
100
AcDbDimStyleTable
 71
     1
340
27
  0
DIMSTYLE
105
27
102
{ACAD_REACTORS
330
454
330
744
330
1F48
330
840
330
2223
330
1B02
330
24E5
102
}
330
A
100
AcDbSymbolTableRecord
100
AcDbDimStyleTableRecord
  2
ISO-25
 70
     0
 41
1.0
 42
2.0
 43
3.75
 44
0.5
 73
     0
 74
     0
 77
     1
 78
     9
 79
     1
140
0.7
141
2.5
143
0.03937007874016
147
0.2
171
     3
172
     1
179
     1
271
     2
272
     2
274
     3
283
     0
284
     8
340
11
  0
ENDTAB
  0
TABLE
  2
BLOCK_RECORD
  5
1
330
0
100
AcDbSymbolTable
 70
    10
  0
BLOCK_RECORD
  5
1F
330
1
100
AcDbSymbolTableRecord
100
AcDbBlockTableRecord
  2
*Model_Space
340
22
  0
BLOCK_RECORD
  5
2D1
330
1
100
AcDbSymbolTableRecord
100
AcDbBlockTableRecord
  2
*Paper_Space
340
2D2
  0
BLOCK_RECORD
  5
462
330
1
100
AcDbSymbolTableRecord
100
AcDbBlockTableRecord
  2
*D0
340
0
  0
BLOCK_RECORD
  5
745
330
1
100
AcDbSymbolTableRecord
100
AcDbBlockTableRecord
  2
*D4
340
0
  0
BLOCK_RECORD
  5
841
330
1
100
AcDbSymbolTableRecord
100
AcDbBlockTableRecord
  2
*D5
340
0
  0
BLOCK_RECORD
  5
1F49
330
1
100
AcDbSymbolTableRecord
100
AcDbBlockTableRecord
  2
*D7
340
0
  0
BLOCK_RECORD
  5
2224
330
1
100
AcDbSymbolTableRecord
100
AcDbBlockTableRecord
  2
*D8
340
0
  0
BLOCK_RECORD
  5
24E6
330
1
100
AcDbSymbolTableRecord
100
AcDbBlockTableRecord
  2
*D9
340
0
  0
ENDTAB
  0
ENDSEC
  0
SECTION
  2
BLOCKS
  0
BLOCK
  5
20
330
1F
100
AcDbEntity
  8
0
100
AcDbBlockBegin
  2
*Model_Space
 70
     0
 10
0.0
 20
0.0
 30
0.0
  3
*Model_Space
  1

  0
ENDBLK
  5
21
330
1F
100
AcDbEntity
  8
0
100
AcDbBlockEnd
  0
BLOCK
  5
2D3
330
2D1
100
AcDbEntity
 67
     1
  8
0
 62
     5
100
AcDbBlockBegin
  2
*Paper_Space
 70
     0
 10
0.0
 20
0.0
 30
0.0
  3
*Paper_Space
  1

  0
ENDBLK
  5
2D4
330
2D1
100
AcDbEntity
 67
     1
  8
0
 62
     5
100
AcDbBlockEnd
  0
BLOCK
  5
46C
330
462
100
AcDbEntity
  8
0
 62
     5
100
AcDbBlockBegin
  2
*D0
 70
     1
 10
0.0
 20
0.0
 30
0.0
  3
*D0
  1

  0
LINE
  5
242D
330
462
100
AcDbEntity
  8
寸法
 62
     0
370
    -2
100
AcDbLine
 10
456.4681320752036
 20
303.2474570709881
 30
0.0
 11
456.4681320752036
 21
306.4601779127306
 31
0.0
  0
LINE
  5
242E
330
462
100
AcDbEntity
  8
寸法
 62
     0
370
    -2
100
AcDbLine
 10
497.4681320752036
 20
303.2474570709881
 30
0.0
 11
497.4681320752036
 21
306.4601779127306
 31
0.0
  0
LINE
  5
242F
330
462
100
AcDbEntity
  8
寸法
 62
     0
370
    -2
100
AcDbLine
 10
457.4681320752037
 20
305.9601779127306
 30
0.0
 11
496.4681320752036
 21
305.9601779127306
 31
0.0
  0
SOLID
  5
2430
330
462
100
AcDbEntity
  8
寸法
 62
     0
100
AcDbTrace
 10
457.4681320752037
 20
306.1268445793973
 30
0.0
 11
457.4681320752037
 21
305.7935112460639
 31
0.0
 12
456.4681320752036
 22
305.9601779127306
 32
0.0
 13
456.4681320752036
 23
305.9601779127306
 33
0.0
  0
SOLID
  5
2431
330
462
100
AcDbEntity
  8
寸法
 62
     0
100
AcDbTrace
 10
496.4681320752036
 20
306.1268445793973
 30
0.0
 11
496.4681320752036
 21
305.7935112460639
 31
0.0
 12
497.4681320752036
 22
305.9601779127306
 32
0.0
 13
497.4681320752036
 23
305.9601779127306
 33
0.0
  0
MTEXT
  5
2432
330
462
100
AcDbEntity
  8
寸法
 62
     0
100
AcDbMText
 10
476.9681320752036
 20
306.5101779127306
 30
0.0
 40
0.7
 41
0.0
 71
     5
 72
     1
  1
41(Max)
 73
     1
 44
1.0
  0
POINT
  5
2433
330
462
100
AcDbEntity
  8
Defpoints
 62
     0
100
AcDbPoint
 10
456.4681320752036
 20
301.2474570709881
 30
0.0
  0
POINT
  5
2434
330
462
100
AcDbEntity
  8
Defpoints
 62
     0
100
AcDbPoint
 10
497.4681320752036
 20
301.2474570709881
 30
0.0
  0
POINT
  5
2435
330
462
100
AcDbEntity
  8
Defpoints
 62
     0
100
AcDbPoint
 10
497.4681320752036
 20
305.9601779127306
 30
0.0
  0
ENDBLK
  5
46D
330
462
100
AcDbEntity
  8
0
 62
     5
100
AcDbBlockEnd
  0
BLOCK
  5
74F
330
745
100
AcDbEntity
  8
0
 62
     5
100
AcDbBlockBegin
  2
*D4
 70
     1
 10
0.0
 20
0.0
 30
0.0
  3
*D4
  1

  0
LINE
  5
2518
330
745
100
AcDbEntity
  8
寸法
 62
     0
370
    -2
100
AcDbLine
 10
504.5858917492745
 20
305.2474570709881
 30
0.0
 11
504.5858917492745
 21
306.4601779127306
 31
0.0
  0
LINE
  5
2519
330
745
100
AcDbEntity
  8
寸法
 62
     0
370
    -2
100
AcDbLine
 10
514.5858917492746
 20
305.2474570709881
 30
0.0
 11
514.5858917492746
 21
306.4601779127306
 31
0.0
  0
LINE
  5
251A
330
745
100
AcDbEntity
  8
寸法
 62
     0
370
    -2
100
AcDbLine
 10
505.5858917492746
 20
305.9601779127306
 30
0.0
 11
513.5858917492746
 21
305.9601779127306
 31
0.0
  0
SOLID
  5
251B
330
745
100
AcDbEntity
  8
寸法
 62
     0
100
AcDbTrace
 10
505.5858917492746
 20
306.1268445793973
 30
0.0
 11
505.5858917492746
 21
305.7935112460639
 31
0.0
 12
504.5858917492745
 22
305.9601779127306
 32
0.0
 13
504.5858917492745
 23
305.9601779127306
 33
0.0
  0
SOLID
  5
251C
330
745
100
AcDbEntity
  8
寸法
 62
     0
100
AcDbTrace
 10
513.5858917492746
 20
306.1268445793973
 30
0.0
 11
513.5858917492746
 21
305.7935112460639
 31
0.0
 12
514.5858917492746
 22
305.9601779127306
 32
0.0
 13
514.5858917492746
 23
305.9601779127306
 33
0.0
  0
MTEXT
  5
251D
330
745
100
AcDbEntity
  8
寸法
 62
     0
100
AcDbMText
 10
510.5858917492746
 20
307.0935112460639
 30
0.0
 40
0.7
 41
0.0
 71
     5
 72
     1
  1
10\P(Max)
 73
     1
 44
1.0
  0
POINT
  5
251E
330
745
100
AcDbEntity
  8
Defpoints
 62
     0
100
AcDbPoint
 10
504.5858917492745
 20
303.2474570709881
 30
0.0
  0
POINT
  5
251F
330
745
100
AcDbEntity
  8
Defpoints
 62
     0
100
AcDbPoint
 10
514.5858917492746
 20
303.2474570709881
 30
0.0
  0
POINT
  5
2520
330
745
100
AcDbEntity
  8
Defpoints
 62
     0
100
AcDbPoint
 10
514.5858917492746
 20
305.9601779127306
 30
0.0
  0
ENDBLK
  5
750
330
745
100
AcDbEntity
  8
0
 62
     5
100
AcDbBlockEnd
  0
BLOCK
  5
84D
330
841
100
AcDbEntity
  8
0
 62
     5
100
AcDbBlockBegin
  2
*D5
 70
     1
 10
0.0
 20
0.0
 30
0.0
  3
*D5
  1

  0
LINE
  5
2506
330
841
100
AcDbEntity
  8
寸法
 62
     0
370
    -2
100
AcDbLine
 10
504.5858917492746
 20
276.9474570709895
 30
0.0
 11
504.5858917492746
 21
261.3237770224359
 31
0.0
  0
LINE
  5
2507
330
841
100
AcDbEntity
  8
寸法
 62
     0
370
    -2
100
AcDbLine
 10
507.5858917492744
 20
265.247457070988
 30
0.0
 11
507.5858917492744
 21
261.3237770224359
 31
0.0
  0
LINE
  5
2508
330
841
100
AcDbEntity
  8
寸法
 62
     0
370
    -2
100
AcDbLine
 10
505.5858917492746
 20
261.8237770224359
 30
0.0
 11
506.5858917492744
 21
261.8237770224359
 31
0.0
  0
LINE
  5
2509
330
841
100
AcDbEntity
  8
寸法
 62
     0
370
    -2
100
AcDbLine
 10
507.5858917492744
 20
261.8237770224359
 30
0.0
 11
511.7217250826077
 21
261.8237770224359
 31
0.0
  0
SOLID
  5
250A
330
841
100
AcDbEntity
  8
寸法
 62
     0
100
AcDbTrace
 10
505.5858917492746
 20
261.9904436891026
 30
0.0
 11
505.5858917492746
 21
261.6571103557692
 31
0.0
 12
504.5858917492746
 22
261.8237770224359
 32
0.0
 13
504.5858917492746
 23
261.8237770224359
 33
0.0
  0
SOLID
  5
250B
330
841
100
AcDbEntity
  8
寸法
 62
     0
100
AcDbTrace
 10
506.5858917492744
 20
261.9904436891026
 30
0.0
 11
506.5858917492744
 21
261.6571103557692
 31
0.0
 12
507.5858917492744
 22
261.8237770224359
 32
0.0
 13
507.5858917492744
 23
261.8237770224359
 33
0.0
  0
MTEXT
  5
250C
330
841
100
AcDbEntity
  8
寸法
 62
     0
100
AcDbMText
 10
510.477558415941
 20
262.3737770224359
 30
0.0
 40
0.7
 41
0.0
 71
     5
 72
     1
  1
\A1;4{\H0.490000;±0.5}
 73
     1
 44
1.0
  0
POINT
  5
250D
330
841
100
AcDbEntity
  8
Defpoints
 62
     0
100
AcDbPoint
 10
504.5858917492746
 20
278.9474570709895
 30
0.0
  0
POINT
  5
250E
330
841
100
AcDbEntity
  8
Defpoints
 62
     0
100
AcDbPoint
 10
507.5858917492744
 20
267.247457070988
 30
0.0
  0
POINT
  5
250F
330
841
100
AcDbEntity
  8
Defpoints
 62
     0
100
AcDbPoint
 10
507.5858917492744
 20
261.8237770224359
 30
0.0
  0
ENDBLK
  5
84E
330
841
100
AcDbEntity
  8
0
 62
     5
100
AcDbBlockEnd
  0
BLOCK
  5
1F55
330
1F49
100
AcDbEntity
  8
0
 62
     5
100
AcDbBlockBegin
  2
*D7
 70
     1
 10
0.0
 20
0.0
 30
0.0
  3
*D7
  1

  0
LINE
  5
2510
330
1F49
100
AcDbEntity
  8
寸法
 62
     0
370
    -2
100
AcDbLine
 10
506.0858917492744
 20
268.0396975893923
 30
0.0
 11
505.0858917492744
 21
268.0396975893923
 31
0.0
  0
LINE
  5
2511
330
1F49
100
AcDbEntity
  8
寸法
 62
     0
370
    -2
100
AcDbLine
 10
509.0858917492745
 20
268.0396975893923
 30
0.0
 11
513.6358917492745
 21
268.0396975893923
 31
0.0
  0
SOLID
  5
2512
330
1F49
100
AcDbEntity
  8
寸法
 62
     0
100
AcDbTrace
 10
506.0858917492744
 20
268.2063642560589
 30
0.0
 11
506.0858917492744
 21
267.8730309227256
 31
0.0
 12
507.0858917492745
 22
268.0396975893923
 32
0.0
 13
507.0858917492745
 23
268.0396975893923
 33
0.0
  0
SOLID
  5
2513
330
1F49
100
AcDbEntity
  8
寸法
 62
     0
100
AcDbTrace
 10
509.0858917492745
 20
268.2063642560589
 30
0.0
 11
509.0858917492745
 21
267.8730309227256
 31
0.0
 12
508.0858917492745
 22
268.0396975893923
 32
0.0
 13
508.0858917492745
 23
268.0396975893923
 33
0.0
  0
MTEXT
  5
2514
330
1F49
100
AcDbEntity
  8
寸法
 62
     0
100
AcDbMText
 10
511.8608917492744
 20
268.5896975893923
 30
0.0
 40
0.7
 41
0.0
 71
     5
 72
     1
  1
4-%%c1.0
 73
     1
 44
1.0
  0
POINT
  5
2515
330
1F49
100
AcDbEntity
  8
Defpoints
 62
     0
100
AcDbPoint
 10
507.0858917492745
 20
268.4358178485944
 30
0.0
  0
POINT
  5
2516
330
1F49
100
AcDbEntity
  8
Defpoints
 62
     0
100
AcDbPoint
 10
508.0858917492745
 20
268.4358178485944
 30
0.0
  0
POINT
  5
2517
330
1F49
100
AcDbEntity
  8
Defpoints
 62
     0
100
AcDbPoint
 10
508.0858917492745
 20
268.0396975893923
 30
0.0
  0
ENDBLK
  5
1F56
330
1F49
100
AcDbEntity
  8
0
 62
     5
100
AcDbBlockEnd
  0
BLOCK
  5
222E
330
2224
100
AcDbEntity
  8
0
 62
     5
100
AcDbBlockBegin
  2
*D8
 70
     1
 10
0.0
 20
0.0
 30
0.0
  3
*D8
  1

  0
LINE
  5
24A2
330
2224
100
AcDbEntity
  8
寸法
 62
     0
370
    -2
100
AcDbLine
 10
497.4681320752036
 20
303.2474570709881
 30
0.0
 11
500.9420567769629
 21
303.2474570709881
 31
0.0
  0
LINE
  5
24A3
330
2224
100
AcDbEntity
  8
寸法
 62
     0
370
    -2
100
AcDbLine
 10
493.8281320752037
 20
277.2474570709881
 30
0.0
 11
500.9420567769629
 21
277.2474570709881
 31
0.0
  0
LINE
  5
24A4
330
2224
100
AcDbEntity
  8
寸法
 62
     0
370
    -2
100
AcDbLine
 10
500.442056776963
 20
302.2474570709881
 30
0.0
 11
500.442056776963
 21
278.2474570709881
 31
0.0
  0
SOLID
  5
24A5
330
2224
100
AcDbEntity
  8
寸法
 62
     0
100
AcDbTrace
 10
500.2753901102963
 20
302.2474570709881
 30
0.0
 11
500.6087234436296
 21
302.2474570709881
 31
0.0
 12
500.442056776963
 22
303.2474570709881
 32
0.0
 13
500.442056776963
 23
303.2474570709881
 33
0.0
  0
SOLID
  5
24A6
330
2224
100
AcDbEntity
  8
寸法
 62
     0
100
AcDbTrace
 10
500.2753901102963
 20
278.2474570709881
 30
0.0
 11
500.6087234436296
 21
278.2474570709881
 31
0.0
 12
500.442056776963
 22
277.2474570709881
 32
0.0
 13
500.442056776963
 23
277.2474570709881
 33
0.0
  0
MTEXT
  5
24A7
330
2224
100
AcDbEntity
  8
寸法
 62
     0
100
AcDbMText
 10
499.8085340496902
 20
290.2474570709882
 30
0.0
 40
0.7
 41
0.0
 71
     5
 72
     1
  1
26{\fMS UI Gothic|b0|i0|c0|p17;(Max)}
 11
0.0000000000000001
 21
1.0
 31
0.0
 73
     1
 44
1.0
  0
POINT
  5
24A8
330
2224
100
AcDbEntity
  8
Defpoints
 62
     0
100
AcDbPoint
 10
495.4681320752036
 20
303.2474570709881
 30
0.0
  0
POINT
  5
24A9
330
2224
100
AcDbEntity
  8
Defpoints
 62
     0
100
AcDbPoint
 10
491.8281320752036
 20
277.2474570709881
 30
0.0
  0
POINT
  5
24AA
330
2224
100
AcDbEntity
  8
Defpoints
 62
     0
100
AcDbPoint
 10
500.442056776963
 20
277.2474570709881
 30
0.0
  0
ENDBLK
  5
222F
330
2224
100
AcDbEntity
  8
0
 62
     5
100
AcDbBlockEnd
  0
BLOCK
  5
24F0
330
24E6
100
AcDbEntity
  8
0
 62
     5
100
AcDbBlockBegin
  2
*D9
 70
     1
 10
0.0
 20
0.0
 30
0.0
  3
*D9
  1

  0
LINE
  5
24FB
330
24E6
100
AcDbEntity
  8
寸法
 62
     0
370
    -2
100
AcDbLine
 10
494.2281320752037
 20
277.2474570709881
 30
0.0
 11
500.9420567769629
 21
277.2474570709881
 31
0.0
  0
LINE
  5
24FC
330
24E6
100
AcDbEntity
  8
寸法
 62
     0
370
    -2
100
AcDbLine
 10
494.2281320752037
 20
267.247457070988
 30
0.0
 11
500.9420567769629
 21
267.247457070988
 31
0.0
  0
LINE
  5
24FD
330
24E6
100
AcDbEntity
  8
寸法
 62
     0
370
    -2
100
AcDbLine
 10
500.442056776963
 20
276.2474570709881
 30
0.0
 11
500.442056776963
 21
268.247457070988
 31
0.0
  0
SOLID
  5
24FE
330
24E6
100
AcDbEntity
  8
寸法
 62
     0
100
AcDbTrace
 10
500.2753901102963
 20
276.2474570709881
 30
0.0
 11
500.6087234436296
 21
276.2474570709881
 31
0.0
 12
500.442056776963
 22
277.2474570709881
 32
0.0
 13
500.442056776963
 23
277.2474570709881
 33
0.0
  0
SOLID
  5
24FF
330
24E6
100
AcDbEntity
  8
寸法
 62
     0
100
AcDbTrace
 10
500.2753901102963
 20
268.247457070988
 30
0.0
 11
500.6087234436296
 21
268.247457070988
 31
0.0
 12
500.442056776963
 22
267.247457070988
 32
0.0
 13
500.442056776963
 23
267.247457070988
 33
0.0
  0
MTEXT
  5
2500
330
24E6
100
AcDbEntity
  8
寸法
 62
     0
100
AcDbMText
 10
499.8920567769629
 20
272.2474570709881
 30
0.0
 40
0.7
 41
0.0
 71
     5
 72
     1
  1
10
 11
0.0000000000000001
 21
1.0
 31
0.0
 73
     1
 44
1.0
  0
MTEXT
  5
2501
330
24E6
100
AcDbEntity
  8
寸法
 62
     0
100
AcDbMText
 10
500.9920567769629
 20
272.2474570709881
 30
0.0
 40
0.7
 41
0.0
 71
     5
 72
     1
  1
(Max)
 11
0.0000000000000001
 21
1.0
 31
0.0
 73
     1
 44
1.0
  0
POINT
  5
2502
330
24E6
100
AcDbEntity
  8
Defpoints
 62
     0
100
AcDbPoint
 10
492.2281320752038
 20
277.2474570709881
 30
0.0
  0
POINT
  5
2503
330
24E6
100
AcDbEntity
  8
Defpoints
 62
     0
100
AcDbPoint
 10
492.2281320752037
 20
267.247457070988
 30
0.0
  0
POINT
  5
2504
330
24E6
100
AcDbEntity
  8
Defpoints
 62
     0
100
AcDbPoint
 10
500.442056776963
 20
267.247457070988
 30
0.0
  0
ENDBLK
  5
24F1
330
24E6
100
AcDbEntity
  8
0
 62
     5
100
AcDbBlockEnd
  0
ENDSEC
  0
SECTION
  2
ENTITIES
  0
MTEXT
  5
CA
330
1F
100
AcDbEntity
  8
外形
100
AcDbMText
 10
483.0899743681968
 20
273.3787653458628
 30
0.0
 40
0.7
 41
0.5
 71
     5
 72
     5
  1
{\fＭＳ ゴシック|b0|i0|c128|p49;2}
 73
     1
 44
1.0
  0
MTEXT
  5
F7
330
1F
100
AcDbEntity
  8
外形
100
AcDbMText
 10
467.1482946133919
 20
316.593044873069
 30
0.0
 40
2.5
 41
15.32881114699549
 71
     5
 72
     5
  1
{\fMS UI Gothic|b0|i0|c128|p17;外形寸法}
 73
     1
 44
1.0
  0
DIMENSION
  5
454
330
1F
100
AcDbEntity
  8
寸法
 62
     5
100
AcDbDimension
  2
*D0
 10
497.4681320752036
 20
305.9601779127306
 30
0.0
 11
476.9681320752036
 21
306.5101779127306
 31
0.0
 70
    32
 71
     5
 42
40.99999999999994
  3
ISO-25
100
AcDbAlignedDimension
 13
456.4681320752036
 23
301.2474570709881
 33
0.0
 14
497.4681320752036
 24
301.2474570709881
 34
0.0
100
AcDbRotatedDimension
1001
ACAD
1000
DSTYLE
1002
{
1070
     3
1000
(Max)
1002
}
  0
CIRCLE
  5
5F2
330
1F
100
AcDbEntity
  8
外形
100
AcDbCircle
 10
483.0899743681968
 20
273.3787653458628
 30
0.0
 40
0.5
  0
LINE
  5
651
330
1F
100
AcDbEntity
  8
外形
  6
CENTER
 62
     1
 48
0.3
100
AcDbLine
 10
463.8881320752036
 20
237.4912011674584
 30
0.0
 11
463.8881320752036
 21
235.4912011674584
 31
0.0
  0
LINE
  5
652
330
1F
100
AcDbEntity
  8
外形
  6
CENTER
 62
     1
 48
0.3
100
AcDbLine
 10
481.6681320752037
 20
237.4912011674584
 30
0.0
 11
481.6681320752037
 21
235.4912011674584
 31
0.0
  0
LINE
  5
654
330
1F
100
AcDbEntity
  8
外形
  6
CENTER
 62
     1
 48
0.3
100
AcDbLine
 10
462.8881320752037
 20
236.4912011674583
 30
0.0
 11
492.8281320752037
 21
236.4912011674583
 31
0.0
  0
LINE
  5
658
330
1F
100
AcDbEntity
  8
外形
  6
CENTER
 62
     1
 48
0.3
100
AcDbLine
 10
468.9681320752036
 20
237.4912011674584
 30
0.0
 11
468.9681320752036
 21
235.4912011674584
 31
0.0
  0
LINE
  5
65B
330
1F
100
AcDbEntity
  8
外形
  6
CENTER
 62
     1
 48
0.3
100
AcDbLine
 10
491.8281320752036
 20
237.4912011674584
 30
0.0
 11
491.8281320752036
 21
235.4912011674584
 31
0.0
  0
MTEXT
  5
65D
330
1F
100
AcDbEntity
  8
寸法
 62
     5
100
AcDbMText
 10
496.4391729982488
 20
238.9579262402649
 30
0.0
 40
0.7
 41
0.0
 71
     8
 72
     1
  1
{\fMS UI Gothic|b0|i0|c128|p17;穴径φ1.4}
 73
     2
 44
1.0
  0
MTEXT
  5
6F1
330
1F
100
AcDbEntity
  8
外形
100
AcDbMText
 10
495.277963905723
 20
273.3787653458628
 30
0.0
 40
0.7
 41
0.5
 71
     5
 72
     5
  1
{\fＭＳ ゴシック|b0|i0|c128|p49;1}
 73
     1
 44
1.0
  0
CIRCLE
  5
6F2
330
1F
100
AcDbEntity
  8
外形
100
AcDbCircle
 10
495.277963905723
 20
273.3787653458628
 30
0.0
 40
0.5
  0
CIRCLE
  5
6F3
330
1F
100
AcDbEntity
  8
外形
100
AcDbCircle
 10
470.7873052704733
 20
273.378765345863
 30
0.0
 40
0.5
  0
MTEXT
  5
6F4
330
1F
100
AcDbEntity
  8
外形
100
AcDbMText
 10
470.7873052704733
 20
273.378765345863
 30
0.0
 40
0.7
 41
0.5
 71
     5
 72
     5
  1
{\fＭＳ ゴシック|b0|i0|c128|p49;3}
 73
     1
 44
1.0
  0
LINE
  5
740
330
1F
100
AcDbEntity
  8
外形
100
AcDbLine
 10
514.5858917492746
 20
302.2474570709881
 30
0.0
 11
514.5858917492746
 21
279.5424445080949
 31
0.0
  0
LINE
  5
741
330
1F
100
AcDbEntity
  8
外形
100
AcDbLine
 10
505.5858917492746
 20
303.2474570709881
 30
0.0
 11
513.5858917492746
 21
303.2474570709881
 31
0.0
  0
LINE
  5
743
330
1F
100
AcDbEntity
  8
外形
100
AcDbLine
 10
513.5858917492745
 20
278.5424445080948
 30
0.0
 11
505.5858917492745
 21
278.5424445080947
 31
0.0
  0
DIMENSION
  5
744
330
1F
100
AcDbEntity
  8
寸法
 62
     5
100
AcDbDimension
  2
*D4
 10
514.5858917492746
 20
305.9601779127306
 30
0.0
 11
510.5858917492746
 21
305.9601779127306
 31
0.0
 70
   160
 71
     5
 42
10.00000000000005
  3
ISO-25
100
AcDbAlignedDimension
 13
504.5858917492745
 23
303.2474570709881
 33
0.0
 14
514.5858917492746
 24
303.2474570709881
 34
0.0
100
AcDbRotatedDimension
1001
ACAD
1000
DSTYLE
1002
{
1070
     3
1000
\X(Max)
1002
}
  0
LINE
  5
75A
330
1F
100
AcDbEntity
  8
外形
100
AcDbLine
 10
504.5858917492746
 20
302.2474570709881
 30
0.0
 11
504.5858917492746
 21
279.5424445080947
 31
0.0
  0
DIMENSION
  5
840
330
1F
100
AcDbEntity
  8
寸法
 62
     5
100
AcDbDimension
  2
*D5
 10
507.5858917492744
 20
261.8237770224359
 30
0.0
 11
510.477558415941
 21
261.8237770224359
 31
0.0
 70
   160
 71
     5
 42
3.999998999999696
  3
ISO-25
100
AcDbAlignedDimension
 13
504.5858917492746
 23
278.9474570709895
 33
0.0
 14
507.5858917492744
 24
267.247457070988
 34
0.0
100
AcDbRotatedDimension
1001
ACAD
1000
DSTYLE
1002
{
1070
   283
1070
     1
1070
   146
1040
0.7
1070
    47
1040
0.5
1070
   147
1040
0.2
1070
    48
1040
0.5
1070
    72
1070
     0
1070
    71
1070
     1
1070
   144
1040
1.333333
1070
     3
1000
<>
1070
   172
1070
     1
1002
}
  0
MTEXT
  5
1255
330
1F
100
AcDbEntity
  8
外形
100
AcDbMText
 10
480.1544796611401
 20
253.1988415391493
 30
0.0
 40
2.5
 41
40.49999999999999
 71
     5
 72
     5
  1
{\fMS UI Gothic|b0|i0|c128|p17;プリント基板取付穴寸法図 }
 73
     1
 44
1.0
  0
LINE
  5
1847
330
1F
100
AcDbEntity
  8
外形
100
AcDbLine
 10
497.4681320752038
 20
280.5424445080948
 30
0.0
 11
497.4681320752036
 21
301.2474570709881
 31
0.0
  0
LINE
  5
1849
330
1F
100
AcDbEntity
  8
外形
100
AcDbLine
 10
495.4681320752036
 20
303.2474570709881
 30
0.0
 11
458.4681320752036
 21
303.2474570709881
 31
0.0
  0
LINE
  5
184B
330
1F
100
AcDbEntity
  8
外形
100
AcDbLine
 10
456.4681320752036
 20
301.2474570709881
 30
0.0
 11
456.4681320752035
 21
280.5424445080947
 31
0.0
  0
LEADER
  5
1B02
330
1F
100
AcDbEntity
  8
寸法
 62
     5
100
AcDbLeader
  3
ISO-25
 76
     3
 10
492.3100631796757
 20
236.9988845437298
 30
0.0
 10
494.1697323605966
 20
238.9579262402649
 30
0.0
 10
498.6736217734727
 20
238.9579262402649
 30
0.0
1001
ACAD
1000
DSTYLE
1002
{
1070
   147
1040
0.2
1070
    77
1070
     0
1002
}
  0
ARC
  5
1B2C
330
1F
100
AcDbEntity
  8
外形
100
AcDbCircle
 10
505.5858917492745
 20
279.5424445080947
 30
0.0
 40
1.0
100
AcDbArc
 50
180.0000000000001
 51
270.0000000000006
  0
ARC
  5
1B2D
330
1F
100
AcDbEntity
  8
外形
100
AcDbCircle
 10
513.5858917492745
 20
279.5424445080949
 30
0.0
 40
1.0
100
AcDbArc
 50
270.0000000000005
 51
0.0
  0
ARC
  5
1B2F
330
1F
100
AcDbEntity
  8
外形
100
AcDbCircle
 10
505.5858917492746
 20
302.2474570709881
 30
0.0
 40
1.0
100
AcDbArc
 50
90.0
 51
180.0
  0
ARC
  5
1B30
330
1F
100
AcDbEntity
  8
外形
100
AcDbCircle
 10
513.5858917492746
 20
302.2474570709881
 30
0.0
 40
1.0
100
AcDbArc
 50
0.0
 51
90.0
  0
ARC
  5
1B31
330
1F
100
AcDbEntity
  8
外形
100
AcDbCircle
 10
458.4681320752036
 20
301.2474570709881
 30
0.0
 40
2.0
100
AcDbArc
 50
90.0
 51
180.0
  0
ARC
  5
1B32
330
1F
100
AcDbEntity
  8
外形
100
AcDbCircle
 10
495.4681320752036
 20
301.2474570709881
 30
0.0
 40
2.0
100
AcDbArc
 50
0.0
 51
90.0
  0
LINE
  5
1B49
330
1F
100
AcDbEntity
  8
外形
100
AcDbLine
 10
458.4681320752036
 20
278.5424445080947
 30
0.0
 11
462.6881320752036
 21
278.5424445080947
 31
0.0
  0
LINE
  5
1BC7
330
1F
100
AcDbEntity
  8
外形
100
AcDbLine
 10
508.0858917492744
 20
277.3814316672038
 30
0.0
 11
508.0858917492744
 21
267.247457070988
 31
0.0
  0
LINE
  5
1BC9
330
1F
100
AcDbEntity
  8
外形
100
AcDbLine
 10
508.0858917492744
 20
267.247457070988
 30
0.0
 11
507.0858917492743
 21
267.247457070988
 31
0.0
  0
LINE
  5
1BD0
330
1F
100
AcDbEntity
  8
外形
100
AcDbLine
 10
507.0858917492747
 20
277.3814316672035
 30
0.0
 11
507.0858917492743
 21
267.247457070988
 31
0.0
  0
LINE
  5
1D2A
330
1F
100
AcDbEntity
  8
外形
100
AcDbLine
 10
505.5858917492742
 20
278.5424445080947
 30
0.0
 11
505.5858917492745
 21
278.5424445080947
 31
0.0
  0
LINE
  5
1DD0
330
1F
100
AcDbEntity
  8
外形
  6
CENTER
 62
     1
 48
0.3
100
AcDbLine
 10
476.9681320752036
 20
271.0276634628111
 30
0.0
 11
476.9681320752036
 21
304.2474570709881
 31
0.0
  0
CIRCLE
  5
1E2A
330
1F
100
AcDbEntity
  8
外形
100
AcDbCircle
 10
465.7073052704732
 20
273.378765345863
 30
0.0
 40
0.5
  0
MTEXT
  5
1E2B
330
1F
100
AcDbEntity
  8
外形
100
AcDbMText
 10
465.7073052704732
 20
273.378765345863
 30
0.0
 40
0.7
 41
0.5
 71
     5
 72
     5
  1
{\fＭＳ ゴシック|b0|i0|c128|p49;4}
 73
     1
 44
1.0
  0
DIMENSION
  5
1F48
330
1F
100
AcDbEntity
  8
寸法
 62
     5
100
AcDbDimension
  2
*D7
 10
508.0858917492745
 20
268.0396975893923
 30
0.0
 11
511.8608917492744
 21
268.0396975893923
 31
0.0
 70
   160
 71
     5
 42
1.000000000000056
  3
ISO-25
100
AcDbAlignedDimension
 13
507.0858917492745
 23
268.4358178485944
 33
0.0
 14
508.0858917492745
 24
268.4358178485944
 34
0.0
100
AcDbRotatedDimension
1001
ACAD
1000
DSTYLE
1002
{
1070
    76
1070
     1
1070
    75
1070
     1
1070
   172
1070
     0
1070
     3
1000
4-%%c<>.0
1002
}
  0
LINE
  5
216E
330
1F
100
AcDbEntity
  8
外形
100
AcDbLine
 10
493.0281320752037
 20
278.5424445080947
 30
0.0
 11
495.4681320752037
 21
278.5424445080947
 31
0.0
  0
ARC
  5
216F
330
1F
100
AcDbEntity
  8
外形
100
AcDbCircle
 10
495.4681320752037
 20
280.5424445080948
 30
0.0
 40
2.0
100
AcDbArc
 50
269.9999999999992
 51
0.0000000000003308
  0
LINE
  5
221F
330
1F
100
AcDbEntity
  8
外形
100
AcDbLine
 10
482.8681320752037
 20
278.5424445080947
 30
0.0
 11
490.6281320752036
 21
278.5424445080947
 31
0.0
  0
LINE
  5
2220
330
1F
100
AcDbEntity
  8
外形
100
AcDbLine
 10
470.1681320752036
 20
278.5424445080947
 30
0.0
 11
480.4681320752036
 21
278.5424445080946
 31
0.0
  0
LINE
  5
2221
330
1F
100
AcDbEntity
  8
外形
100
AcDbLine
 10
465.0881320752037
 20
278.5424445080947
 30
0.0
 11
467.7681320752036
 21
278.5424445080947
 31
0.0
  0
ARC
  5
2222
330
1F
100
AcDbEntity
  8
外形
100
AcDbCircle
 10
458.4681320752036
 20
280.5424445080947
 30
0.0
 40
2.0
100
AcDbArc
 50
180.0000000000001
 51
270.0
  0
DIMENSION
  5
2223
330
1F
100
AcDbEntity
  8
寸法
 62
     5
100
AcDbDimension
  2
*D8
 10
500.442056776963
 20
277.2474570709881
 30
0.0
 11
499.8085340496902
 21
290.2474570709882
 31
0.0
 70
    32
  1
<>{\fMS UI Gothic|b0|i0|c0|p17;(Max)}
 71
     5
 42
26.0
  3
ISO-25
100
AcDbAlignedDimension
 13
495.4681320752036
 23
303.2474570709881
 33
0.0
 14
491.8281320752036
 24
277.2474570709881
 34
0.0
 50
90.0
100
AcDbRotatedDimension
  0
CIRCLE
  5
2276
330
1F
100
AcDbEntity
  8
外形
100
AcDbCircle
 10
491.8281320752036
 20
236.4912011674583
 30
0.0
 40
0.7
  0
CIRCLE
  5
2277
330
1F
100
AcDbEntity
  8
外形
100
AcDbCircle
 10
481.6681320752037
 20
236.4912011674583
 30
0.0
 40
0.7
  0
CIRCLE
  5
2278
330
1F
100
AcDbEntity
  8
外形
100
AcDbCircle
 10
468.9681320752036
 20
236.4912011674583
 30
0.0
 40
0.7
  0
CIRCLE
  5
2279
330
1F
100
AcDbEntity
  8
外形
100
AcDbCircle
 10
463.8881320752036
 20
236.4912011674583
 30
0.0
 40
0.7
  0
LINE
  5
24C6
330
1F
100
AcDbEntity
  8
外形
100
AcDbLine
 10
492.8281320752037
 20
278.2474570709881
 30
0.0
 11
492.8281320752037
 21
278.3424445080947
 31
0.0
  0
LINE
  5
24C7
330
1F
100
AcDbEntity
  8
外形
100
AcDbLine
 10
490.8281320752037
 20
278.2474570709881
 30
0.0
 11
490.8281320752037
 21
278.3424445080947
 31
0.0
  0
ARC
  5
24C8
330
1F
100
AcDbEntity
  8
外形
100
AcDbCircle
 10
491.8281320752036
 20
278.2474570709881
 30
0.0
 40
1.0
100
AcDbArc
 50
180.0
 51
0.0
  0
ARC
  5
24CC
330
1F
100
AcDbEntity
  8
外形
100
AcDbCircle
 10
481.6681320752037
 20
278.2474570709881
 30
0.0
 40
1.0
100
AcDbArc
 50
180.0
 51
0.0
  0
LINE
  5
24CD
330
1F
100
AcDbEntity
  8
外形
100
AcDbLine
 10
480.6681320752036
 20
278.2474570709881
 30
0.0
 11
480.6681320752035
 21
278.3424445080947
 31
0.0
  0
LINE
  5
24CE
330
1F
100
AcDbEntity
  8
外形
100
AcDbLine
 10
482.6681320752037
 20
278.2474570709881
 30
0.0
 11
482.6681320752037
 21
278.3424445080947
 31
0.0
  0
ARC
  5
24CF
330
1F
100
AcDbEntity
  8
外形
100
AcDbCircle
 10
468.9681320752036
 20
278.2474570709881
 30
0.0
 40
1.0
100
AcDbArc
 50
180.0
 51
0.0
  0
LINE
  5
24D0
330
1F
100
AcDbEntity
  8
外形
100
AcDbLine
 10
467.9681320752036
 20
278.2474570709881
 30
0.0
 11
467.9681320752036
 21
278.3424445080947
 31
0.0
  0
LINE
  5
24D1
330
1F
100
AcDbEntity
  8
外形
100
AcDbLine
 10
469.9681320752037
 20
278.2474570709881
 30
0.0
 11
469.9681320752036
 21
278.3424445080947
 31
0.0
  0
ARC
  5
24D2
330
1F
100
AcDbEntity
  8
外形
100
AcDbCircle
 10
463.8881320752036
 20
278.2474570709881
 30
0.0
 40
1.0
100
AcDbArc
 50
180.0
 51
0.0
  0
LINE
  5
24D3
330
1F
100
AcDbEntity
  8
外形
100
AcDbLine
 10
462.8881320752037
 20
278.2474570709881
 30
0.0
 11
462.8881320752036
 21
278.3424445080947
 31
0.0
  0
LINE
  5
24D4
330
1F
100
AcDbEntity
  8
外形
100
AcDbLine
 10
464.8881320752037
 20
278.2474570709881
 30
0.0
 11
464.8881320752037
 21
278.3424445080947
 31
0.0
  0
ARC
  5
24D5
330
1F
100
AcDbEntity
  8
外形
100
AcDbCircle
 10
507.5858917492744
 20
278.2474570709882
 30
0.0
 40
1.0
100
AcDbArc
 50
180.0
 51
0.0
  0
LINE
  5
24D6
330
1F
100
AcDbEntity
  8
外形
100
AcDbLine
 10
506.5858917492744
 20
278.2474570709882
 30
0.0
 11
506.5858917492743
 21
278.5424445080948
 31
0.0
  0
LINE
  5
24D7
330
1F
100
AcDbEntity
  8
外形
100
AcDbLine
 10
508.5858917492743
 20
278.2474570709882
 30
0.0
 11
508.5858917492743
 21
278.5424445080948
 31
0.0
  0
ARC
  5
24DA
330
1F
100
AcDbEntity
  8
外形
100
AcDbCircle
 10
493.0281320752037
 20
278.3424445080947
 30
0.0
 40
0.2
100
AcDbArc
 50
90.0
 51
180.0
  0
ARC
  5
24DC
330
1F
100
AcDbEntity
  8
外形
100
AcDbCircle
 10
490.6281320752036
 20
278.3424445080947
 30
0.0
 40
0.2
100
AcDbArc
 50
0.0000000000110429
 51
90.0000000000004
  0
ARC
  5
24DD
330
1F
100
AcDbEntity
  8
外形
100
AcDbCircle
 10
482.8681320752037
 20
278.3424445080947
 30
0.0
 40
0.2
100
AcDbArc
 50
90.0000000000004
 51
180.0
  0
ARC
  5
24DE
330
1F
100
AcDbEntity
  8
外形
100
AcDbCircle
 10
480.4681320752036
 20
278.3424445080946
 30
0.0
 40
0.2
100
AcDbArc
 50
0.0000000000110429
 51
89.99999999999971
  0
ARC
  5
24DF
330
1F
100
AcDbEntity
  8
外形
100
AcDbCircle
 10
470.1681320752036
 20
278.3424445080947
 30
0.0
 40
0.2
100
AcDbArc
 50
89.99999999999969
 51
180.0
  0
ARC
  5
24E0
330
1F
100
AcDbEntity
  8
外形
100
AcDbCircle
 10
467.7681320752036
 20
278.3424445080947
 30
0.0
 40
0.2
100
AcDbArc
 50
0.0000000000110429
 51
90.0
  0
ARC
  5
24E1
330
1F
100
AcDbEntity
  8
外形
100
AcDbCircle
 10
465.0881320752037
 20
278.3424445080947
 30
0.0
 40
0.2
100
AcDbArc
 50
90.0
 51
180.0
  0
ARC
  5
24E2
330
1F
100
AcDbEntity
  8
外形
100
AcDbCircle
 10
462.6881320752036
 20
278.3424445080947
 30
0.0
 40
0.2
100
AcDbArc
 50
0.0000000000110429
 51
90.0
  0
DIMENSION
  5
24E5
330
1F
100
AcDbEntity
  8
寸法
 62
     5
100
AcDbDimension
  2
*D9
 10
500.442056776963
 20
267.247457070988
 30
0.0
 11
500.4420567769629
 21
272.2474570709881
 31
0.0
 70
    32
 71
     5
 42
10.00000000000011
  3
ISO-25
100
AcDbAlignedDimension
 13
492.2281320752038
 23
277.2474570709881
 33
0.0
 14
492.2281320752037
 24
267.247457070988
 34
0.0
 50
90.0
100
AcDbRotatedDimension
1001
ACAD
1000
DSTYLE
1002
{
1070
     3
1000
\X(Max)
1002
}
  0
LINE
  5
2528
330
1F
100
AcDbEntity
  8
外形
100
AcDbLine
 10
491.328132075204
 20
277.3814316672035
 30
0.0
 11
491.3281320752036
 21
267.247457070988
 31
0.0
  0
LINE
  5
2529
330
1F
100
AcDbEntity
  8
外形
100
AcDbLine
 10
492.3281320752037
 20
277.3814316672038
 30
0.0
 11
492.3281320752037
 21
267.247457070988
 31
0.0
  0
LINE
  5
252A
330
1F
100
AcDbEntity
  8
外形
100
AcDbLine
 10
492.3281320752037
 20
267.247457070988
 30
0.0
 11
491.3281320752036
 21
267.247457070988
 31
0.0
  0
LINE
  5
252B
330
1F
100
AcDbEntity
  8
外形
100
AcDbLine
 10
481.168132075204
 20
277.3814316672035
 30
0.0
 11
481.1681320752036
 21
267.247457070988
 31
0.0
  0
LINE
  5
252C
330
1F
100
AcDbEntity
  8
外形
100
AcDbLine
 10
482.1681320752037
 20
277.3814316672038
 30
0.0
 11
482.1681320752037
 21
267.247457070988
 31
0.0
  0
LINE
  5
252D
330
1F
100
AcDbEntity
  8
外形
100
AcDbLine
 10
482.1681320752037
 20
267.247457070988
 30
0.0
 11
481.1681320752036
 21
267.247457070988
 31
0.0
  0
LINE
  5
252E
330
1F
100
AcDbEntity
  8
外形
100
AcDbLine
 10
468.468132075204
 20
277.3814316672035
 30
0.0
 11
468.4681320752036
 21
267.247457070988
 31
0.0
  0
LINE
  5
252F
330
1F
100
AcDbEntity
  8
外形
100
AcDbLine
 10
469.4681320752037
 20
277.3814316672038
 30
0.0
 11
469.4681320752037
 21
267.247457070988
 31
0.0
  0
LINE
  5
2530
330
1F
100
AcDbEntity
  8
外形
100
AcDbLine
 10
469.4681320752037
 20
267.247457070988
 30
0.0
 11
468.4681320752036
 21
267.247457070988
 31
0.0
  0
LINE
  5
2531
330
1F
100
AcDbEntity
  8
外形
100
AcDbLine
 10
463.388132075204
 20
277.3814316672035
 30
0.0
 11
463.3881320752037
 21
267.247457070988
 31
0.0
  0
LINE
  5
2532
330
1F
100
AcDbEntity
  8
外形
100
AcDbLine
 10
464.3881320752037
 20
277.3814316672038
 30
0.0
 11
464.3881320752036
 21
267.247457070988
 31
0.0
  0
LINE
  5
2533
330
1F
100
AcDbEntity
  8
外形
100
AcDbLine
 10
464.3881320752036
 20
267.247457070988
 30
0.0
 11
463.3881320752037
 21
267.247457070988
 31
0.0
  0
VIEWPORT
  5
2D8
102
{ACAD_XDICTIONARY
360
305
102
}
330
2D1
100
AcDbEntity
 67
     1
  8
0
 62
     5
100
AcDbViewport
 10
91.75562415206595
 20
129.4250154262395
 30
0.0
 40
380.4798776055398
 41
289.9157267676464
 68
     1
 69
     1
 12
91.75562415206595
 22
129.4250154262395
 13
0.0
 23
0.0
 14
10.0
 24
10.0
 15
10.0
 25
10.0
 16
0.0
 26
0.0
 36
1.0
 17
0.0
 27
0.0
 37
0.0
 42
50.0
 43
0.0
 44
0.0
 45
289.9157267676464
 50
0.0
 51
0.0
 72
   100
 90
    32800
  1

281
     0
 71
     1
 74
     0
110
0.0
120
0.0
130
0.0
111
1.0
121
0.0
131
0.0
112
0.0
122
1.0
132
0.0
 79
     0
146
0.0
  0
VIEWPORT
  5
20E3
330
2D1
100
AcDbEntity
 67
     1
  8
寸法
 62
     5
100
AcDbViewport
 10
91.75827643237353
 20
129.4249073845002
 30
0.0
 40
195.6434922218322
 41
286.6390042304992
 68
     2
 69
     2
 12
483.4653097013009
 22
275.9686352130151
 13
0.0
 23
0.0
 14
10.0
 24
10.0
 15
10.0
 25
10.0
 16
0.0
 26
0.0
 36
1.0
 17
0.0
 27
0.0
 37
0.0
 42
50.0
 43
0.0
 44
0.0
 45
102.1214482576414
 50
0.0
 51
0.0
 72
   100
 90
    32864
  1

281
     0
 71
     1
 74
     0
110
0.0
120
0.0
130
0.0
111
1.0
121
0.0
131
0.0
112
0.0
122
1.0
132
0.0
 79
     0
146
0.0
  0
ENDSEC
  0
SECTION
  2
OBJECTS
  0
DICTIONARY
  5
C
330
0
100
AcDbDictionary
281
     1
  3
ACAD_COLOR
350
2EC
  3
ACAD_GROUP
350
D
  3
ACAD_IMAGE_DICT
350
1354
  3
ACAD_IMAGE_VARS
350
1356
  3
ACAD_LAYOUT
350
1A
  3
ACAD_MATERIAL
350
2EB
  3
ACAD_MLINESTYLE
350
17
  3
ACAD_PLOTSETTINGS
350
19
  3
ACAD_PLOTSTYLENAME
350
E
  3
ACAD_TABLESTYLE
350
2F4
  3
AcadDim
350
11D0
  3
AcDbVariableDictionary
350
309
  0
DICTIONARY
  5
305
330
2D8
100
AcDbDictionary
280
     1
281
     1
  3
ACAD_XREC_ROUNDTRIP
360
306
  0
DICTIONARY
  5
2EC
102
{ACAD_REACTORS
330
C
102
}
330
C
100
AcDbDictionary
281
     1
  0
DICTIONARY
  5
D
102
{ACAD_REACTORS
330
C
102
}
330
C
100
AcDbDictionary
281
     1
  0
DICTIONARY
  5
1354
102
{ACAD_REACTORS
330
C
102
}
330
C
100
AcDbDictionary
281
     1
  3
A$C6DFC16C6
350
184E
  0
RASTERVARIABLES
  5
1356
102
{ACAD_REACTORS
330
C
102
}
330
C
100
AcDbRasterVariables
 90
        0
 70
     1
 71
     1
 72
     1
  0
DICTIONARY
  5
1A
102
{ACAD_REACTORS
330
C
102
}
330
C
100
AcDbDictionary
281
     1
  3
Model
350
22
  3
ﾚｲｱｳﾄ2
350
2D2
  0
DICTIONARY
  5
2EB
102
{ACAD_REACTORS
330
C
102
}
330
C
100
AcDbDictionary
281
     1
  0
DICTIONARY
  5
17
102
{ACAD_REACTORS
330
C
102
}
330
C
100
AcDbDictionary
281
     1
  3
Standard
350
18
  0
DICTIONARY
  5
19
102
{ACAD_REACTORS
330
C
102
}
330
C
100
AcDbDictionary
281
     1
  0
ACDBDICTIONARYWDFLT
  5
E
102
{ACAD_REACTORS
330
C
102
}
330
C
100
AcDbDictionary
281
     1
  3
Normal
350
F
100
AcDbDictionaryWithDefault
340
F
  0
DICTIONARY
  5
2F4
102
{ACAD_REACTORS
330
C
102
}
330
C
100
AcDbDictionary
281
     1
  3
Standard
350
2F5
  0
XRECORD
  5
11D0
102
{ACAD_REACTORS
330
C
102
}
330
C
100
AcDbXrecord
280
     1
 90
   990106
  3

 60
     0
 61
     0
 62
     1
 63
     3
 64
     0
 65
     0
 66
     1
 67
     6
 68
     1
 69
     0
 70
     0
 71
     0
 72
     0
 40
0.0
170
     1
  0
DICTIONARY
  5
309
102
{ACAD_REACTORS
330
C
102
}
330
C
100
AcDbDictionary
281
     1
  3
CTABLESTYLE
350
30A
  3
DIMASSOC
350
30B
  3
PROJECTNAME
350
30C
  0
XRECORD
  5
306
102
{ACAD_REACTORS
330
305
102
}
330
305
100
AcDbXrecord
280
     1
102
SHADEPLOT
 70
     0
  0
IMAGEDEF
  5
184E
102
{ACAD_REACTORS
330
1354
102
}
330
1354
100
AcDbRasterImageDef
 90
        0
  1
E:\DOCUME~1\ADMINI~1\LOCALS~1\Temp\A$C6DFC16C6.dib
 10
307.0
 20
286.0
 11
0.003257328990228
 21
0.003257328990228
280
     1
281
     0
  0
LAYOUT
  5
22
102
{ACAD_XDICTIONARY
360
301
102
}
102
{ACAD_REACTORS
330
1A
102
}
330
1A
100
AcDbPlotSettings
  1

  2
Canon LBP-1420(RYU)
  4
A4
  6
VIEW1
 40
5.873749732971191
 41
5.873747825622558
 42
5.873748779296875
 43
5.873748779296875
 44
209.9733276367187
 45
296.9259948730469
 46
-0.7700000000000001
 47
2.6
 48
455.9941473084555
 49
235.0284558668831
140
515.9225024132235
141
319.0227216603437
142
1.0
143
0.3
 70
 11428
 72
     1
 73
     0
 74
     4
  7
monochrome.ctb
 75
     0
147
3.333333333333333
148
-455.9941473084555
149
-235.0284558668831
100
AcDbLayout
  1
Model
 70
     1
 71
     0
 10
0.0
 20
0.0
 11
12.0
 21
9.0
 12
0.0
 22
0.0
 32
0.0
 14
0.0
 24
0.0
 34
0.0
 15
0.0
 25
0.0
 35
0.0
146
0.0
 13
0.0
 23
0.0
 33
0.0
 16
1.0
 26
0.0
 36
0.0
 17
0.0
 27
1.0
 37
0.0
 76
     0
330
1F
  0
LAYOUT
  5
2D2
102
{ACAD_XDICTIONARY
360
303
102
}
102
{ACAD_REACTORS
330
1A
102
}
330
1A
100
AcDbPlotSettings
  1

  2
Canon PS-IPU Color Laser Copier v52.3
  4
A4
  6

 40
5.048249721527099
 41
5.048251628875732
 42
9.2392578125
 43
5.365753173828125
 44
209.9309997558593
 45
297.0530090332031
 46
0.0
 47
0.0
 48
0.0
 49
0.0
140
0.0
141
0.0
142
1.0
143
1.0
 70
   688
 72
     1
 73
     0
 74
     0
  7
monochrome.ctb
 75
    16
147
1.0
148
6.063469678542617
149
13.89459473074941
100
AcDbLayout
  1
ﾚｲｱｳﾄ2
 70
     1
 71
     1
 10
-11.11171940006971
 20
-18.94284635962515
 11
198.8192803557896
 21
278.1101626735779
 12
0.0
 22
0.0
 32
0.0
 14
-6.072939263452838
 24
-13.89798483671347
 34
-0.0015258207003583
 15
189.5841875675847
 25
272.7480156891926
 35
0.0000000349246037
146
0.0
 13
0.0
 23
0.0
 33
0.0
 16
1.0
 26
0.0
 36
0.0
 17
0.0
 27
1.0
 37
0.0
 76
     0
330
2D1
331
2D8
  0
MLINESTYLE
  5
18
102
{ACAD_REACTORS
330
17
102
}
330
17
100
AcDbMlineStyle
  2
STANDARD
 70
     0
  3

 62
   256
 51
90.0
 52
90.0
 71
     2
 49
0.5
 62
   256
  6
BYLAYER
 49
-0.5
 62
   256
  6
BYLAYER
  0
ACDBPLACEHOLDER
  5
F
102
{ACAD_REACTORS
330
E
102
}
330
E
  0
ACAD_PROXY_OBJECT
  5
2F5
102
{ACAD_REACTORS
330
2F4
102
}
330
2F4
100
AcDbProxyObject
 90
      499
 91
      503
 95
   655383
 70
     0
 93
     1841
310
4214DD185B99185C9928000000000000F83F0000000000003E0FC00000000000004901028000000C1008070000C3001FDFF8000000C1003FBFF000000182007F7FE00000030400FEFFC00000060801FDFF8000000C1003FBFF000000182000000000000000C2020B0000001820100E000186003FBFF000000182007F7FE000
310
00030400FEFFC00000060801FDFF8000000C1003FBFF000000182007F7FE0000003040000000000000012404160000003040201C00030C007F7FE00000030400FEFFC00000060801FDFF8000000C1003FBFF000000182007F7FE00000030400FEFFC000000608000
340
11
340
11
340
11
 94
        0
  0
DICTIONARYVAR
  5
30A
102
{ACAD_REACTORS
330
309
102
}
330
309
100
DictionaryVariables
280
     0
  1
STANDARD
  0
DICTIONARYVAR
  5
30B
102
{ACAD_REACTORS
330
309
102
}
330
309
100
DictionaryVariables
280
     0
  1
1
  0
DICTIONARYVAR
  5
30C
102
{ACAD_REACTORS
330
309
102
}
330
309
100
DictionaryVariables
280
     0
  1

  0
DICTIONARY
  5
301
330
22
100
AcDbDictionary
280
     1
281
     1
  3
ACAD_XREC_ROUNDTRIP
360
302
  0
DICTIONARY
  5
303
330
2D2
100
AcDbDictionary
280
     1
281
     1
  3
ACAD_XREC_ROUNDTRIP
360
304
  0
XRECORD
  5
302
102
{ACAD_REACTORS
330
301
102
}
330
301
100
AcDbXrecord
280
     1
102
SHADEPLOT
 70
     0
102
SHADEPLOTRESLEVEL
 70
     2
102
SHADEPLOTCUSTOMDPI
 70
   300
  0
XRECORD
  5
304
102
{ACAD_REACTORS
330
303
102
}
330
303
100
AcDbXrecord
280
     1
102
SHADEPLOT
 70
     0
102
SHADEPLOTRESLEVEL
 70
     2
102
SHADEPLOTCUSTOMDPI
 70
   300
  0
ENDSEC
  0
EOF
