  0
SECTION
  2
HEADER
  9
$ACADVER
  1
AC1015
  9
$ACADMAINTVER
 70
    10
  9
$DWGCODEPAGE
  3
ANSI_932
  9
$INSBASE
 10
0.0
 20
0.0
 30
0.0
  9
$EXTMIN
 10
359.7873178083909
 20
156.4655938537721
 30
0.0
  9
$EXTMAX
 10
894.5531821500992
 20
405.8678134104866
 30
0.0
  9
$LIMMIN
 10
0.0
 20
0.0
  9
$LIMMAX
 10
420.0
 20
297.0
  9
$ORTHOMODE
 70
     1
  9
$REGENMODE
 70
     1
  9
$FILLMODE
 70
     1
  9
$QTEXTMODE
 70
     0
  9
$MIRRTEXT
 70
     1
  9
$LTSCALE
 40
2.0
  9
$ATTMODE
 70
     1
  9
$TEXTSIZE
 40
2.5
  9
$TRACEWID
 40
1.0
  9
$TEXTSTYLE
  7
Standard
  9
$CLAYER
  8
外形
  9
$CELTYPE
  6
ByLayer
  9
$CECOLOR
 62
   256
  9
$CELTSCALE
 40
1.0
  9
$DISPSILH
 70
     0
  9
$DIMSCALE
 40
7.0
  9
$DIMASZ
 40
1.0
  9
$DIMEXO
 40
0.2
  9
$DIMDLI
 40
3.75
  9
$DIMRND
 40
0.0
  9
$DIMDLE
 40
0.0
  9
$DIMEXE
 40
0.5
  9
$DIMTP
 40
0.0
  9
$DIMTM
 40
0.0
  9
$DIMTXT
 40
0.7
  9
$DIMCEN
 40
2.5
  9
$DIMTSZ
 40
0.0
  9
$DIMTOL
 70
     0
  9
$DIMLIM
 70
     0
  9
$DIMTIH
 70
     0
  9
$DIMTOH
 70
     0
  9
$DIMSE1
 70
     0
  9
$DIMSE2
 70
     0
  9
$DIMTAD
 70
     1
  9
$DIMZIN
 70
     8
  9
$DIMBLK
  1

  9
$DIMASO
 70
     1
  9
$DIMSHO
 70
     1
  9
$DIMPOST
  1

  9
$DIMAPOST
  1

  9
$DIMALT
 70
     0
  9
$DIMALTD
 70
     3
  9
$DIMALTF
 40
0.03937007874016
  9
$DIMLFAC
 40
1.0
  9
$DIMTOFL
 70
     1
  9
$DIMTVP
 40
0.0
  9
$DIMTIX
 70
     0
  9
$DIMSOXD
 70
     0
  9
$DIMSAH
 70
     0
  9
$DIMBLK1
  1

  9
$DIMBLK2
  1

  9
$DIMSTYLE
  2
ISO-25
  9
$DIMCLRD
 70
     0
  9
$DIMCLRE
 70
     0
  9
$DIMCLRT
 70
     0
  9
$DIMTFAC
 40
1.0
  9
$DIMGAP
 40
0.2
  9
$DIMJUST
 70
     0
  9
$DIMSD1
 70
     0
  9
$DIMSD2
 70
     0
  9
$DIMTOLJ
 70
     0
  9
$DIMTZIN
 70
     8
  9
$DIMALTZ
 70
     0
  9
$DIMALTTZ
 70
     0
  9
$DIMUPT
 70
     0
  9
$DIMDEC
 70
     1
  9
$DIMTDEC
 70
     1
  9
$DIMALTU
 70
     2
  9
$DIMALTTD
 70
     3
  9
$DIMTXSTY
  7
Standard
  9
$DIMAUNIT
 70
     0
  9
$DIMADEC
 70
     0
  9
$DIMALTRND
 40
0.0
  9
$DIMAZIN
 70
     0
  9
$DIMDSEP
 70
    44
  9
$DIMATFIT
 70
     3
  9
$DIMFRAC
 70
     0
  9
$DIMLDRBLK
  1

  9
$DIMLUNIT
 70
     2
  9
$DIMLWD
 70
    -2
  9
$DIMLWE
 70
    -2
  9
$DIMTMOVE
 70
     0
  9
$LUNITS
 70
     2
  9
$LUPREC
 70
     4
  9
$SKETCHINC
 40
1.0
  9
$FILLETRAD
 40
0.5
  9
$AUNITS
 70
     0
  9
$AUPREC
 70
     0
  9
$MENU
  1
.
  9
$ELEVATION
 40
0.0
  9
$PELEVATION
 40
0.0
  9
$THICKNESS
 40
0.0
  9
$LIMCHECK
 70
     0
  9
$CHAMFERA
 40
10.0
  9
$CHAMFERB
 40
10.0
  9
$CHAMFERC
 40
0.0
  9
$CHAMFERD
 40
0.0
  9
$SKPOLY
 70
     0
  9
$TDCREATE
 40
2453483.907673240
  9
$TDUCREATE
 40
2453483.532673240
  9
$TDUPDATE
 40
2453518.748881284
  9
$TDUUPDATE
 40
2453518.373881284
  9
$TDINDWG
 40
0.1566348148
  9
$TDUSRTIMER
 40
0.1566346296
  9
$USRTIMER
 70
     1
  9
$ANGBASE
 50
0.0
  9
$ANGDIR
 70
     0
  9
$PDMODE
 70
     0
  9
$PDSIZE
 40
0.0
  9
$PLINEWID
 40
0.0
  9
$SPLFRAME
 70
     0
  9
$SPLINETYPE
 70
     6
  9
$SPLINESEGS
 70
     8
  9
$HANDSEED
  5
1105
  9
$SURFTAB1
 70
     6
  9
$SURFTAB2
 70
     6
  9
$SURFTYPE
 70
     6
  9
$SURFU
 70
     6
  9
$SURFV
 70
     6
  9
$UCSBASE
  2

  9
$UCSNAME
  2

  9
$UCSORG
 10
0.0
 20
0.0
 30
0.0
  9
$UCSXDIR
 10
1.0
 20
0.0
 30
0.0
  9
$UCSYDIR
 10
0.0
 20
1.0
 30
0.0
  9
$UCSORTHOREF
  2

  9
$UCSORTHOVIEW
 70
     0
  9
$UCSORGTOP
 10
0.0
 20
0.0
 30
0.0
  9
$UCSORGBOTTOM
 10
0.0
 20
0.0
 30
0.0
  9
$UCSORGLEFT
 10
0.0
 20
0.0
 30
0.0
  9
$UCSORGRIGHT
 10
0.0
 20
0.0
 30
0.0
  9
$UCSORGFRONT
 10
0.0
 20
0.0
 30
0.0
  9
$UCSORGBACK
 10
0.0
 20
0.0
 30
0.0
  9
$PUCSBASE
  2

  9
$PUCSNAME
  2

  9
$PUCSORG
 10
0.0
 20
0.0
 30
0.0
  9
$PUCSXDIR
 10
1.0
 20
0.0
 30
0.0
  9
$PUCSYDIR
 10
0.0
 20
1.0
 30
0.0
  9
$PUCSORTHOREF
  2

  9
$PUCSORTHOVIEW
 70
     0
  9
$PUCSORGTOP
 10
0.0
 20
0.0
 30
0.0
  9
$PUCSORGBOTTOM
 10
0.0
 20
0.0
 30
0.0
  9
$PUCSORGLEFT
 10
0.0
 20
0.0
 30
0.0
  9
$PUCSORGRIGHT
 10
0.0
 20
0.0
 30
0.0
  9
$PUCSORGFRONT
 10
0.0
 20
0.0
 30
0.0
  9
$PUCSORGBACK
 10
0.0
 20
0.0
 30
0.0
  9
$USERI1
 70
     0
  9
$USERI2
 70
     0
  9
$USERI3
 70
     0
  9
$USERI4
 70
     0
  9
$USERI5
 70
     0
  9
$USERR1
 40
0.0
  9
$USERR2
 40
0.0
  9
$USERR3
 40
0.0
  9
$USERR4
 40
0.0
  9
$USERR5
 40
0.0
  9
$WORLDVIEW
 70
     1
  9
$SHADEDGE
 70
     3
  9
$SHADEDIF
 70
    70
  9
$TILEMODE
 70
     1
  9
$MAXACTVP
 70
    64
  9
$PINSBASE
 10
0.0
 20
0.0
 30
0.0
  9
$PLIMCHECK
 70
     0
  9
$PEXTMIN
 10
28.73798336982726
 20
20.03425021171568
 30
0.0
  9
$PEXTMAX
 10
258.6418503284454
 20
180.3082519054413
 30
0.0
  9
$PLIMMIN
 10
-4.7730712890625
 20
-4.773083209991455
  9
$PLIMMAX
 10
292.1529235839843
 20
205.2002444267273
  9
$UNITMODE
 70
     0
  9
$VISRETAIN
 70
     1
  9
$PLINEGEN
 70
     0
  9
$PSLTSCALE
 70
     1
  9
$TREEDEPTH
 70
  3020
  9
$CMLSTYLE
  2
Standard
  9
$CMLJUST
 70
     0
  9
$CMLSCALE
 40
20.0
  9
$PROXYGRAPHICS
 70
     1
  9
$MEASUREMENT
 70
     1
  9
$CELWEIGHT
370
    -1
  9
$ENDCAPS
280
     0
  9
$JOINSTYLE
280
     0
  9
$LWDISPLAY
290
     0
  9
$INSUNITS
 70
     4
  9
$HYPERLINKBASE
  1

  9
$STYLESHEET
  1
monochrome.ctb
  9
$XEDIT
290
     1
  9
$CEPSNTYPE
380
     0
  9
$PSTYLEMODE
290
     1
  9
$FINGERPRINTGUID
  2
{FDEAD578-A652-11D2-9A35-0060089B3A3F}
  9
$VERSIONGUID
  2
{A669E9C2-EBC6-4210-93DD-F0BBE3E43377}
  9
$EXTNAMES
290
     1
  9
$PSVPSCALE
 40
0.0
  9
$OLESTARTUP
290
     0
  0
ENDSEC
  0
SECTION
  2
CLASSES
  0
CLASS
  1
ACDBDICTIONARYWDFLT
  2
AcDbDictionaryWithDefault
  3
AutoCAD 2000
 90
        0
280
     0
281
     0
  0
CLASS
  1
ACDBPLACEHOLDER
  2
AcDbPlaceHolder
  3
AutoCAD 2000
 90
        0
280
     0
281
     0
  0
CLASS
  1
LAYOUT
  2
AcDbLayout
  3
AutoCAD 2000
 90
        0
280
     0
281
     0
  0
CLASS
  1
TABLESTYLE
  2
AcDbTableStyle
  3
ObjectDBX Classes
 90
     2047
280
     0
281
     0
  0
CLASS
  1
DICTIONARYVAR
  2
AcDbDictionaryVar
  3
AutoCAD 2000
 90
        0
280
     0
281
     0
  0
ENDSEC
  0
SECTION
  2
TABLES
  0
TABLE
  2
VPORT
  5
8
330
0
100
AcDbSymbolTable
 70
     2
  0
VPORT
  5
1104
330
8
100
AcDbSymbolTableRecord
100
AcDbViewportTableRecord
  2
*Active
 70
     0
 10
0.0
 20
0.0
 11
1.0
 21
1.0
 12
624.4688666920149
 22
266.1911771064968
 13
0.0
 23
0.0
 14
10.0
 24
10.0
 15
10.0
 25
10.0
 16
0.0
 26
0.0
 36
1.0
 17
0.0
 27
0.0
 37
0.0
 40
380.6165713981593
 41
1.561128526645767
 42
50.0
 43
0.0
 44
0.0
 50
0.0
 51
0.0
 71
     0
 72
   100
 73
     1
 74
     3
 75
     0
 76
     0
 77
     0
 78
     0
281
     0
 65
     1
110
0.0
120
0.0
130
0.0
111
1.0
121
0.0
131
0.0
112
0.0
122
1.0
132
0.0
 79
     0
146
0.0
  0
ENDTAB
  0
TABLE
  2
LTYPE
  5
5
330
0
100
AcDbSymbolTable
 70
     3
  0
LTYPE
  5
14
330
5
100
AcDbSymbolTableRecord
100
AcDbLinetypeTableRecord
  2
ByBlock
 70
     0
  3

 72
    65
 73
     0
 40
0.0
  0
LTYPE
  5
15
330
5
100
AcDbSymbolTableRecord
100
AcDbLinetypeTableRecord
  2
ByLayer
 70
     0
  3

 72
    65
 73
     0
 40
0.0
  0
LTYPE
  5
16
330
5
100
AcDbSymbolTableRecord
100
AcDbLinetypeTableRecord
  2
Continuous
 70
     0
  3
Solid line
 72
    65
 73
     0
 40
0.0
  0
LTYPE
  5
79
330
5
100
AcDbSymbolTableRecord
100
AcDbLinetypeTableRecord
  2
CENTER
 70
     0
  3
Center ____ _ ____ _ ____ _ ____ _ ____ _ ____
 72
    65
 73
     4
 40
50.8
 49
31.75
 74
     0
 49
-6.349999999999998
 74
     0
 49
6.349999999999998
 74
     0
 49
-6.349999999999998
 74
     0
  0
LTYPE
  5
ACC
330
5
100
AcDbSymbolTableRecord
100
AcDbLinetypeTableRecord
  2
HIDDENX2
 70
     0
  3
Hidden (2x) ____ ____ ____ ____ ____ ____ ____
 72
    65
 73
     2
 40
19.04999999999999
 49
12.7
 74
     0
 49
-6.349999999999999
 74
     0
  0
ENDTAB
  0
TABLE
  2
LAYER
  5
2
330
0
100
AcDbSymbolTable
 70
     4
  0
LAYER
  5
10
330
2
100
AcDbSymbolTableRecord
100
AcDbLayerTableRecord
  2
0
 70
     0
 62
     7
  6
Continuous
370
    -3
390
F
  0
LAYER
  5
64
330
2
100
AcDbSymbolTableRecord
100
AcDbLayerTableRecord
  2
外形
 70
     0
 62
     7
  6
Continuous
370
    -3
390
F
  0
LAYER
  5
65
330
2
100
AcDbSymbolTableRecord
100
AcDbLayerTableRecord
  2
寸法
 70
     0
 62
     7
  6
Continuous
370
    -3
390
F
  0
LAYER
  5
E3
330
2
100
AcDbSymbolTableRecord
100
AcDbLayerTableRecord
  2
Defpoints
 70
     0
 62
     7
  6
Continuous
290
     0
370
    -3
390
F
  0
ENDTAB
  0
TABLE
  2
STYLE
  5
3
330
0
100
AcDbSymbolTable
 70
     1
  0
STYLE
  5
11
330
3
100
AcDbSymbolTableRecord
100
AcDbTextStyleTableRecord
  2
Standard
 70
     0
 40
0.0
 41
1.0
 50
0.0
 71
     0
 42
2.5
  3
txt
  4

  0
ENDTAB
  0
TABLE
  2
VIEW
  5
6
330
0
100
AcDbSymbolTable
 70
     0
  0
ENDTAB
  0
TABLE
  2
UCS
  5
7
330
0
100
AcDbSymbolTable
 70
     0
  0
ENDTAB
  0
TABLE
  2
APPID
  5
9
330
0
100
AcDbSymbolTable
 70
     1
  0
APPID
  5
12
330
9
100
AcDbSymbolTableRecord
100
AcDbRegAppTableRecord
  2
ACAD
 70
     0
  0
ENDTAB
  0
TABLE
  2
DIMSTYLE
  5
A
330
0
100
AcDbSymbolTable
 70
     1
100
AcDbDimStyleTable
 71
     1
340
27
  0
DIMSTYLE
105
27
102
{ACAD_REACTORS
330
DD2
330
D74
330
D4C
330
CFC
330
C80
330
E0D
330
E0E
330
E10
102
}
330
A
100
AcDbSymbolTableRecord
100
AcDbDimStyleTableRecord
  2
ISO-25
 70
     0
 40
7.0
 41
1.0
 42
0.2
 43
3.75
 44
0.5
 73
     0
 74
     0
 77
     1
 78
     8
140
0.7
141
2.5
143
0.03937007874016
147
0.2
171
     3
172
     1
271
     1
272
     1
274
     3
278
    44
283
     0
284
     8
340
11
  0
ENDTAB
  0
TABLE
  2
BLOCK_RECORD
  5
1
330
0
100
AcDbSymbolTable
 70
     5
  0
BLOCK_RECORD
  5
1F
330
1
100
AcDbSymbolTableRecord
100
AcDbBlockTableRecord
  2
*Model_Space
340
22
  0
BLOCK_RECORD
  5
2D1
330
1
100
AcDbSymbolTableRecord
100
AcDbBlockTableRecord
  2
*Paper_Space
340
2D2
  0
BLOCK_RECORD
  5
C81
330
1
100
AcDbSymbolTableRecord
100
AcDbBlockTableRecord
  2
*D0
340
0
  0
BLOCK_RECORD
  5
CFD
330
1
100
AcDbSymbolTableRecord
100
AcDbBlockTableRecord
  2
*D1
340
0
  0
BLOCK_RECORD
  5
D4D
330
1
100
AcDbSymbolTableRecord
100
AcDbBlockTableRecord
  2
*D2
340
0
  0
BLOCK_RECORD
  5
D75
330
1
100
AcDbSymbolTableRecord
100
AcDbBlockTableRecord
  2
*D3
340
0
  0
BLOCK_RECORD
  5
DD3
330
1
100
AcDbSymbolTableRecord
100
AcDbBlockTableRecord
  2
*D4
340
0
  0
ENDTAB
  0
ENDSEC
  0
SECTION
  2
BLOCKS
  0
BLOCK
  5
20
330
1F
100
AcDbEntity
  8
0
100
AcDbBlockBegin
  2
*Model_Space
 70
     0
 10
0.0
 20
0.0
 30
0.0
  3
*Model_Space
  1

  0
ENDBLK
  5
21
330
1F
100
AcDbEntity
  8
0
100
AcDbBlockEnd
  0
BLOCK
  5
2D3
330
2D1
100
AcDbEntity
 67
     1
  8
0
 62
     5
100
AcDbBlockBegin
  2
*Paper_Space
 70
     0
 10
0.0
 20
0.0
 30
0.0
  3
*Paper_Space
  1

  0
ENDBLK
  5
2D4
330
2D1
100
AcDbEntity
 67
     1
  8
0
 62
     5
100
AcDbBlockEnd
  0
BLOCK
  5
C8B
330
C81
100
AcDbEntity
  8
0
100
AcDbBlockBegin
  2
*D0
 70
     1
 10
0.0
 20
0.0
 30
0.0
  3
*D0
  1

  0
LINE
  5
10EE
330
C81
100
AcDbEntity
  8
寸法
 62
     0
370
    -2
100
AcDbLine
 10
757.3979037046456
 20
218.7687733965571
 30
0.0
 11
790.4979037046455
 21
218.7687733965571
 31
0.0
  0
LINE
  5
10EF
330
C81
100
AcDbEntity
  8
寸法
 62
     0
370
    -2
100
AcDbLine
 10
748.5256386029914
 20
338.7687733965571
 30
0.0
 11
790.4979037046456
 21
338.7687733965571
 31
0.0
  0
LINE
  5
10F0
330
C81
100
AcDbEntity
  8
寸法
 62
     0
370
    -2
100
AcDbLine
 10
786.9979037046455
 20
225.7687733965571
 30
0.0
 11
786.9979037046456
 21
331.768773396557
 31
0.0
  0
SOLID
  5
10F1
330
C81
100
AcDbEntity
  8
寸法
 62
     0
100
AcDbTrace
 10
785.8312370379788
 20
225.7687733965571
 30
0.0
 11
788.1645703713121
 21
225.7687733965571
 31
0.0
 12
786.9979037046455
 22
218.7687733965571
 32
0.0
 13
786.9979037046455
 23
218.7687733965571
 33
0.0
  0
SOLID
  5
10F2
330
C81
100
AcDbEntity
  8
寸法
 62
     0
100
AcDbTrace
 10
785.831237037979
 20
331.768773396557
 30
0.0
 11
788.1645703713123
 21
331.768773396557
 31
0.0
 12
786.9979037046456
 22
338.7687733965571
 32
0.0
 13
786.9979037046456
 23
338.7687733965571
 33
0.0
  0
MTEXT
  5
10F3
330
C81
100
AcDbEntity
  8
寸法
 62
     0
100
AcDbMText
 10
783.1479037046455
 20
278.7687733965572
 30
0.0
 40
4.899999999999999
 41
0.0
 71
     5
 72
     1
  1
120
 11
0.0000000000000001
 21
1.0
 31
0.0
 73
     1
 44
1.0
  0
POINT
  5
10F4
330
C81
100
AcDbEntity
  8
Defpoints
 62
     0
100
AcDbPoint
 10
755.9979037046456
 20
218.7687733965571
 30
0.0
  0
POINT
  5
10F5
330
C81
100
AcDbEntity
  8
Defpoints
 62
     0
100
AcDbPoint
 10
747.1256386029914
 20
338.7687733965571
 30
0.0
  0
POINT
  5
10F6
330
C81
100
AcDbEntity
  8
Defpoints
 62
     0
100
AcDbPoint
 10
786.9979037046456
 20
338.7687733965571
 30
0.0
  0
ENDBLK
  5
C8C
330
C81
100
AcDbEntity
  8
0
100
AcDbBlockEnd
  0
BLOCK
  5
D07
330
CFD
100
AcDbEntity
  8
0
100
AcDbBlockBegin
  2
*D1
 70
     1
 10
0.0
 20
0.0
 30
0.0
  3
*D1
  1

  0
LINE
  5
FF4
330
CFD
100
AcDbEntity
  8
寸法
 62
     0
370
    -2
100
AcDbLine
 10
517.563996016273
 20
233.7740166865813
 30
0.0
 11
542.9560806323013
 21
233.7740166865813
 31
0.0
  0
LINE
  5
FF5
330
CFD
100
AcDbEntity
  8
寸法
 62
     0
370
    -2
100
AcDbLine
 10
517.563996016273
 20
323.7740166865812
 30
0.0
 11
542.9560806323014
 21
323.7740166865812
 31
0.0
  0
LINE
  5
FF6
330
CFD
100
AcDbEntity
  8
寸法
 62
     0
370
    -2
100
AcDbLine
 10
539.4560806323013
 20
240.7740166865813
 30
0.0
 11
539.4560806323014
 21
316.7740166865812
 31
0.0
  0
SOLID
  5
FF7
330
CFD
100
AcDbEntity
  8
寸法
 62
     0
100
AcDbTrace
 10
538.2894139656347
 20
240.7740166865813
 30
0.0
 11
540.6227472989679
 21
240.7740166865813
 31
0.0
 12
539.4560806323013
 22
233.7740166865813
 32
0.0
 13
539.4560806323013
 23
233.7740166865813
 33
0.0
  0
SOLID
  5
FF8
330
CFD
100
AcDbEntity
  8
寸法
 62
     0
100
AcDbTrace
 10
538.2894139656348
 20
316.7740166865812
 30
0.0
 11
540.622747298968
 21
316.7740166865812
 31
0.0
 12
539.4560806323014
 22
323.7740166865812
 32
0.0
 13
539.4560806323014
 23
323.7740166865812
 33
0.0
  0
MTEXT
  5
FF9
330
CFD
100
AcDbEntity
  8
寸法
 62
     0
100
AcDbMText
 10
535.6060806323013
 20
278.7740166865813
 30
0.0
 40
4.899999999999999
 41
0.0
 71
     5
 72
     1
  1
90
 11
0.0000000000000001
 21
1.0
 31
0.0
 73
     1
 44
1.0
  0
POINT
  5
FFA
330
CFD
100
AcDbEntity
  8
Defpoints
 62
     0
100
AcDbPoint
 10
516.1639960162729
 20
233.7740166865813
 30
0.0
  0
POINT
  5
FFB
330
CFD
100
AcDbEntity
  8
Defpoints
 62
     0
100
AcDbPoint
 10
516.1639960162731
 20
323.7740166865812
 30
0.0
  0
POINT
  5
FFC
330
CFD
100
AcDbEntity
  8
Defpoints
 62
     0
100
AcDbPoint
 10
539.4560806323014
 20
323.7740166865812
 30
0.0
  0
ENDBLK
  5
D08
330
CFD
100
AcDbEntity
  8
0
100
AcDbBlockEnd
  0
BLOCK
  5
D57
330
D4D
100
AcDbEntity
  8
0
100
AcDbBlockBegin
  2
*D2
 70
     1
 10
0.0
 20
0.0
 30
0.0
  3
*D2
  1

  0
LINE
  5
FBA
330
D4D
100
AcDbEntity
  8
寸法
 62
     0
370
    -2
100
AcDbLine
 10
519.8822319186911
 20
218.7740166865813
 30
0.0
 11
563.9560806323012
 21
218.7740166865813
 31
0.0
  0
LINE
  5
FBB
330
D4D
100
AcDbEntity
  8
寸法
 62
     0
370
    -2
100
AcDbLine
 10
519.8822319186911
 20
338.7740166865813
 30
0.0
 11
563.9560806323013
 21
338.7740166865813
 31
0.0
  0
LINE
  5
FBC
330
D4D
100
AcDbEntity
  8
寸法
 62
     0
370
    -2
100
AcDbLine
 10
560.4560806323012
 20
225.7740166865813
 30
0.0
 11
560.4560806323013
 21
331.7740166865813
 31
0.0
  0
SOLID
  5
FBD
330
D4D
100
AcDbEntity
  8
寸法
 62
     0
100
AcDbTrace
 10
559.2894139656346
 20
225.7740166865813
 30
0.0
 11
561.6227472989678
 21
225.7740166865813
 31
0.0
 12
560.4560806323012
 22
218.7740166865813
 32
0.0
 13
560.4560806323012
 23
218.7740166865813
 33
0.0
  0
SOLID
  5
FBE
330
D4D
100
AcDbEntity
  8
寸法
 62
     0
100
AcDbTrace
 10
559.2894139656347
 20
331.7740166865813
 30
0.0
 11
561.6227472989679
 21
331.7740166865813
 31
0.0
 12
560.4560806323013
 22
338.7740166865813
 32
0.0
 13
560.4560806323013
 23
338.7740166865813
 33
0.0
  0
MTEXT
  5
FBF
330
D4D
100
AcDbEntity
  8
寸法
 62
     0
100
AcDbMText
 10
556.6060806323012
 20
278.7740166865813
 30
0.0
 40
4.899999999999999
 41
0.0
 71
     5
 72
     1
  1
120
 11
0.0000000000000001
 21
1.0
 31
0.0
 73
     1
 44
1.0
  0
POINT
  5
FC0
330
D4D
100
AcDbEntity
  8
Defpoints
 62
     0
100
AcDbPoint
 10
518.4822319186911
 20
218.7740166865813
 30
0.0
  0
POINT
  5
FC1
330
D4D
100
AcDbEntity
  8
Defpoints
 62
     0
100
AcDbPoint
 10
518.4822319186911
 20
338.7740166865813
 30
0.0
  0
POINT
  5
FC2
330
D4D
100
AcDbEntity
  8
Defpoints
 62
     0
100
AcDbPoint
 10
560.4560806323013
 20
338.7740166865813
 30
0.0
  0
ENDBLK
  5
D58
330
D4D
100
AcDbEntity
  8
0
100
AcDbBlockEnd
  0
BLOCK
  5
D7F
330
D75
100
AcDbEntity
  8
0
100
AcDbBlockBegin
  2
*D3
 70
     1
 10
0.0
 20
0.0
 30
0.0
  3
*D3
  1

  0
LINE
  5
FE0
330
D75
100
AcDbEntity
  8
寸法
 62
     0
370
    -2
100
AcDbLine
 10
375.950467821109
 20
227.1240166865813
 30
0.0
 11
375.950467821109
 21
194.2740166865813
 31
0.0
  0
LINE
  5
FE1
330
D75
100
AcDbEntity
  8
寸法
 62
     0
370
    -2
100
AcDbLine
 10
510.913996016273
 20
227.1240166865813
 30
0.0
 11
510.913996016273
 21
194.2740166865813
 31
0.0
  0
LINE
  5
FE2
330
D75
100
AcDbEntity
  8
寸法
 62
     0
370
    -2
100
AcDbLine
 10
382.950467821109
 20
197.7740166865813
 30
0.0
 11
503.913996016273
 21
197.7740166865813
 31
0.0
  0
SOLID
  5
FE3
330
D75
100
AcDbEntity
  8
寸法
 62
     0
100
AcDbTrace
 10
382.950467821109
 20
198.9406833532479
 30
0.0
 11
382.950467821109
 21
196.6073500199146
 31
0.0
 12
375.950467821109
 22
197.7740166865813
 32
0.0
 13
375.950467821109
 23
197.7740166865813
 33
0.0
  0
SOLID
  5
FE4
330
D75
100
AcDbEntity
  8
寸法
 62
     0
100
AcDbTrace
 10
503.913996016273
 20
198.9406833532479
 30
0.0
 11
503.913996016273
 21
196.6073500199146
 31
0.0
 12
510.913996016273
 22
197.7740166865813
 32
0.0
 13
510.913996016273
 23
197.7740166865813
 33
0.0
  0
MTEXT
  5
FE5
330
D75
100
AcDbEntity
  8
寸法
 62
     0
100
AcDbMText
 10
443.432231918691
 20
201.6240166865812
 30
0.0
 40
4.899999999999999
 41
0.0
 71
     5
 72
     1
  1
135
 73
     1
 44
1.0
  0
POINT
  5
FE6
330
D75
100
AcDbEntity
  8
Defpoints
 62
     0
100
AcDbPoint
 10
375.950467821109
 20
228.5240166865813
 30
0.0
  0
POINT
  5
FE7
330
D75
100
AcDbEntity
  8
Defpoints
 62
     0
100
AcDbPoint
 10
510.913996016273
 20
228.5240166865813
 30
0.0
  0
POINT
  5
FE8
330
D75
100
AcDbEntity
  8
Defpoints
 62
     0
100
AcDbPoint
 10
510.913996016273
 20
197.7740166865813
 30
0.0
  0
ENDBLK
  5
D80
330
D75
100
AcDbEntity
  8
0
100
AcDbBlockEnd
  0
BLOCK
  5
DDD
330
DD3
100
AcDbEntity
  8
0
100
AcDbBlockBegin
  2
*D4
 70
     1
 10
0.0
 20
0.0
 30
0.0
  3
*D4
  1

  0
LINE
  5
FA8
330
DD3
100
AcDbEntity
  8
寸法
 62
     0
370
    -2
100
AcDbLine
 10
368.4822319186911
 20
217.3740166865813
 30
0.0
 11
368.4822319186911
 21
173.2740166865813
 31
0.0
  0
LINE
  5
FA9
330
DD3
100
AcDbEntity
  8
寸法
 62
     0
370
    -2
100
AcDbLine
 10
518.4822319186911
 20
217.3740166865813
 30
0.0
 11
518.4822319186911
 21
173.2740166865813
 31
0.0
  0
LINE
  5
FAA
330
DD3
100
AcDbEntity
  8
寸法
 62
     0
370
    -2
100
AcDbLine
 10
375.4822319186911
 20
176.7740166865813
 30
0.0
 11
511.4822319186911
 21
176.7740166865813
 31
0.0
  0
SOLID
  5
FAB
330
DD3
100
AcDbEntity
  8
寸法
 62
     0
100
AcDbTrace
 10
375.4822319186911
 20
177.9406833532479
 30
0.0
 11
375.4822319186911
 21
175.6073500199146
 31
0.0
 12
368.4822319186911
 22
176.7740166865813
 32
0.0
 13
368.4822319186911
 23
176.7740166865813
 33
0.0
  0
SOLID
  5
FAC
330
DD3
100
AcDbEntity
  8
寸法
 62
     0
100
AcDbTrace
 10
511.4822319186911
 20
177.9406833532479
 30
0.0
 11
511.4822319186911
 21
175.6073500199146
 31
0.0
 12
518.4822319186911
 22
176.7740166865813
 32
0.0
 13
518.4822319186911
 23
176.7740166865813
 33
0.0
  0
MTEXT
  5
FAD
330
DD3
100
AcDbEntity
  8
寸法
 62
     0
100
AcDbMText
 10
443.4822319186911
 20
180.6240166865813
 30
0.0
 40
4.899999999999999
 41
0.0
 71
     5
 72
     1
  1
150
 73
     1
 44
1.0
  0
POINT
  5
FAE
330
DD3
100
AcDbEntity
  8
Defpoints
 62
     0
100
AcDbPoint
 10
368.4822319186911
 20
218.7740166865813
 30
0.0
  0
POINT
  5
FAF
330
DD3
100
AcDbEntity
  8
Defpoints
 62
     0
100
AcDbPoint
 10
518.4822319186911
 20
218.7740166865813
 30
0.0
  0
POINT
  5
FB0
330
DD3
100
AcDbEntity
  8
Defpoints
 62
     0
100
AcDbPoint
 10
518.4822319186911
 20
176.7740166865813
 30
0.0
  0
ENDBLK
  5
DDE
330
DD3
100
AcDbEntity
  8
0
100
AcDbBlockEnd
  0
ENDSEC
  0
SECTION
  2
ENTITIES
  0
LINE
  5
A4E
330
1F
100
AcDbEntity
  8
外形
100
AcDbLine
 10
368.4822319186911
 20
338.7740166865813
 30
0.0
 11
518.4822319186911
 21
338.7740166865813
 31
0.0
  0
LINE
  5
A50
330
1F
100
AcDbEntity
  8
外形
100
AcDbLine
 10
368.4822319186911
 20
218.7740166865813
 30
0.0
 11
518.4822319186911
 21
218.7740166865813
 31
0.0
  0
LINE
  5
A56
330
1F
100
AcDbEntity
  8
外形
100
AcDbLine
 10
368.4822319186911
 20
338.7740166865813
 30
0.0
 11
368.4822319186911
 21
218.7740166865813
 31
0.0
  0
LINE
  5
A57
330
1F
100
AcDbEntity
  8
外形
100
AcDbLine
 10
383.5387037235271
 20
338.7740166865813
 30
0.0
 11
383.5387037235271
 21
218.7740166865813
 31
0.0
  0
LINE
  5
A5B
330
1F
100
AcDbEntity
  8
外形
  6
CENTER
 62
     1
 48
0.08
100
AcDbLine
 10
370.7004678211091
 20
323.7740166865813
 30
0.0
 11
381.2004678211091
 21
323.7740166865812
 31
0.0
  0
LINE
  5
A5D
330
1F
100
AcDbEntity
  8
外形
  6
CENTER
 62
     1
 48
0.08
100
AcDbLine
 10
375.9504678211091
 20
318.5240166865812
 30
0.0
 11
375.9504678211092
 21
329.0240166865812
 31
0.0
  0
CIRCLE
  5
A5E
330
1F
100
AcDbEntity
  8
外形
100
AcDbCircle
 10
375.9504678211091
 20
323.7740166865812
 30
0.0
 40
3.25
  0
LINE
  5
A61
330
1F
100
AcDbEntity
  8
外形
100
AcDbLine
 10
409.0188867778651
 20
338.7740166865813
 30
0.0
 11
409.0188867778651
 21
334.1412561312472
 31
0.0
  0
LINE
  5
A63
330
1F
100
AcDbEntity
  8
外形
100
AcDbLine
 10
401.4906508754466
 20
338.7740166865813
 30
0.0
 11
401.4906508754466
 21
218.7740166865813
 31
0.0
  0
LINE
  5
A64
330
1F
100
AcDbEntity
  8
外形
100
AcDbLine
 10
396.2787952506959
 20
338.7740166865813
 30
0.0
 11
396.2787952506959
 21
218.7740166865813
 31
0.0
  0
CIRCLE
  5
A67
330
1F
100
AcDbEntity
  8
外形
100
AcDbCircle
 10
375.9504678211091
 20
233.7740166865813
 30
0.0
 40
3.25
  0
CIRCLE
  5
A68
330
1F
100
AcDbEntity
  8
外形
100
AcDbCircle
 10
405.0496697125435
 20
319.0112165148411
 30
0.0
 40
3.0
  0
LINE
  5
A69
330
1F
100
AcDbEntity
  8
外形
  6
CENTER
 62
     1
 48
0.08
100
AcDbLine
 10
405.0496697125436
 20
315.2543509464446
 30
0.0
 11
405.0496697125436
 21
322.7680820832377
 31
0.0
  0
LINE
  5
A6A
330
1F
100
AcDbEntity
  8
外形
  6
CENTER
 62
     1
 48
0.08
100
AcDbLine
 10
401.292804144147
 20
319.0112165148411
 30
0.0
 11
408.8065352809399
 21
319.0112165148411
 31
0.0
  0
LINE
  5
A6C
330
1F
100
AcDbEntity
  8
外形
  6
HIDDENX2
 48
0.08
100
AcDbLine
 10
418.2714814421132
 20
329.508495575913
 30
0.0
 11
467.298552233154
 21
329.6336644554978
 31
0.0
  0
LINE
  5
A6D
330
1F
100
AcDbEntity
  8
外形
  6
HIDDENX2
 48
0.08
100
AcDbLine
 10
418.2714814421132
 20
309.2401681463259
 30
0.0
 11
467.2985522331542
 21
309.3653370259108
 31
0.0
  0
LINE
  5
A6F
330
1F
100
AcDbEntity
  8
外形
  6
HIDDENX2
 48
0.08
100
AcDbLine
 10
418.2714814421132
 20
329.508495575913
 30
0.0
 11
418.2714814421132
 21
309.2401681463259
 31
0.0
  0
LINE
  5
A71
330
1F
100
AcDbEntity
  8
外形
  6
HIDDENX2
 48
0.08
100
AcDbLine
 10
467.298552233154
 20
329.6336644554978
 30
0.0
 11
467.2985522331542
 21
309.3653370259108
 31
0.0
  0
LINE
  5
A72
330
1F
100
AcDbEntity
  8
外形
  6
HIDDENX2
 48
0.08
100
AcDbLine
 10
419.7714814421131
 20
328.008495575913
 30
0.0
 11
437.9156399863535
 21
328.008495575913
 31
0.0
  0
LINE
  5
A73
330
1F
100
AcDbEntity
  8
外形
  6
HIDDENX2
 48
0.08
100
AcDbLine
 10
419.7714814421131
 20
328.008495575913
 30
0.0
 11
419.7714814421131
 21
310.740168146326
 31
0.0
  0
LINE
  5
A74
330
1F
100
AcDbEntity
  8
外形
  6
HIDDENX2
 48
0.08
100
AcDbLine
 10
419.7714814421131
 20
310.740168146326
 30
0.0
 11
437.9156399863534
 21
310.7401681463259
 31
0.0
  0
LINE
  5
A75
330
1F
100
AcDbEntity
  8
外形
100
AcDbLine
 10
437.9156399863535
 20
328.008495575913
 30
0.0
 11
437.9156399863534
 21
310.7401681463259
 31
0.0
  0
CIRCLE
  5
A76
330
1F
100
AcDbEntity
  8
外形
  6
HIDDENX2
 48
0.08
100
AcDbCircle
 10
428.8435607142333
 20
319.3743318611195
 30
0.0
 40
7.5
  0
CIRCLE
  5
A7C
330
1F
100
AcDbEntity
  8
外形
  6
HIDDENX2
 48
0.08
100
AcDbCircle
 10
456.7264729610339
 20
319.3743318611195
 30
0.0
 40
7.5
  0
LINE
  5
A7D
330
1F
100
AcDbEntity
  8
外形
100
AcDbLine
 10
447.6543936889137
 20
328.008495575913
 30
0.0
 11
447.6543936889137
 21
310.740168146326
 31
0.0
  0
LINE
  5
A7E
330
1F
100
AcDbEntity
  8
外形
  6
HIDDENX2
 48
0.08
100
AcDbLine
 10
447.6543936889137
 20
310.740168146326
 30
0.0
 11
465.7985522331539
 21
310.7401681463259
 31
0.0
  0
LINE
  5
A7F
330
1F
100
AcDbEntity
  8
外形
  6
HIDDENX2
 48
0.08
100
AcDbLine
 10
447.6543936889137
 20
328.008495575913
 30
0.0
 11
465.798552233154
 21
328.008495575913
 31
0.0
  0
LINE
  5
A80
330
1F
100
AcDbEntity
  8
外形
  6
HIDDENX2
 48
0.08
100
AcDbLine
 10
465.798552233154
 20
328.008495575913
 30
0.0
 11
465.7985522331539
 21
310.7401681463259
 31
0.0
  0
LINE
  5
A82
330
1F
100
AcDbEntity
  8
外形
  6
CENTER
 62
     1
 48
0.08
100
AcDbLine
 10
411.3525351401278
 20
232.4898042489432
 30
0.0
 11
418.8662662769209
 21
232.4898042489432
 31
0.0
  0
CIRCLE
  5
A83
330
1F
100
AcDbEntity
  8
外形
100
AcDbCircle
 10
415.1094007085244
 20
232.4898042489432
 30
0.0
 40
3.0
  0
LINE
  5
A84
330
1F
100
AcDbEntity
  8
外形
  6
CENTER
 62
     1
 48
0.08
100
AcDbLine
 10
415.1094007085244
 20
228.7329386805466
 30
0.0
 11
415.1094007085244
 21
236.2466698173396
 31
0.0
  0
LINE
  5
A8B
330
1F
100
AcDbEntity
  8
外形
100
AcDbLine
 10
422.3545345117502
 20
250.441751400863
 30
0.0
 11
464.6284745791745
 21
250.441751400863
 31
0.0
  0
LINE
  5
A8C
330
1F
100
AcDbEntity
  8
外形
100
AcDbLine
 10
422.3545345117503
 20
232.4898042489432
 30
0.0
 11
464.6284745791746
 21
232.4898042489431
 31
0.0
  0
LINE
  5
A8F
330
1F
100
AcDbEntity
  8
外形
100
AcDbLine
 10
422.3545345117502
 20
250.441751400863
 30
0.0
 11
422.3545345117503
 21
232.4898042489432
 31
0.0
  0
LINE
  5
A90
330
1F
100
AcDbEntity
  8
外形
100
AcDbLine
 10
430.4546769730563
 20
250.441751400863
 30
0.0
 11
430.4546769730564
 21
232.4898042489432
 31
0.0
  0
LINE
  5
A91
330
1F
100
AcDbEntity
  8
外形
100
AcDbLine
 10
432.2546769730563
 20
250.441751400863
 30
0.0
 11
432.2546769730564
 21
232.4898042489432
 31
0.0
  0
LINE
  5
A92
330
1F
100
AcDbEntity
  8
外形
100
AcDbLine
 10
442.5822319186911
 20
250.441751400863
 30
0.0
 11
442.5822319186911
 21
232.4898042489432
 31
0.0
  0
LINE
  5
A93
330
1F
100
AcDbEntity
  8
外形
100
AcDbLine
 10
444.3822319186911
 20
250.441751400863
 30
0.0
 11
444.3822319186911
 21
232.4898042489432
 31
0.0
  0
LINE
  5
A95
330
1F
100
AcDbEntity
  8
外形
100
AcDbLine
 10
464.6284745791745
 20
250.441751400863
 30
0.0
 11
464.6284745791746
 21
232.4898042489431
 31
0.0
  0
LINE
  5
A96
330
1F
100
AcDbEntity
  8
外形
  6
CENTER
 62
     1
 48
0.08
100
AcDbLine
 10
427.4546769730566
 20
237.7089122565066
 30
0.0
 11
427.4546769730566
 21
245.2226433932996
 31
0.0
  0
CIRCLE
  5
A97
330
1F
100
AcDbEntity
  8
外形
100
AcDbCircle
 10
427.4546769730565
 20
241.4657778249031
 30
0.0
 40
3.0
  0
LINE
  5
A98
330
1F
100
AcDbEntity
  8
外形
  6
CENTER
 62
     1
 48
0.08
100
AcDbLine
 10
423.69781140466
 20
241.4657778249031
 30
0.0
 11
431.211542541453
 21
241.4657778249031
 31
0.0
  0
LINE
  5
A9A
330
1F
100
AcDbEntity
  8
外形
100
AcDbLine
 10
432.2546769730562
 20
247.441751400863
 30
0.0
 11
442.5822319186911
 21
247.441751400863
 31
0.0
  0
LINE
  5
A9C
330
1F
100
AcDbEntity
  8
外形
100
AcDbLine
 10
432.2546769730563
 20
235.4898042489432
 30
0.0
 11
442.582231918691
 21
235.4898042489431
 31
0.0
  0
CIRCLE
  5
A9D
330
1F
100
AcDbEntity
  8
外形
100
AcDbCircle
 10
437.4184544458736
 20
241.4657778249031
 30
0.0
 40
5.0
  0
LINE
  5
A9E
330
1F
100
AcDbEntity
  8
外形
100
AcDbLine
 10
385.2387037235272
 20
338.7740166865813
 30
0.0
 11
385.2387037235272
 21
218.7740166865813
 31
0.0
  0
LINE
  5
A9F
330
1F
100
AcDbEntity
  8
外形
100
AcDbLine
 10
410.018886777865
 20
338.7740166865813
 30
0.0
 11
410.0188867778651
 21
334.1412561312472
 31
0.0
  0
LINE
  5
AA4
330
1F
100
AcDbEntity
  8
外形
100
AcDbLine
 10
440.6380521134268
 20
238.1798830528037
 30
0.0
 11
434.1988567783203
 21
244.6190783879103
 31
0.0
  0
LINE
  5
AA5
330
1F
100
AcDbEntity
  8
外形
100
AcDbLine
 10
440.6380521134268
 20
244.6190783879103
 30
0.0
 11
434.1988567783203
 21
238.1798830528037
 31
0.0
  0
CIRCLE
  5
AA6
330
1F
100
AcDbEntity
  8
外形
100
AcDbCircle
 10
449.5583968492546
 20
241.4616146022039
 30
0.0
 40
5.0
  0
LINE
  5
AA7
330
1F
100
AcDbEntity
  8
外形
  6
CENTER
 62
     1
 48
0.08
100
AcDbLine
 10
459.5195952502568
 20
237.6979160432476
 30
0.0
 11
459.5247487067241
 21
245.2116454127351
 31
0.0
  0
LINE
  5
AA8
330
1F
100
AcDbEntity
  8
外形
100
AcDbLine
 10
454.728329474853
 20
250.4340443774587
 30
0.0
 11
454.7160167401455
 21
232.4821014480183
 31
0.0
  0
LINE
  5
AA9
330
1F
100
AcDbEntity
  8
外形
100
AcDbLine
 10
456.5283290514748
 20
250.4328098081785
 30
0.0
 11
456.5160163167672
 21
232.4808668787381
 31
0.0
  0
LINE
  5
AAA
330
1F
100
AcDbEntity
  8
外形
100
AcDbLine
 10
454.7180743556125
 20
235.482100742388
 30
0.0
 11
444.3905218391231
 21
235.4891841213187
 31
0.0
  0
CIRCLE
  5
AAB
330
1F
100
AcDbEntity
  8
外形
100
AcDbCircle
 10
459.5221719784906
 20
241.4547807279913
 30
0.0
 40
3.0
  0
LINE
  5
AAC
330
1F
100
AcDbEntity
  8
外形
  6
CENTER
 62
     1
 48
0.08
100
AcDbLine
 10
463.2790366632344
 20
241.4522039997577
 30
0.0
 11
455.7653072937468
 21
241.457357456225
 31
0.0
  0
LINE
  5
AAD
330
1F
100
AcDbEntity
  8
外形
100
AcDbLine
 10
446.3409626989868
 20
244.6171226548423
 30
0.0
 11
452.7757400568908
 21
238.1735123716608
 31
0.0
  0
LINE
  5
AAE
330
1F
100
AcDbEntity
  8
外形
100
AcDbLine
 10
446.336546236348
 20
238.1779288342996
 30
0.0
 11
452.7801565195296
 21
244.6127061922036
 31
0.0
  0
LINE
  5
AAF
330
1F
100
AcDbEntity
  8
外形
100
AcDbLine
 10
454.726271859386
 20
247.434045083089
 30
0.0
 11
444.3987193428965
 21
247.4411284620198
 31
0.0
  0
ARC
  5
AB0
330
1F
100
AcDbEntity
  8
外形
100
AcDbCircle
 10
413.7059549591625
 20
337.8027324583495
 30
0.0
 40
3.0
100
AcDbArc
 50
18.89055223428089
 51
161.109447765719
  0
ARC
  5
AB2
330
1F
100
AcDbEntity
  8
外形
100
AcDbCircle
 10
413.7059549591625
 20
219.7453009148131
 30
0.0
 40
3.0
100
AcDbArc
 50
198.8905522342808
 51
341.109447765719
  0
LINE
  5
AB4
330
1F
100
AcDbEntity
  8
外形
100
AcDbLine
 10
476.9455770595171
 20
338.7740166865813
 30
0.0
 11
476.9455770595173
 21
334.1412561312472
 31
0.0
  0
LINE
  5
AB5
330
1F
100
AcDbEntity
  8
外形
100
AcDbLine
 10
501.725760113855
 20
338.7740166865813
 30
0.0
 11
501.725760113855
 21
218.7740166865813
 31
0.0
  0
LINE
  5
AB6
330
1F
100
AcDbEntity
  8
外形
100
AcDbLine
 10
490.6856685866863
 20
338.7740166865813
 30
0.0
 11
490.6856685866863
 21
218.7740166865813
 31
0.0
  0
LINE
  5
AB7
330
1F
100
AcDbEntity
  8
外形
100
AcDbLine
 10
485.4738129619355
 20
338.7740166865813
 30
0.0
 11
485.4738129619355
 21
218.7740166865813
 31
0.0
  0
LINE
  5
AB8
330
1F
100
AcDbEntity
  8
外形
100
AcDbLine
 10
477.9455770595172
 20
338.7740166865813
 30
0.0
 11
477.9455770595172
 21
334.141256131247
 31
0.0
  0
LINE
  5
AB9
330
1F
100
AcDbEntity
  8
外形
100
AcDbLine
 10
503.425760113855
 20
338.7740166865813
 30
0.0
 11
503.425760113855
 21
218.7740166865813
 31
0.0
  0
LINE
  5
ABA
330
1F
100
AcDbEntity
  8
外形
100
AcDbLine
 10
518.4822319186911
 20
338.7740166865813
 30
0.0
 11
518.4822319186911
 21
218.7740166865813
 31
0.0
  0
LINE
  5
ABE
330
1F
100
AcDbEntity
  8
外形
  6
CENTER
 62
     1
 48
0.08
100
AcDbLine
 10
471.8550631288577
 20
228.7329386805466
 30
0.0
 11
471.8550631288577
 21
236.2466698173396
 31
0.0
  0
CIRCLE
  5
ABF
330
1F
100
AcDbEntity
  8
外形
100
AcDbCircle
 10
471.8550631288578
 20
232.4898042489432
 30
0.0
 40
3.0
  0
ARC
  5
AC0
330
1F
100
AcDbEntity
  8
外形
100
AcDbCircle
 10
471.8640787161047
 20
219.7453009148131
 30
0.0
 40
3.0
100
AcDbArc
 50
198.8905522342809
 51
341.1094477657191
  0
LINE
  5
AC1
330
1F
100
AcDbEntity
  8
外形
  6
CENTER
 62
     1
 48
0.08
100
AcDbLine
 10
475.6119286972543
 20
232.4898042489432
 30
0.0
 11
468.0981975604614
 21
232.4898042489432
 31
0.0
  0
CIRCLE
  5
AC4
330
1F
100
AcDbEntity
  8
外形
100
AcDbCircle
 10
510.9139960162731
 20
323.7740166865812
 30
0.0
 40
3.25
  0
LINE
  5
AC5
330
1F
100
AcDbEntity
  8
外形
  6
CENTER
 62
     1
 48
0.08
100
AcDbLine
 10
485.6716596932352
 20
319.0112165148411
 30
0.0
 11
478.1579285564422
 21
319.0112165148411
 31
0.0
  0
CIRCLE
  5
AC6
330
1F
100
AcDbEntity
  8
外形
100
AcDbCircle
 10
481.9147941248387
 20
319.0112165148411
 30
0.0
 40
3.0
  0
LINE
  5
AC7
330
1F
100
AcDbEntity
  8
外形
  6
CENTER
 62
     1
 48
0.08
100
AcDbLine
 10
481.9147941248386
 20
315.2543509464446
 30
0.0
 11
481.9147941248386
 21
322.7680820832377
 31
0.0
  0
ARC
  5
AC8
330
1F
100
AcDbEntity
  8
外形
100
AcDbCircle
 10
471.8640787161047
 20
337.8027324583495
 30
0.0
 40
3.0
100
AcDbArc
 50
18.8905522342809
 51
161.109447765719
  0
LINE
  5
ACA
330
1F
100
AcDbEntity
  8
外形
100
AcDbLine
 10
401.4906508754466
 20
334.1412561312472
 30
0.0
 11
485.4738129619356
 21
334.141256131247
 31
0.0
  0
LINE
  5
ACB
330
1F
100
AcDbEntity
  8
外形
100
AcDbLine
 10
401.4906508754466
 20
304.6074075909918
 30
0.0
 11
485.4738129619356
 21
304.6074075909919
 31
0.0
  0
LINE
  5
AD5
330
1F
100
AcDbEntity
  8
外形
  6
HIDDENX2
 48
0.08
100
AcDbLine
 10
410.0188867778649
 20
334.1412561312472
 30
0.0
 11
410.0188867778653
 21
304.6074075909919
 31
0.0
  0
LINE
  5
AD6
330
1F
100
AcDbEntity
  8
外形
  6
HIDDENX2
 48
0.08
100
AcDbLine
 10
409.0188867778651
 20
334.1412561312472
 30
0.0
 11
409.0188867778651
 21
304.6074075909918
 31
0.0
  0
LINE
  5
AD7
330
1F
100
AcDbEntity
  8
外形
100
AcDbLine
 10
409.0188867778651
 20
304.6074075909918
 30
0.0
 11
409.0188867778651
 21
218.7740166865813
 31
0.0
  0
LINE
  5
AD8
330
1F
100
AcDbEntity
  8
外形
100
AcDbLine
 10
410.018886777865
 20
304.6074075909918
 30
0.0
 11
410.018886777865
 21
218.7740166865813
 31
0.0
  0
LINE
  5
AD9
330
1F
100
AcDbEntity
  8
外形
  6
HIDDENX2
 48
0.08
100
AcDbLine
 10
476.945577059517
 20
334.141256131247
 30
0.0
 11
476.9455770595173
 21
304.6074075909919
 31
0.0
  0
LINE
  5
ADA
330
1F
100
AcDbEntity
  8
外形
  6
HIDDENX2
 48
0.08
100
AcDbLine
 10
477.9455770595173
 20
334.1412561312471
 30
0.0
 11
477.9455770595172
 21
304.6074075909919
 31
0.0
  0
LINE
  5
ADB
330
1F
100
AcDbEntity
  8
外形
100
AcDbLine
 10
476.9455770595171
 20
304.6074075909919
 30
0.0
 11
476.9455770595171
 21
218.7740166865813
 31
0.0
  0
LINE
  5
ADC
330
1F
100
AcDbEntity
  8
外形
100
AcDbLine
 10
477.9455770595173
 20
304.6074075909919
 30
0.0
 11
477.9455770595172
 21
218.7740166865813
 31
0.0
  0
LINE
  5
AF9
330
1F
100
AcDbEntity
  8
外形
100
AcDbLine
 10
647.1564309975279
 20
218.768773396557
 30
0.0
 11
714.8338065738782
 21
218.768773396557
 31
0.0
  0
LINE
  5
AFB
330
1F
100
AcDbEntity
  8
外形
100
AcDbLine
 10
647.1564309975279
 20
218.768773396557
 30
0.0
 11
647.1564309975279
 21
304.6074075909919
 31
0.0
  0
LINE
  5
AFC
330
1F
100
AcDbEntity
  8
外形
100
AcDbLine
 10
630.4115133291519
 20
334.1412561312471
 30
0.0
 11
731.5787242422542
 21
334.1412561312471
 31
0.0
  0
LINE
  5
AFE
330
1F
100
AcDbEntity
  8
外形
100
AcDbLine
 10
630.4115133291519
 20
334.141256131247
 30
0.0
 11
630.4115133291519
 21
338.7740166865812
 31
0.0
  0
LINE
  5
AFF
330
1F
100
AcDbEntity
  8
外形
100
AcDbLine
 10
625.182169203511
 20
338.7740166865812
 30
0.0
 11
736.808068367895
 21
338.7740166865813
 31
0.0
  0
LINE
  5
B00
330
1F
100
AcDbEntity
  8
外形
100
AcDbLine
 10
640.8770868718865
 20
304.6074075909919
 30
0.0
 11
721.1131506995196
 21
304.6074075909919
 31
0.0
  0
LINE
  5
B01
330
1F
100
AcDbEntity
  8
外形
100
AcDbLine
 10
640.8770868718865
 20
304.6074075909919
 30
0.0
 11
638.1844300116872
 21
334.1412561312471
 31
0.0
  0
LINE
  5
B02
330
1F
100
AcDbEntity
  8
外形
100
AcDbLine
 10
642.2724966775846
 20
304.6074075909919
 30
0.0
 11
642.2724966775846
 21
309.3653370259108
 31
0.0
  0
LINE
  5
B03
330
1F
100
AcDbEntity
  8
外形
100
AcDbLine
 10
642.2724966775846
 20
309.3653370259108
 30
0.0
 11
719.7177408938215
 21
309.3653370259108
 31
0.0
  0
ARC
  5
B04
330
1F
100
AcDbEntity
  8
外形
100
AcDbCircle
 10
648.1564571065005
 20
309.3653370259108
 30
0.0
 40
3.31264452882209
100
AcDbArc
 50
0.0
 51
180.0
  0
LINE
  5
B08
330
1F
100
AcDbEntity
  8
外形
100
AcDbLine
 10
654.1334800260175
 20
313.0949877354787
 30
0.0
 11
665.9944633744503
 21
313.0949877354787
 31
0.0
  0
LINE
  5
B09
330
1F
100
AcDbEntity
  8
外形
100
AcDbLine
 10
655.5288898317155
 20
313.0949877354787
 30
0.0
 11
655.5288898317155
 21
334.141256131247
 31
0.0
  0
LINE
  5
B0A
330
1F
100
AcDbEntity
  8
外形
100
AcDbLine
 10
666.3299066035091
 20
316.5835122497238
 30
0.0
 11
667.7619139503104
 21
316.5835122497238
 31
0.0
  0
LINE
  5
B0B
330
1F
100
AcDbEntity
  8
外形
100
AcDbLine
 10
666.3299066035091
 20
316.5835122497238
 30
0.0
 11
665.9944633744502
 21
313.0949877354787
 31
0.0
  0
LINE
  5
B0C
330
1F
100
AcDbEntity
  8
外形
100
AcDbLine
 10
667.7619139503102
 20
316.5835122497238
 30
0.0
 11
668.0973571793692
 21
313.0949877354787
 31
0.0
  0
LINE
  5
B0D
330
1F
100
AcDbEntity
  8
外形
100
AcDbLine
 10
678.5531516257316
 20
313.0949877354787
 30
0.0
 11
678.5531516257317
 21
334.141256131247
 31
0.0
  0
LINE
  5
B1D
330
1F
100
AcDbEntity
  8
外形
100
AcDbLine
 10
654.1334800260175
 20
313.0949877354787
 30
0.0
 11
654.1334800260178
 21
309.3653370259108
 31
0.0
  0
ARC
  5
B20
330
1F
100
AcDbEntity
  8
外形
100
AcDbCircle
 10
635.1804928006109
 20
338.4924512664921
 30
0.0
 40
3.101309475670404
100
AcDbArc
 50
5.209011059543245
 51
174.7909889404567
  0
ARC
  5
B21
330
1F
100
AcDbEntity
  8
外形
100
AcDbCircle
 10
660.5304174335671
 20
312.8134223153896
 30
0.0
 40
3.101309475670404
100
AcDbArc
 50
5.209011059543245
 51
174.7909889404567
  0
LINE
  5
B22
330
1F
100
AcDbEntity
  8
外形
100
AcDbLine
 10
668.0973571793692
 20
313.0949877354787
 30
0.0
 11
678.5531516257316
 21
313.0949877354787
 31
0.0
  0
ARC
  5
B23
330
1F
100
AcDbEntity
  8
外形
100
AcDbCircle
 10
673.5614031202523
 20
312.8134223153896
 30
0.0
 40
3.101309475670404
100
AcDbArc
 50
5.209011059543261
 51
174.7909889404567
  0
LINE
  5
B24
330
1F
100
AcDbEntity
  8
外形
100
AcDbLine
 10
659.0174143459599
 20
334.141256131247
 30
0.0
 11
659.0174143459599
 21
319.3743318611195
 31
0.0
  0
LINE
  5
B25
330
1F
100
AcDbEntity
  8
外形
100
AcDbLine
 10
659.0174143459599
 20
319.3743318611195
 30
0.0
 11
675.0212700100709
 21
319.3743318611195
 31
0.0
  0
LINE
  5
B26
330
1F
100
AcDbEntity
  8
外形
100
AcDbLine
 10
675.021270010071
 20
334.141256131247
 30
0.0
 11
675.0212700100709
 21
319.3743318611195
 31
0.0
  0
LINE
  5
B28
330
1F
100
AcDbEntity
  8
外形
100
AcDbLine
 10
659.8136242701912
 20
320.8743318611195
 30
0.0
 11
674.2937010544143
 21
320.8743318611195
 31
0.0
  0
ARC
  5
B2B
330
1F
100
AcDbEntity
  8
外形
100
AcDbCircle
 10
726.8097447707951
 20
338.4924512664921
 30
0.0
 40
3.101309475670404
100
AcDbArc
 50
5.209011059543261
 51
174.7909889404567
  0
LINE
  5
B2D
330
1F
100
AcDbEntity
  8
外形
100
AcDbLine
 10
721.1131506995196
 20
304.6074075909919
 30
0.0
 11
724.0665355535448
 21
334.141256131247
 31
0.0
  0
LINE
  5
B2E
330
1F
100
AcDbEntity
  8
外形
100
AcDbLine
 10
719.7177408938215
 20
304.6074075909919
 30
0.0
 11
719.7177408938216
 21
309.3653370259108
 31
0.0
  0
ARC
  5
B2F
330
1F
100
AcDbEntity
  8
外形
100
AcDbCircle
 10
713.8337804649056
 20
309.3653370259108
 30
0.0
 40
3.31264452882209
100
AcDbArc
 50
0.000000000000007
 51
180.0
  0
ELLIPSE
  5
B30
330
1F
100
AcDbEntity
  8
外形
100
AcDbEllipse
 10
694.9365749091033
 20
319.5984736054949
 30
0.0
 11
7.383158619015434
 21
0.0000000000000185
 31
0.0
210
0.0
220
0.0
230
-1.0
 40
0.8819231739723376
 41
3.107162766313277
 42
6.317615194456106
  0
LINE
  5
B31
330
1F
100
AcDbEntity
  8
外形
100
AcDbLine
 10
702.176613301215
 20
320.8743318611195
 30
0.0
 11
687.6965365169918
 21
320.8743318611195
 31
0.0
  0
LINE
  5
B32
330
1F
100
AcDbEntity
  8
外形
100
AcDbLine
 10
702.9728232254462
 20
319.3743318611195
 30
0.0
 11
686.9689675613352
 21
319.3743318611195
 31
0.0
  0
LINE
  5
B33
330
1F
100
AcDbEntity
  8
外形
100
AcDbLine
 10
695.660330967897
 20
316.5835122497238
 30
0.0
 11
694.2283236210958
 21
316.5835122497238
 31
0.0
  0
LINE
  5
B34
330
1F
100
AcDbEntity
  8
外形
100
AcDbLine
 10
702.9728232254462
 20
334.141256131247
 30
0.0
 11
702.9728232254462
 21
319.3743318611195
 31
0.0
  0
LINE
  5
B35
330
1F
100
AcDbEntity
  8
外形
100
AcDbLine
 10
706.4613477396906
 20
313.0949877354787
 30
0.0
 11
706.4613477396904
 21
334.141256131247
 31
0.0
  0
ARC
  5
B36
330
1F
100
AcDbEntity
  8
外形
100
AcDbCircle
 10
701.459820137839
 20
312.8134223153896
 30
0.0
 40
3.101309475670404
100
AcDbArc
 50
5.209011059543261
 51
174.7909889404567
  0
LINE
  5
B37
330
1F
100
AcDbEntity
  8
外形
100
AcDbLine
 10
707.8567575453886
 20
313.0949877354787
 30
0.0
 11
695.9957741969558
 21
313.0949877354787
 31
0.0
  0
LINE
  5
B38
330
1F
100
AcDbEntity
  8
外形
100
AcDbLine
 10
695.660330967897
 20
316.5835122497238
 30
0.0
 11
695.9957741969559
 21
313.0949877354787
 31
0.0
  0
LINE
  5
B39
330
1F
100
AcDbEntity
  8
外形
100
AcDbLine
 10
686.9689675613351
 20
334.141256131247
 30
0.0
 11
686.9689675613352
 21
319.3743318611195
 31
0.0
  0
LINE
  5
B3A
330
1F
100
AcDbEntity
  8
外形
100
AcDbLine
 10
683.4370859456745
 20
313.0949877354787
 30
0.0
 11
683.4370859456742
 21
334.141256131247
 31
0.0
  0
LINE
  5
B3F
330
1F
100
AcDbEntity
  8
外形
100
AcDbLine
 10
693.892880392037
 20
313.0949877354787
 30
0.0
 11
683.4370859456745
 21
313.0949877354787
 31
0.0
  0
ARC
  5
B40
330
1F
100
AcDbEntity
  8
外形
100
AcDbCircle
 10
688.4288344511539
 20
312.8134223153896
 30
0.0
 40
3.101309475670404
100
AcDbArc
 50
5.209011059543261
 51
174.7909889404567
  0
LINE
  5
B41
330
1F
100
AcDbEntity
  8
外形
100
AcDbLine
 10
694.2283236210958
 20
316.5835122497238
 30
0.0
 11
693.892880392037
 21
313.0949877354787
 31
0.0
  0
ELLIPSE
  5
B43
330
1F
100
AcDbEntity
  8
外形
100
AcDbEllipse
 10
667.0536626623028
 20
319.5984736054949
 30
0.0
 11
-7.383158619015434
 21
0.0000000000000185
 31
0.0
210
0.0
220
0.0
230
1.0
 40
0.8819231739723376
 41
3.107162766313277
 42
6.317615194456106
  0
LINE
  5
B45
330
1F
100
AcDbEntity
  8
外形
100
AcDbLine
 10
680.2974138828542
 20
317.2812171525726
 30
0.0
 11
681.6928236885518
 21
317.2812171525726
 31
0.0
  0
LINE
  5
B46
330
1F
100
AcDbEntity
  8
外形
100
AcDbLine
 10
680.2974138828542
 20
317.2812171525726
 30
0.0
 11
678.5531516257317
 21
313.0949877354787
 31
0.0
  0
LINE
  5
B47
330
1F
100
AcDbEntity
  8
外形
100
AcDbLine
 10
681.6928236885518
 20
317.2812171525726
 30
0.0
 11
683.4370859456745
 21
313.0949877354787
 31
0.0
  0
LINE
  5
B86
330
1F
100
AcDbEntity
  8
外形
100
AcDbLine
 10
625.182169203511
 20
338.7740166865812
 30
0.0
 11
625.1821692035113
 21
334.141256131247
 31
0.0
  0
LINE
  5
B87
330
1F
100
AcDbEntity
  8
外形
100
AcDbLine
 10
625.1821692035113
 20
334.141256131247
 30
0.0
 11
616.9232531764555
 21
334.141256131247
 31
0.0
  0
LINE
  5
B88
330
1F
100
AcDbEntity
  8
外形
100
AcDbLine
 10
612.7372515351355
 20
336.466727195344
 30
0.0
 11
612.7372515351358
 21
330.9015578523932
 31
0.0
  0
ARC
  5
B8B
330
1F
100
AcDbEntity
  8
外形
100
AcDbCircle
 10
614.8303662436825
 20
336.466727195344
 30
0.0
 40
2.093114708546863
100
AcDbArc
 50
0.0
 51
180.0
  0
LINE
  5
B8C
330
1F
100
AcDbEntity
  8
外形
100
AcDbLine
 10
616.9232531764552
 20
336.4358488896123
 30
0.0
 11
616.9232531764553
 21
334.141256131247
 31
0.0
  0
LINE
  5
B8E
330
1F
100
AcDbEntity
  8
外形
100
AcDbLine
 10
731.578724242254
 20
334.1412561312471
 30
0.0
 11
731.5787242422544
 21
338.7740166865813
 31
0.0
  0
LINE
  5
B8F
330
1F
100
AcDbEntity
  8
外形
100
AcDbLine
 10
613.2372515351358
 20
330.4015578523932
 30
0.0
 11
634.5977427462457
 21
330.4015578523932
 31
0.0
  0
LINE
  5
B90
330
1F
100
AcDbEntity
  8
外形
100
AcDbLine
 10
634.5977427462457
 20
330.4015578523932
 30
0.0
 11
634.5977427462457
 21
324.2225823294217
 31
0.0
  0
LINE
  5
B91
330
1F
100
AcDbEntity
  8
外形
100
AcDbLine
 10
612.7372515351359
 20
323.2316855566933
 30
0.0
 11
612.7372515351356
 21
321.71347910215
 31
0.0
  0
LINE
  5
B92
330
1F
100
AcDbEntity
  8
外形
100
AcDbLine
 10
634.5977427462457
 20
324.2225823294217
 30
0.0
 11
613.2280654531042
 21
323.7316011654683
 31
0.0
  0
LINE
  5
B94
330
1F
100
AcDbEntity
  8
外形
100
AcDbLine
 10
634.5977427462457
 20
320.7225823294217
 30
0.0
 11
613.228065453104
 21
321.2135634933749
 31
0.0
  0
LINE
  5
C12
330
1F
100
AcDbEntity
  8
外形
100
AcDbLine
 10
634.5977427462457
 20
310.7225823294217
 30
0.0
 11
613.228065453104
 21
311.2135634933749
 31
0.0
  0
LINE
  5
C13
330
1F
100
AcDbEntity
  8
外形
100
AcDbLine
 10
634.5977427462457
 20
314.2225823294217
 30
0.0
 11
613.2280654531042
 21
313.7316011654684
 31
0.0
  0
LINE
  5
C14
330
1F
100
AcDbEntity
  8
外形
100
AcDbLine
 10
612.7372515351359
 20
313.2316855566934
 30
0.0
 11
612.7372515351356
 21
311.71347910215
 31
0.0
  0
LINE
  5
C15
330
1F
100
AcDbEntity
  8
外形
100
AcDbLine
 10
634.5977427462457
 20
304.2225823294217
 30
0.0
 11
613.2280654531042
 21
303.7316011654684
 31
0.0
  0
LINE
  5
C16
330
1F
100
AcDbEntity
  8
外形
100
AcDbLine
 10
645.0633162889801
 20
300.530274637114
 30
0.0
 11
613.2280654531041
 21
301.2135634933749
 31
0.0
  0
LINE
  5
C17
330
1F
100
AcDbEntity
  8
外形
100
AcDbLine
 10
612.7372515351359
 20
303.2316855566934
 30
0.0
 11
612.7372515351358
 21
301.71347910215
 31
0.0
  0
LINE
  5
C18
330
1F
100
AcDbEntity
  8
外形
100
AcDbLine
 10
645.0633162889804
 20
290.5302746371141
 30
0.0
 11
613.2280654531041
 21
291.2135634933749
 31
0.0
  0
LINE
  5
C19
330
1F
100
AcDbEntity
  8
外形
100
AcDbLine
 10
645.0633162889803
 20
294.4148900217293
 30
0.0
 11
613.2280654531042
 21
293.7316011654684
 31
0.0
  0
LINE
  5
C1A
330
1F
100
AcDbEntity
  8
外形
100
AcDbLine
 10
612.7372515351359
 20
293.2316855566934
 30
0.0
 11
612.7372515351358
 21
291.71347910215
 31
0.0
  0
LINE
  5
C1B
330
1F
100
AcDbEntity
  8
外形
100
AcDbLine
 10
645.0633162889803
 20
284.4148900217294
 30
0.0
 11
613.2280654531041
 21
283.7316011654684
 31
0.0
  0
LINE
  5
C1C
330
1F
100
AcDbEntity
  8
外形
100
AcDbLine
 10
645.0633162889804
 20
280.5302746371141
 30
0.0
 11
613.2280654531038
 21
281.2135634933749
 31
0.0
  0
LINE
  5
C1D
330
1F
100
AcDbEntity
  8
外形
100
AcDbLine
 10
612.7372515351358
 20
283.2316855566934
 30
0.0
 11
612.7372515351355
 21
281.7134791021499
 31
0.0
  0
LINE
  5
C1E
330
1F
100
AcDbEntity
  8
外形
100
AcDbLine
 10
645.0633162889804
 20
270.5302746371141
 30
0.0
 11
613.2280654531038
 21
271.2135634933749
 31
0.0
  0
LINE
  5
C1F
330
1F
100
AcDbEntity
  8
外形
100
AcDbLine
 10
645.0633162889803
 20
274.4148900217294
 30
0.0
 11
613.2280654531041
 21
273.7316011654683
 31
0.0
  0
LINE
  5
C20
330
1F
100
AcDbEntity
  8
外形
100
AcDbLine
 10
612.7372515351358
 20
273.2316855566933
 30
0.0
 11
612.7372515351355
 21
271.71347910215
 31
0.0
  0
LINE
  5
C21
330
1F
100
AcDbEntity
  8
外形
100
AcDbLine
 10
645.0633162889803
 20
264.4148900217294
 30
0.0
 11
613.2280654531041
 21
263.7316011654683
 31
0.0
  0
LINE
  5
C22
330
1F
100
AcDbEntity
  8
外形
100
AcDbLine
 10
645.0633162889804
 20
260.5302746371141
 30
0.0
 11
613.2280654531038
 21
261.2135634933749
 31
0.0
  0
LINE
  5
C23
330
1F
100
AcDbEntity
  8
外形
100
AcDbLine
 10
612.7372515351358
 20
263.2316855566933
 30
0.0
 11
612.7372515351355
 21
261.71347910215
 31
0.0
  0
LINE
  5
C24
330
1F
100
AcDbEntity
  8
外形
100
AcDbLine
 10
645.0633162889804
 20
230.5302746371141
 30
0.0
 11
613.2280654531038
 21
231.2135634933749
 31
0.0
  0
LINE
  5
C25
330
1F
100
AcDbEntity
  8
外形
100
AcDbLine
 10
645.0633162889803
 20
234.4148900217294
 30
0.0
 11
613.2280654531041
 21
233.7316011654683
 31
0.0
  0
LINE
  5
C26
330
1F
100
AcDbEntity
  8
外形
100
AcDbLine
 10
645.0633162889803
 20
244.4148900217294
 30
0.0
 11
613.2280654531041
 21
243.7316011654684
 31
0.0
  0
LINE
  5
C27
330
1F
100
AcDbEntity
  8
外形
100
AcDbLine
 10
645.0633162889804
 20
240.530274637114
 30
0.0
 11
613.2280654531038
 21
241.2135634933748
 31
0.0
  0
LINE
  5
C28
330
1F
100
AcDbEntity
  8
外形
100
AcDbLine
 10
645.0633162889804
 20
250.5302746371141
 30
0.0
 11
613.2280654531041
 21
251.213563493375
 31
0.0
  0
LINE
  5
C29
330
1F
100
AcDbEntity
  8
外形
100
AcDbLine
 10
645.0633162889803
 20
254.4148900217294
 30
0.0
 11
613.2280654531042
 21
253.7316011654684
 31
0.0
  0
LINE
  5
C2A
330
1F
100
AcDbEntity
  8
外形
100
AcDbLine
 10
612.7372515351358
 20
233.2316855566934
 30
0.0
 11
612.7372515351355
 21
231.71347910215
 31
0.0
  0
LINE
  5
C2B
330
1F
100
AcDbEntity
  8
外形
100
AcDbLine
 10
612.7372515351358
 20
243.2316855566934
 30
0.0
 11
612.7372515351355
 21
241.7134791021499
 31
0.0
  0
LINE
  5
C2C
330
1F
100
AcDbEntity
  8
外形
100
AcDbLine
 10
612.7372515351359
 20
253.2316855566934
 30
0.0
 11
612.7372515351358
 21
251.7134791021501
 31
0.0
  0
LINE
  5
C2D
330
1F
100
AcDbEntity
  8
外形
100
AcDbLine
 10
645.0633162889801
 20
300.530274637114
 30
0.0
 11
645.0633162889801
 21
294.4148900217293
 31
0.0
  0
LINE
  5
C2E
330
1F
100
AcDbEntity
  8
外形
100
AcDbLine
 10
645.0633162889804
 20
225.7458224250466
 30
0.0
 11
605.9923338667605
 21
225.7458224250466
 31
0.0
  0
LINE
  5
C2F
330
1F
100
AcDbEntity
  8
外形
100
AcDbLine
 10
647.1564309975279
 20
221.5859214948527
 30
0.0
 11
614.5426334939901
 21
221.5859214948527
 31
0.0
  0
LINE
  5
C30
330
1F
100
AcDbEntity
  8
外形
100
AcDbLine
 10
605.9923338667605
 20
225.7458224250466
 30
0.0
 11
605.9923338667605
 21
218.768773396557
 31
0.0
  0
LINE
  5
C32
330
1F
100
AcDbEntity
  8
外形
100
AcDbLine
 10
613.3352843090062
 20
218.7687733965571
 30
0.0
 11
614.5426334939901
 21
221.5859214948527
 31
0.0
  0
LINE
  5
C33
330
1F
100
AcDbEntity
  8
外形
100
AcDbLine
 10
634.5977427462457
 20
310.7225823294217
 30
0.0
 11
634.5977427462457
 21
304.2225823294217
 31
0.0
  0
LINE
  5
C34
330
1F
100
AcDbEntity
  8
外形
100
AcDbLine
 10
634.5977427462456
 20
320.7225823294218
 30
0.0
 11
634.5977427462457
 21
314.2225823294217
 31
0.0
  0
LINE
  5
C35
330
1F
100
AcDbEntity
  8
外形
100
AcDbLine
 10
645.0633162889801
 20
290.5302746371141
 30
0.0
 11
645.0633162889801
 21
284.4148900217294
 31
0.0
  0
LINE
  5
C36
330
1F
100
AcDbEntity
  8
外形
100
AcDbLine
 10
645.0633162889801
 20
280.530274637114
 30
0.0
 11
645.0633162889801
 21
274.4148900217294
 31
0.0
  0
LINE
  5
C37
330
1F
100
AcDbEntity
  8
外形
100
AcDbLine
 10
645.0633162889801
 20
270.530274637114
 30
0.0
 11
645.0633162889801
 21
264.4148900217294
 31
0.0
  0
LINE
  5
C38
330
1F
100
AcDbEntity
  8
外形
100
AcDbLine
 10
645.0633162889801
 20
260.530274637114
 30
0.0
 11
645.0633162889803
 21
254.4148900217293
 31
0.0
  0
LINE
  5
C39
330
1F
100
AcDbEntity
  8
外形
100
AcDbLine
 10
645.0633162889804
 20
250.5302746371141
 30
0.0
 11
645.0633162889804
 21
244.4148900217294
 31
0.0
  0
LINE
  5
C3A
330
1F
100
AcDbEntity
  8
外形
100
AcDbLine
 10
645.0633162889805
 20
230.5302746371141
 30
0.0
 11
645.0633162889804
 21
225.7458224250466
 31
0.0
  0
LINE
  5
C3B
330
1F
100
AcDbEntity
  8
外形
100
AcDbLine
 10
645.0633162889804
 20
240.530274637114
 30
0.0
 11
645.0633162889804
 21
234.4148900217294
 31
0.0
  0
LINE
  5
C3D
330
1F
100
AcDbEntity
  8
外形
  6
CENTER
 62
     1
 48
0.08
100
AcDbLine
 10
651.916056907232
 20
228.7329386805466
 30
0.0
 11
651.916056907232
 21
236.2466698173396
 31
0.0
  0
CIRCLE
  5
C3E
330
1F
100
AcDbEntity
  8
外形
100
AcDbCircle
 10
651.9160569072319
 20
232.4898042489432
 30
0.0
 40
3.0
  0
LINE
  5
C3F
330
1F
100
AcDbEntity
  8
外形
  6
CENTER
 62
     1
 48
0.08
100
AcDbLine
 10
648.1591913388354
 20
232.4898042489432
 30
0.0
 11
655.6729224756284
 21
232.4898042489432
 31
0.0
  0
LINE
  5
C41
330
1F
100
AcDbEntity
  8
外形
  6
CENTER
 62
     1
 48
0.08
100
AcDbLine
 10
651.916056907232
 20
300.9602154962664
 30
0.0
 11
651.916056907232
 21
293.4464843594734
 31
0.0
  0
CIRCLE
  5
C42
330
1F
100
AcDbEntity
  8
外形
100
AcDbCircle
 10
651.9160569072319
 20
297.2033499278698
 30
0.0
 40
3.0
  0
LINE
  5
C43
330
1F
100
AcDbEntity
  8
外形
  6
CENTER
 62
     1
 48
0.08
100
AcDbLine
 10
648.1591913388354
 20
297.2033499278698
 30
0.0
 11
655.6729224756284
 21
297.2033499278698
 31
0.0
  0
LINE
  5
C44
330
1F
100
AcDbEntity
  8
外形
100
AcDbLine
 10
716.9269212824258
 20
254.4148900217294
 30
0.0
 11
748.762172118302
 21
253.7316011654684
 31
0.0
  0
LINE
  5
C45
330
1F
100
AcDbEntity
  8
外形
100
AcDbLine
 10
716.9269212824257
 20
250.5302746371141
 30
0.0
 11
748.762172118302
 21
251.2135634933749
 31
0.0
  0
LINE
  5
C46
330
1F
100
AcDbEntity
  8
外形
100
AcDbLine
 10
749.2529860362704
 20
233.2316855566935
 30
0.0
 11
749.2529860362706
 21
231.71347910215
 31
0.0
  0
LINE
  5
C47
330
1F
100
AcDbEntity
  8
外形
100
AcDbLine
 10
748.6549532624002
 20
218.7687733965571
 30
0.0
 11
747.447604077416
 21
221.5859214948527
 31
0.0
  0
LINE
  5
C48
330
1F
100
AcDbEntity
  8
外形
100
AcDbLine
 10
755.9979037046456
 20
225.7458224250466
 30
0.0
 11
755.9979037046456
 21
218.7687733965571
 31
0.0
  0
LINE
  5
C4A
330
1F
100
AcDbEntity
  8
外形
100
AcDbLine
 10
749.2529860362703
 20
243.2316855566934
 30
0.0
 11
749.2529860362703
 21
241.71347910215
 31
0.0
  0
LINE
  5
C4B
330
1F
100
AcDbEntity
  8
外形
100
AcDbLine
 10
749.2529860362703
 20
253.2316855566934
 30
0.0
 11
749.2529860362703
 21
251.71347910215
 31
0.0
  0
LINE
  5
C4C
330
1F
100
AcDbEntity
  8
外形
100
AcDbLine
 10
716.9269212824258
 20
294.4148900217293
 30
0.0
 11
748.762172118302
 21
293.7316011654684
 31
0.0
  0
LINE
  5
C4D
330
1F
100
AcDbEntity
  8
外形
100
AcDbLine
 10
716.9269212824257
 20
290.5302746371141
 30
0.0
 11
748.7621721183021
 21
291.2135634933749
 31
0.0
  0
LINE
  5
C4E
330
1F
100
AcDbEntity
  8
外形
100
AcDbLine
 10
716.9269212824258
 20
284.4148900217294
 30
0.0
 11
748.762172118302
 21
283.7316011654684
 31
0.0
  0
LINE
  5
C4F
330
1F
100
AcDbEntity
  8
外形
100
AcDbLine
 10
716.9269212824257
 20
280.5302746371141
 30
0.0
 11
748.7621721183021
 21
281.2135634933749
 31
0.0
  0
LINE
  5
C50
330
1F
100
AcDbEntity
  8
外形
100
AcDbLine
 10
716.9269212824258
 20
274.4148900217294
 30
0.0
 11
748.762172118302
 21
273.7316011654684
 31
0.0
  0
LINE
  5
C51
330
1F
100
AcDbEntity
  8
外形
100
AcDbLine
 10
716.9269212824257
 20
270.5302746371141
 30
0.0
 11
748.762172118302
 21
271.2135634933749
 31
0.0
  0
LINE
  5
C52
330
1F
100
AcDbEntity
  8
外形
100
AcDbLine
 10
716.9269212824258
 20
264.4148900217294
 30
0.0
 11
748.762172118302
 21
263.7316011654684
 31
0.0
  0
LINE
  5
C53
330
1F
100
AcDbEntity
  8
外形
100
AcDbLine
 10
716.9269212824257
 20
260.5302746371141
 30
0.0
 11
748.7621721183021
 21
261.2135634933749
 31
0.0
  0
LINE
  5
C54
330
1F
100
AcDbEntity
  8
外形
100
AcDbLine
 10
727.3924948251604
 20
304.2225823294217
 30
0.0
 11
748.7621721183018
 21
303.7316011654684
 31
0.0
  0
LINE
  5
C55
330
1F
100
AcDbEntity
  8
外形
100
AcDbLine
 10
716.9269212824261
 20
300.530274637114
 30
0.0
 11
748.7621721183021
 21
301.2135634933749
 31
0.0
  0
LINE
  5
C56
330
1F
100
AcDbEntity
  8
外形
100
AcDbLine
 10
749.2529860362703
 20
283.2316855566934
 30
0.0
 11
749.2529860362704
 21
281.7134791021499
 31
0.0
  0
LINE
  5
C57
330
1F
100
AcDbEntity
  8
外形
100
AcDbLine
 10
749.2529860362703
 20
263.2316855566934
 30
0.0
 11
749.2529860362704
 21
261.7134791021499
 31
0.0
  0
LINE
  5
C58
330
1F
100
AcDbEntity
  8
外形
100
AcDbLine
 10
749.2529860362703
 20
273.2316855566934
 30
0.0
 11
749.2529860362703
 21
271.7134791021499
 31
0.0
  0
LINE
  5
C59
330
1F
100
AcDbEntity
  8
外形
100
AcDbLine
 10
749.2529860362703
 20
293.2316855566934
 30
0.0
 11
749.2529860362704
 21
291.7134791021499
 31
0.0
  0
LINE
  5
C5A
330
1F
100
AcDbEntity
  8
外形
100
AcDbLine
 10
749.2529860362703
 20
303.2316855566934
 30
0.0
 11
749.2529860362704
 21
301.71347910215
 31
0.0
  0
LINE
  5
C5B
330
1F
100
AcDbEntity
  8
外形
100
AcDbLine
 10
727.3924948251604
 20
324.2225823294217
 30
0.0
 11
748.7621721183018
 21
323.7316011654683
 31
0.0
  0
LINE
  5
C5C
330
1F
100
AcDbEntity
  8
外形
100
AcDbLine
 10
727.3924948251604
 20
320.7225823294217
 30
0.0
 11
748.7621721183021
 21
321.2135634933749
 31
0.0
  0
LINE
  5
C5D
330
1F
100
AcDbEntity
  8
外形
100
AcDbLine
 10
727.3924948251604
 20
310.7225823294217
 30
0.0
 11
748.7621721183021
 21
311.2135634933749
 31
0.0
  0
LINE
  5
C5E
330
1F
100
AcDbEntity
  8
外形
100
AcDbLine
 10
727.3924948251604
 20
314.2225823294217
 30
0.0
 11
748.7621721183018
 21
313.7316011654684
 31
0.0
  0
LINE
  5
C5F
330
1F
100
AcDbEntity
  8
外形
100
AcDbLine
 10
748.7529860362704
 20
330.4015578523932
 30
0.0
 11
727.3924948251604
 21
330.4015578523932
 31
0.0
  0
LINE
  5
C60
330
1F
100
AcDbEntity
  8
外形
100
AcDbLine
 10
749.2529860362707
 20
336.466727195344
 30
0.0
 11
749.2529860362703
 21
330.9015578523931
 31
0.0
  0
LINE
  5
C61
330
1F
100
AcDbEntity
  8
外形
100
AcDbLine
 10
749.2529860362703
 20
313.2316855566934
 30
0.0
 11
749.2529860362704
 21
311.71347910215
 31
0.0
  0
LINE
  5
C62
330
1F
100
AcDbEntity
  8
外形
100
AcDbLine
 10
749.2529860362703
 20
323.2316855566933
 30
0.0
 11
749.2529860362704
 21
321.71347910215
 31
0.0
  0
LINE
  5
C63
330
1F
100
AcDbEntity
  8
外形
100
AcDbLine
 10
714.8338065738782
 20
221.5859214948527
 30
0.0
 11
747.447604077416
 21
221.5859214948527
 31
0.0
  0
LINE
  5
C64
330
1F
100
AcDbEntity
  8
外形
100
AcDbLine
 10
716.9269212824258
 20
244.4148900217294
 30
0.0
 11
748.7621721183018
 21
243.7316011654685
 31
0.0
  0
LINE
  5
C65
330
1F
100
AcDbEntity
  8
外形
100
AcDbLine
 10
716.9269212824257
 20
240.530274637114
 30
0.0
 11
748.762172118302
 21
241.2135634933749
 31
0.0
  0
LINE
  5
C66
330
1F
100
AcDbEntity
  8
外形
100
AcDbLine
 10
716.9269212824258
 20
234.4148900217294
 30
0.0
 11
748.7621721183021
 21
233.7316011654684
 31
0.0
  0
LINE
  5
C67
330
1F
100
AcDbEntity
  8
外形
100
AcDbLine
 10
716.9269212824257
 20
230.5302746371141
 30
0.0
 11
748.7621721183022
 21
231.2135634933749
 31
0.0
  0
LINE
  5
C68
330
1F
100
AcDbEntity
  8
外形
100
AcDbLine
 10
716.9269212824257
 20
225.7458224250466
 30
0.0
 11
755.9979037046456
 21
225.7458224250466
 31
0.0
  0
ARC
  5
C69
330
1F
100
AcDbEntity
  8
外形
100
AcDbCircle
 10
747.1598713277236
 20
336.466727195344
 30
0.0
 40
2.093114708546863
100
AcDbArc
 50
0.000000000000007
 51
180.0
  0
LINE
  5
C6A
330
1F
100
AcDbEntity
  8
外形
100
AcDbLine
 10
736.808068367895
 20
335.2854921723364
 30
0.0
 11
745.0669843949509
 21
335.2854921723364
 31
0.0
  0
LINE
  5
C6B
330
1F
100
AcDbEntity
  8
外形
100
AcDbLine
 10
745.0669843949509
 20
336.4358488896123
 30
0.0
 11
745.0669843949509
 21
335.2854921723364
 31
0.0
  0
LINE
  5
C6C
330
1F
100
AcDbEntity
  8
外形
100
AcDbLine
 10
736.808068367895
 20
338.7740166865813
 30
0.0
 11
736.8080683678948
 21
335.2854921723365
 31
0.0
  0
LINE
  5
C6D
330
1F
100
AcDbEntity
  8
外形
100
AcDbLine
 10
727.3924948251605
 20
320.7225823294218
 30
0.0
 11
727.3924948251604
 21
314.2225823294217
 31
0.0
  0
LINE
  5
C6E
330
1F
100
AcDbEntity
  8
外形
100
AcDbLine
 10
727.3924948251604
 20
330.4015578523932
 30
0.0
 11
727.3924948251604
 21
324.2225823294217
 31
0.0
  0
LINE
  5
C6F
330
1F
100
AcDbEntity
  8
外形
100
AcDbLine
 10
716.9269212824259
 20
260.530274637114
 30
0.0
 11
716.9269212824258
 21
254.4148900217293
 31
0.0
  0
LINE
  5
C70
330
1F
100
AcDbEntity
  8
外形
  6
CENTER
 62
     1
 48
0.08
100
AcDbLine
 10
710.0741806641742
 20
228.7329386805466
 30
0.0
 11
710.0741806641742
 21
236.2466698173396
 31
0.0
  0
CIRCLE
  5
C71
330
1F
100
AcDbEntity
  8
外形
100
AcDbCircle
 10
710.0741806641742
 20
232.4898042489432
 30
0.0
 40
3.0
  0
LINE
  5
C72
330
1F
100
AcDbEntity
  8
外形
100
AcDbLine
 10
716.9269212824255
 20
230.5302746371141
 30
0.0
 11
716.9269212824257
 21
225.7458224250466
 31
0.0
  0
LINE
  5
C73
330
1F
100
AcDbEntity
  8
外形
100
AcDbLine
 10
716.9269212824257
 20
250.5302746371141
 30
0.0
 11
716.9269212824257
 21
244.4148900217294
 31
0.0
  0
LINE
  5
C74
330
1F
100
AcDbEntity
  8
外形
100
AcDbLine
 10
716.9269212824257
 20
240.530274637114
 30
0.0
 11
716.9269212824257
 21
234.4148900217294
 31
0.0
  0
LINE
  5
C75
330
1F
100
AcDbEntity
  8
外形
  6
CENTER
 62
     1
 48
0.08
100
AcDbLine
 10
713.8310462325708
 20
232.4898042489432
 30
0.0
 11
706.3173150957777
 21
232.4898042489432
 31
0.0
  0
LINE
  5
C76
330
1F
100
AcDbEntity
  8
外形
100
AcDbLine
 10
716.9269212824261
 20
270.530274637114
 30
0.0
 11
716.9269212824261
 21
264.4148900217294
 31
0.0
  0
LINE
  5
C77
330
1F
100
AcDbEntity
  8
外形
100
AcDbLine
 10
716.9269212824259
 20
280.530274637114
 30
0.0
 11
716.9269212824259
 21
274.4148900217294
 31
0.0
  0
LINE
  5
C78
330
1F
100
AcDbEntity
  8
外形
100
AcDbLine
 10
716.9269212824259
 20
290.5302746371141
 30
0.0
 11
716.9269212824259
 21
284.4148900217294
 31
0.0
  0
LINE
  5
C79
330
1F
100
AcDbEntity
  8
外形
100
AcDbLine
 10
716.9269212824261
 20
300.530274637114
 30
0.0
 11
716.9269212824259
 21
294.4148900217293
 31
0.0
  0
LINE
  5
C7A
330
1F
100
AcDbEntity
  8
外形
  6
CENTER
 62
     1
 48
0.08
100
AcDbLine
 10
710.0741806641742
 20
300.9602154962664
 30
0.0
 11
710.0741806641742
 21
293.4464843594734
 31
0.0
  0
CIRCLE
  5
C7B
330
1F
100
AcDbEntity
  8
外形
100
AcDbCircle
 10
710.0741806641742
 20
297.2033499278698
 30
0.0
 40
3.0
  0
LINE
  5
C7C
330
1F
100
AcDbEntity
  8
外形
  6
CENTER
 62
     1
 48
0.08
100
AcDbLine
 10
713.8310462325708
 20
297.2033499278698
 30
0.0
 11
706.3173150957777
 21
297.2033499278698
 31
0.0
  0
LINE
  5
C7D
330
1F
100
AcDbEntity
  8
外形
100
AcDbLine
 10
727.3924948251604
 20
310.7225823294217
 30
0.0
 11
727.3924948251604
 21
304.2225823294217
 31
0.0
  0
LINE
  5
C7E
330
1F
100
AcDbEntity
  8
外形
100
AcDbLine
 10
707.8567575453886
 20
313.0949877354787
 30
0.0
 11
707.8567575453888
 21
309.3653370259108
 31
0.0
  0
LINE
  5
C7F
330
1F
100
AcDbEntity
  8
外形
100
AcDbLine
 10
714.8338065738782
 20
218.768773396557
 30
0.0
 11
714.8338065738783
 21
304.6074075909919
 31
0.0
  0
DIMENSION
  5
C80
330
1F
100
AcDbEntity
  8
寸法
 62
     5
100
AcDbDimension
  2
*D0
 10
786.9979037046456
 20
338.7687733965571
 30
0.0
 11
783.1479037046455
 21
278.7687733965572
 31
0.0
 70
    32
 71
     5
 42
119.9999999999999
  3
ISO-25
100
AcDbAlignedDimension
 13
755.9979037046456
 23
218.7687733965571
 33
0.0
 14
747.1256386029914
 24
338.7687733965571
 34
0.0
 50
90.0
100
AcDbRotatedDimension
  0
LINE
  5
CA8
330
1F
100
AcDbEntity
  8
外形
100
AcDbLine
 10
613.3352843090059
 20
218.768773396557
 30
0.0
 11
605.9923338667605
 21
218.768773396557
 31
0.0
  0
LINE
  5
CA9
330
1F
100
AcDbEntity
  8
外形
100
AcDbLine
 10
748.6549532624002
 20
218.7687733965571
 30
0.0
 11
755.9979037046456
 21
218.7687733965571
 31
0.0
  0
DIMENSION
  5
CFC
330
1F
100
AcDbEntity
  8
寸法
 62
     5
100
AcDbDimension
  2
*D1
 10
539.4560806323014
 20
323.7740166865812
 30
0.0
 11
535.6060806323013
 21
278.7740166865813
 31
0.0
 70
    32
 71
     5
 42
89.99999999999994
  3
ISO-25
100
AcDbAlignedDimension
 13
516.1639960162729
 23
233.7740166865813
 33
0.0
 14
516.1639960162731
 24
323.7740166865812
 34
0.0
 50
90.0
100
AcDbRotatedDimension
  0
DIMENSION
  5
D4C
330
1F
100
AcDbEntity
  8
寸法
 62
     5
100
AcDbDimension
  2
*D2
 10
560.4560806323013
 20
338.7740166865813
 30
0.0
 11
556.6060806323012
 21
278.7740166865813
 31
0.0
 70
    32
 71
     5
 42
120.0
  3
ISO-25
100
AcDbAlignedDimension
 13
518.4822319186911
 23
218.7740166865813
 33
0.0
 14
518.4822319186911
 24
338.7740166865813
 34
0.0
 50
90.0
100
AcDbRotatedDimension
  0
DIMENSION
  5
D74
330
1F
100
AcDbEntity
  8
寸法
 62
     5
100
AcDbDimension
  2
*D3
 10
510.913996016273
 20
197.7740166865813
 30
0.0
 11
443.432231918691
 21
201.6240166865812
 31
0.0
 70
    32
 71
     5
 42
134.9635281951639
  3
ISO-25
100
AcDbAlignedDimension
 13
375.950467821109
 23
228.5240166865813
 33
0.0
 14
510.913996016273
 24
228.5240166865813
 34
0.0
100
AcDbRotatedDimension
  0
DIMENSION
  5
DD2
330
1F
100
AcDbEntity
  8
寸法
 62
     5
100
AcDbDimension
  2
*D4
 10
518.4822319186911
 20
176.7740166865813
 30
0.0
 11
443.4822319186911
 21
180.6240166865813
 31
0.0
 70
    32
 71
     5
 42
150.0
  3
ISO-25
100
AcDbAlignedDimension
 13
368.4822319186911
 23
218.7740166865813
 33
0.0
 14
518.4822319186911
 24
218.7740166865813
 34
0.0
100
AcDbRotatedDimension
1001
ACAD
1000
DSTYLE
1002
{
1070
   140
1040
0.7
1002
}
  0
MTEXT
  5
E08
330
1F
100
AcDbEntity
  8
寸法
 62
     5
100
AcDbMText
 10
510.9246659411728
 20
350.5031963407569
 30
0.0
 40
4.9
 41
0.0
 71
     8
 72
     1
  1
{\fMS UI Gothic|b0|i0|c128|p17;2xM5ネジ端子}
 73
     2
 44
1.0
  0
MTEXT
  5
E09
330
1F
100
AcDbEntity
  8
外形
100
AcDbMText
 10
433.0173227747951
 20
344.2486908473281
 30
0.0
 40
4.9
 41
1.0
 71
     5
 72
     5
  1
{\fＭＳ ゴシック|b0|i0|c128|p49;1}
 73
     1
 44
1.0
1001
ACAD
1000
MTEXTBEGIN
1070
    73
1070
     1
1070
    44
1040
1.0
1070
    74
1070
     0
1000
MTEXTEND
  0
LEADER
  5
E0D
330
1F
100
AcDbEntity
  8
寸法
 62
     5
100
AcDbLeader
  3
ISO-25
 76
     3
 10
460.5051438407762
 20
319.3011738213086
 30
0.0
 10
487.2308443328311
 20
350.5031963407569
 30
0.0
 10
533.6668562557941
 20
350.5031963407569
 30
0.0
1001
ACAD
1000
DSTYLE
1002
{
1070
   140
1040
2.0
1002
}
  0
LEADER
  5
E0E
330
1F
100
AcDbEntity
  8
寸法
 62
     5
100
AcDbLeader
  3
ISO-25
 76
     3
 10
513.2285115768293
 20
231.3952731459586
 30
0.0
 10
538.0499963096793
 20
205.717381275113
 30
0.0
 10
567.6239107001372
 20
205.717381275113
 30
0.0
1001
ACAD
1000
DSTYLE
1002
{
1070
   140
1040
2.0
1002
}
  0
MTEXT
  5
E0F
330
1F
100
AcDbEntity
  8
寸法
 62
     5
100
AcDbMText
 10
552.9341764102314
 20
205.9713158021318
 30
0.0
 40
4.9
 41
0.0
 71
     8
 72
     1
  1
{\fMS UI Gothic|b0|i0|c128|p17;4-φ6.5}
 73
     2
 44
1.0
  0
LEADER
  5
E10
330
1F
100
AcDbEntity
  8
寸法
 62
     5
100
AcDbLeader
  3
ISO-25
 76
     3
 10
456.5160163167672
 20
232.4808668787381
 30
0.0
 10
501.6613790409244
 20
156.4655938537721
 30
0.0
 10
549.0632223351649
 20
156.4655938537721
 30
0.0
1001
ACAD
1000
DSTYLE
1002
{
1070
   140
1040
2.0
1002
}
  0
MTEXT
  5
E11
330
1F
100
AcDbEntity
  8
寸法
 62
     5
100
AcDbMText
 10
525.7386913283523
 20
156.7195283807909
 30
0.0
 40
4.9
 41
0.0
 71
     8
 72
     1
  1
{\fMS UI Gothic|b0|i0|c128|p17;2xM3ネジ端子}
 73
     2
 44
1.0
  0
MTEXT
  5
E16
330
1F
100
AcDbEntity
  8
外形
100
AcDbMText
 10
853.6827276046448
 20
233.012186334149
 30
0.0
 40
4.9
 41
0.0
 71
     8
 72
     1
  1
{\fMS UI Gothic|b0|i0|c128|p17;M3端子     0.8N・ｍ（ＭＡＸ）}
 73
     2
 44
1.0
  0
CIRCLE
  5
E17
102
{ACAD_REACTORS
330
E30
102
}
330
1F
100
AcDbEntity
  8
外形
100
AcDbCircle
 10
658.8857523681113
 20
298.0820098812035
 30
0.0
 40
2.0
  0
CIRCLE
  5
E20
102
{ACAD_REACTORS
330
E30
102
}
330
1F
100
AcDbEntity
  8
外形
100
AcDbCircle
 10
665.8857523681112
 20
298.0820098812035
 30
0.0
 40
2.0
  0
ARC
  5
E21
102
{ACAD_REACTORS
330
E30
102
}
330
1F
100
AcDbEntity
  8
外形
100
AcDbCircle
 10
679.8857523681113
 20
298.0820098812035
 30
0.0
 40
2.0
100
AcDbArc
 50
45.00000000000345
 51
224.9999999999953
  0
CIRCLE
  5
E22
102
{ACAD_REACTORS
330
E30
102
}
330
1F
100
AcDbEntity
  8
外形
100
AcDbCircle
 10
672.8857523681113
 20
298.0820098812035
 30
0.0
 40
2.0
  0
ARC
  5
E23
102
{ACAD_REACTORS
330
E30
102
}
330
1F
100
AcDbEntity
  8
外形
100
AcDbCircle
 10
672.8857523681113
 20
291.0820098812036
 30
0.0
 40
2.0
100
AcDbArc
 50
45.0
 51
225.0
  0
CIRCLE
  5
E24
102
{ACAD_REACTORS
330
E30
102
}
330
1F
100
AcDbEntity
  8
外形
100
AcDbCircle
 10
665.8857523681112
 20
291.0820098812036
 30
0.0
 40
2.0
  0
CIRCLE
  5
E25
102
{ACAD_REACTORS
330
E30
102
}
330
1F
100
AcDbEntity
  8
外形
100
AcDbCircle
 10
658.8857523681113
 20
291.0820098812036
 30
0.0
 40
2.0
  0
ARC
  5
E29
102
{ACAD_REACTORS
330
E30
102
}
330
1F
100
AcDbEntity
  8
外形
100
AcDbCircle
 10
658.8857523681113
 20
277.0820098812035
 30
0.0
 40
2.0
100
AcDbArc
 50
45.0
 51
224.9999999999988
  0
ARC
  5
E2B
102
{ACAD_REACTORS
330
E30
102
}
330
1F
100
AcDbEntity
  8
外形
100
AcDbCircle
 10
665.8857523681112
 20
284.0820098812035
 30
0.0
 40
2.0
100
AcDbArc
 50
45.0
 51
225.0
  0
CIRCLE
  5
E2C
102
{ACAD_REACTORS
330
E30
102
}
330
1F
100
AcDbEntity
  8
外形
100
AcDbCircle
 10
658.8857523681113
 20
284.0820098812035
 30
0.0
 40
2.0
  0
MTEXT
  5
E32
330
1F
100
AcDbEntity
  8
外形
100
AcDbMText
 10
830.8786361331932
 20
241.3628957406456
 30
0.0
 40
4.9
 41
0.0
 71
     8
 72
     1
  1
{\fMS UI Gothic|b0|i0|c128|p17;\U+203B締付トルク}
 73
     2
 44
1.0
  0
MTEXT
  5
E34
330
1F
100
AcDbEntity
  8
外形
100
AcDbMText
 10
853.6827276046448
 20
224.7429704283834
 30
0.0
 40
4.9
 41
0.0
 71
     8
 72
     1
  1
{\fMS UI Gothic|b0|i0|c128|p17;M5端子     2.0N・ｍ（ＭＡＸ）}
 73
     2
 44
1.0
  0
MTEXT
  5
E68
330
1F
100
AcDbEntity
  8
外形
100
AcDbMText
 10
409.5529428083909
 20
392.8919611377594
 30
0.0
 40
17.5
 41
115.8138488404033
 71
     5
 72
     5
  1
{\fMS UI Gothic|b0|i0|c128|p17;外形寸法}
 73
     1
 44
1.0
1001
ACAD
1000
MTEXTBEGIN
1070
    73
1070
     1
1070
    44
1040
1.0
1070
    74
1070
     0
1000
MTEXTEND
  0
CIRCLE
  5
E76
330
1F
100
AcDbEntity
  8
外形
100
AcDbCircle
 10
433.0173227747951
 20
344.2486908473281
 30
0.0
 40
3.243289889376683
  0
CIRCLE
  5
E77
330
1F
100
AcDbEntity
  8
外形
100
AcDbCircle
 10
452.695396548616
 20
344.2486908473281
 30
0.0
 40
3.243289889376683
  0
MTEXT
  5
E78
330
1F
100
AcDbEntity
  8
外形
100
AcDbMText
 10
452.695396548616
 20
344.2486908473281
 30
0.0
 40
4.9
 41
1.0
 71
     5
 72
     5
  1
{\fＭＳ ゴシック|b0|i0|c128|p49;2}
 73
     1
 44
1.0
1001
ACAD
1000
MTEXTBEGIN
1070
    73
1070
     1
1070
    44
1040
1.0
1070
    74
1070
     0
1000
MTEXTEND
  0
CIRCLE
  5
E7D
330
1F
100
AcDbEntity
  8
外形
100
AcDbCircle
 10
433.0173227747951
 20
213.8782487503387
 30
0.0
 40
3.243289889376683
  0
MTEXT
  5
E7E
330
1F
100
AcDbEntity
  8
外形
100
AcDbMText
 10
452.695396548616
 20
213.8782487503387
 30
0.0
 40
4.9
 41
1.0
 71
     5
 72
     5
  1
{\fＭＳ ゴシック|b0|i0|c128|p49;3}
 73
     1
 44
1.0
1001
ACAD
1000
MTEXTBEGIN
1070
    73
1070
     1
1070
    44
1040
1.0
1070
    74
1070
     0
1000
MTEXTEND
  0
CIRCLE
  5
E7F
330
1F
100
AcDbEntity
  8
外形
100
AcDbCircle
 10
452.695396548616
 20
213.8782487503387
 30
0.0
 40
3.243289889376683
  0
MTEXT
  5
E80
330
1F
100
AcDbEntity
  8
外形
100
AcDbMText
 10
433.0173227747951
 20
213.8782487503387
 30
0.0
 40
4.9
 41
1.0
 71
     5
 72
     5
  1
{\fＭＳ ゴシック|b0|i0|c128|p49;4}
 73
     1
 44
1.0
1001
ACAD
1000
MTEXTBEGIN
1070
    73
1070
     1
1070
    44
1040
1.0
1070
    74
1070
     0
1000
MTEXTEND
  0
LINE
  5
F39
330
1F
100
AcDbEntity
  8
外形
  6
CENTER
 62
     1
 48
0.08
100
AcDbLine
 10
370.7004678211089
 20
233.7740166865814
 30
0.0
 11
381.2004678211089
 21
233.7740166865813
 31
0.0
  0
LINE
  5
F3A
330
1F
100
AcDbEntity
  8
外形
  6
CENTER
 62
     1
 48
0.08
100
AcDbLine
 10
375.950467821109
 20
228.5240166865813
 30
0.0
 11
375.9504678211091
 21
239.0240166865813
 31
0.0
  0
CIRCLE
  5
FA7
330
1F
100
AcDbEntity
  8
外形
100
AcDbCircle
 10
510.913996016273
 20
233.7740166865813
 30
0.0
 40
3.25
  0
LINE
  5
FD5
330
1F
100
AcDbEntity
  8
外形
  6
CENTER
 62
     1
 48
0.08
100
AcDbLine
 10
510.913996016273
 20
228.5240166865813
 30
0.0
 11
510.913996016273
 21
239.0240166865813
 31
0.0
  0
LINE
  5
FD6
330
1F
100
AcDbEntity
  8
外形
  6
CENTER
 62
     1
 48
0.08
100
AcDbLine
 10
505.6639960162729
 20
233.7740166865813
 30
0.0
 11
516.1639960162729
 21
233.7740166865813
 31
0.0
  0
LINE
  5
FE9
330
1F
100
AcDbEntity
  8
外形
  6
CENTER
 62
     1
 48
0.08
100
AcDbLine
 10
510.913996016273
 20
318.5240166865812
 30
0.0
 11
510.9139960162731
 21
329.0240166865812
 31
0.0
  0
LINE
  5
FEA
330
1F
100
AcDbEntity
  8
外形
  6
CENTER
 62
     1
 48
0.08
100
AcDbLine
 10
505.663996016273
 20
323.7740166865812
 30
0.0
 11
516.1639960162731
 21
323.7740166865812
 31
0.0
  0
ARC
  5
1019
330
1F
100
AcDbEntity
  8
外形
100
AcDbCircle
 10
613.2372515351358
 20
330.9015578523932
 30
0.0
 40
0.5
100
AcDbArc
 50
180.0000000000021
 51
270.0
  0
ARC
  5
101A
330
1F
100
AcDbEntity
  8
外形
100
AcDbCircle
 10
613.2372515351359
 20
323.2316855566933
 30
0.0
 40
0.5
100
AcDbArc
 50
91.05270668815679
 51
179.9999999999948
  0
ARC
  5
101B
330
1F
100
AcDbEntity
  8
外形
100
AcDbCircle
 10
613.2372515351356
 20
321.71347910215
 30
0.0
 40
0.5
100
AcDbArc
 50
179.9999999999935
 51
268.9472933118434
  0
ARC
  5
101C
330
1F
100
AcDbEntity
  8
外形
100
AcDbCircle
 10
613.2372515351359
 20
313.2316855566934
 30
0.0
 40
0.5
100
AcDbArc
 50
91.05270668815679
 51
179.9999999999948
  0
ARC
  5
101D
330
1F
100
AcDbEntity
  8
外形
100
AcDbCircle
 10
613.2372515351356
 20
311.71347910215
 30
0.0
 40
0.5
100
AcDbArc
 50
179.9999999999935
 51
268.9472933118434
  0
ARC
  5
101E
330
1F
100
AcDbEntity
  8
外形
100
AcDbCircle
 10
613.2372515351359
 20
303.2316855566933
 30
0.0
 40
0.5
100
AcDbArc
 50
91.05270668815679
 51
179.9999999999948
  0
ARC
  5
101F
330
1F
100
AcDbEntity
  8
外形
100
AcDbCircle
 10
613.2372515351358
 20
301.71347910215
 30
0.0
 40
0.5
100
AcDbArc
 50
179.9999999999935
 51
268.9472933118433
  0
ARC
  5
1020
330
1F
100
AcDbEntity
  8
外形
100
AcDbCircle
 10
613.2372515351359
 20
293.2316855566933
 30
0.0
 40
0.5
100
AcDbArc
 50
91.05270668815665
 51
179.9999999999948
  0
ARC
  5
1021
330
1F
100
AcDbEntity
  8
外形
100
AcDbCircle
 10
613.2372515351358
 20
291.71347910215
 30
0.0
 40
0.5
100
AcDbArc
 50
179.9999999999935
 51
268.9472933118435
  0
ARC
  5
1022
330
1F
100
AcDbEntity
  8
外形
100
AcDbCircle
 10
613.2372515351358
 20
283.2316855566933
 30
0.0
 40
0.5
100
AcDbArc
 50
91.0527066881567
 51
179.9999999999948
  0
ARC
  5
1023
330
1F
100
AcDbEntity
  8
外形
100
AcDbCircle
 10
613.2372515351355
 20
281.7134791021499
 30
0.0
 40
0.5
100
AcDbArc
 50
179.9999999999967
 51
268.9472933118435
  0
ARC
  5
1024
330
1F
100
AcDbEntity
  8
外形
100
AcDbCircle
 10
613.2372515351358
 20
273.2316855566933
 30
0.0
 40
0.5
100
AcDbArc
 50
91.0527066881567
 51
179.9999999999948
  0
ARC
  5
1025
330
1F
100
AcDbEntity
  8
外形
100
AcDbCircle
 10
613.2372515351355
 20
271.71347910215
 30
0.0
 40
0.5
100
AcDbArc
 50
179.9999999999967
 51
268.9472933118435
  0
ARC
  5
1026
330
1F
100
AcDbEntity
  8
外形
100
AcDbCircle
 10
613.2372515351358
 20
263.2316855566933
 30
0.0
 40
0.5
100
AcDbArc
 50
91.0527066881567
 51
179.9999999999948
  0
ARC
  5
1027
330
1F
100
AcDbEntity
  8
外形
100
AcDbCircle
 10
613.2372515351355
 20
261.71347910215
 30
0.0
 40
0.5
100
AcDbArc
 50
179.9999999999967
 51
268.9472933118435
  0
ARC
  5
1028
330
1F
100
AcDbEntity
  8
外形
100
AcDbCircle
 10
613.2372515351359
 20
253.2316855566933
 30
0.0
 40
0.5
100
AcDbArc
 50
91.0527066881567
 51
179.9999999999948
  0
ARC
  5
1029
330
1F
100
AcDbEntity
  8
外形
100
AcDbCircle
 10
613.2372515351358
 20
251.71347910215
 30
0.0
 40
0.5
100
AcDbArc
 50
179.9999999999935
 51
268.9472933118435
  0
ARC
  5
102A
330
1F
100
AcDbEntity
  8
外形
100
AcDbCircle
 10
613.2372515351358
 20
243.2316855566934
 30
0.0
 40
0.5
100
AcDbArc
 50
91.05270668815668
 51
179.9999999999948
  0
ARC
  5
102B
330
1F
100
AcDbEntity
  8
外形
100
AcDbCircle
 10
613.2372515351355
 20
241.7134791021499
 30
0.0
 40
0.5
100
AcDbArc
 50
179.9999999999967
 51
268.9472933118434
  0
ARC
  5
102C
330
1F
100
AcDbEntity
  8
外形
100
AcDbCircle
 10
613.2372515351358
 20
233.2316855566933
 30
0.0
 40
0.5
100
AcDbArc
 50
91.0527066881567
 51
179.9999999999948
  0
ARC
  5
102D
330
1F
100
AcDbEntity
  8
外形
100
AcDbCircle
 10
613.2372515351355
 20
231.71347910215
 30
0.0
 40
0.5
100
AcDbArc
 50
179.9999999999967
 51
268.9472933118435
  0
ARC
  5
102E
330
1F
100
AcDbEntity
  8
外形
100
AcDbCircle
 10
748.7529860362705
 20
231.71347910215
 30
0.0
 40
0.5
100
AcDbArc
 50
271.0527066881565
 51
0.0000000000052034
  0
ARC
  5
102F
330
1F
100
AcDbEntity
  8
外形
100
AcDbCircle
 10
748.7529860362704
 20
233.2316855566934
 30
0.0
 40
0.5
100
AcDbArc
 50
0.0000000000097198
 51
88.94729331184327
  0
ARC
  5
1030
330
1F
100
AcDbEntity
  8
外形
100
AcDbCircle
 10
748.7529860362704
 20
241.71347910215
 30
0.0
 40
0.5
100
AcDbArc
 50
271.0527066881565
 51
0.0000000000052034
  0
ARC
  5
1031
330
1F
100
AcDbEntity
  8
外形
100
AcDbCircle
 10
748.7529860362703
 20
243.2316855566934
 30
0.0
 40
0.5
100
AcDbArc
 50
0.0000000000032569
 51
88.94729331184331
  0
ARC
  5
1032
330
1F
100
AcDbEntity
  8
外形
100
AcDbCircle
 10
748.7529860362704
 20
251.7134791021499
 30
0.0
 40
0.5
100
AcDbArc
 50
271.0527066881564
 51
0.0000000000052034
  0
ARC
  5
1033
330
1F
100
AcDbEntity
  8
外形
100
AcDbCircle
 10
748.7529860362704
 20
253.2316855566934
 30
0.0
 40
0.5
100
AcDbArc
 50
0.0000000000032569
 51
88.94729331184327
  0
ARC
  5
1034
330
1F
100
AcDbEntity
  8
外形
100
AcDbCircle
 10
748.7529860362704
 20
263.2316855566934
 30
0.0
 40
0.5
100
AcDbArc
 50
0.0000000000051907
 51
88.94729331184327
  0
ARC
  5
1035
330
1F
100
AcDbEntity
  8
外形
100
AcDbCircle
 10
748.7529860362704
 20
261.7134791021499
 30
0.0
 40
0.5
100
AcDbArc
 50
271.0527066881564
 51
0.0000000000032442
  0
ARC
  5
1036
330
1F
100
AcDbEntity
  8
外形
100
AcDbCircle
 10
748.7529860362704
 20
273.2316855566933
 30
0.0
 40
0.5
100
AcDbArc
 50
0.0000000000051907
 51
88.94729331184327
  0
ARC
  5
1037
330
1F
100
AcDbEntity
  8
外形
100
AcDbCircle
 10
748.7529860362704
 20
271.7134791021499
 30
0.0
 40
0.5
100
AcDbArc
 50
271.0527066881564
 51
0.0000000000032442
  0
ARC
  5
1038
330
1F
100
AcDbEntity
  8
外形
100
AcDbCircle
 10
748.7529860362704
 20
283.2316855566933
 30
0.0
 40
0.5
100
AcDbArc
 50
0.0000000000051907
 51
88.94729331184327
  0
ARC
  5
1039
330
1F
100
AcDbEntity
  8
外形
100
AcDbCircle
 10
748.7529860362704
 20
281.7134791021499
 30
0.0
 40
0.5
100
AcDbArc
 50
271.0527066881564
 51
0.0000000000032442
  0
ARC
  5
103A
330
1F
100
AcDbEntity
  8
外形
100
AcDbCircle
 10
748.7529860362704
 20
293.2316855566933
 30
0.0
 40
0.5
100
AcDbArc
 50
0.0000000000051907
 51
88.94729331184334
  0
ARC
  5
103B
330
1F
100
AcDbEntity
  8
外形
100
AcDbCircle
 10
748.7529860362704
 20
291.7134791021499
 30
0.0
 40
0.5
100
AcDbArc
 50
271.0527066881564
 51
0.0000000000032442
  0
ARC
  5
103C
330
1F
100
AcDbEntity
  8
外形
100
AcDbCircle
 10
748.7529860362703
 20
303.2316855566933
 30
0.0
 40
0.5
100
AcDbArc
 50
0.0000000000051907
 51
88.9472933118432
  0
ARC
  5
103D
330
1F
100
AcDbEntity
  8
外形
100
AcDbCircle
 10
748.7529860362704
 20
301.71347910215
 30
0.0
 40
0.5
100
AcDbArc
 50
271.0527066881566
 51
0.0000000000064756
  0
ARC
  5
103E
330
1F
100
AcDbEntity
  8
外形
100
AcDbCircle
 10
748.7529860362703
 20
313.2316855566934
 30
0.0
 40
0.5
100
AcDbArc
 50
0.0000000000051907
 51
88.9472933118432
  0
ARC
  5
103F
330
1F
100
AcDbEntity
  8
外形
100
AcDbCircle
 10
748.7529860362704
 20
311.71347910215
 30
0.0
 40
0.5
100
AcDbArc
 50
271.0527066881565
 51
0.0000000000064756
  0
ARC
  5
1040
330
1F
100
AcDbEntity
  8
外形
100
AcDbCircle
 10
748.7529860362703
 20
323.2316855566933
 30
0.0
 40
0.5
100
AcDbArc
 50
0.0000000000051907
 51
88.9472933118432
  0
ARC
  5
1041
330
1F
100
AcDbEntity
  8
外形
100
AcDbCircle
 10
748.7529860362704
 20
321.71347910215
 30
0.0
 40
0.5
100
AcDbArc
 50
271.0527066881565
 51
0.0000000000064756
  0
ARC
  5
1042
330
1F
100
AcDbEntity
  8
外形
100
AcDbCircle
 10
748.7529860362704
 20
330.9015578523932
 30
0.0
 40
0.5
100
AcDbArc
 50
270.0
 51
359.9999999999957
  0
LINE
  5
1044
330
1F
100
AcDbEntity
  8
外形
100
AcDbLine
 10
666.5536626623028
 20
326.0905112259597
 30
0.0
 11
666.5536626623028
 21
325.105459717521
 31
0.0
  0
LINE
  5
1045
330
1F
100
AcDbEntity
  8
外形
100
AcDbLine
 10
667.5536626623028
 20
326.0905112259597
 30
0.0
 11
667.5536626623028
 21
325.105459717521
 31
0.0
  0
LINE
  5
1046
330
1F
100
AcDbEntity
  8
外形
100
AcDbLine
 10
666.5536626623028
 20
325.105459717521
 30
0.0
 11
667.5536626623028
 21
325.105459717521
 31
0.0
  0
LINE
  5
1047
330
1F
100
AcDbEntity
  8
外形
100
AcDbLine
 10
695.5052158776781
 20
326.0905112259597
 30
0.0
 11
695.5052158776781
 21
325.105459717521
 31
0.0
  0
LINE
  5
1048
330
1F
100
AcDbEntity
  8
外形
100
AcDbLine
 10
694.5052158776781
 20
326.0905112259597
 30
0.0
 11
694.5052158776781
 21
325.105459717521
 31
0.0
  0
LINE
  5
1049
330
1F
100
AcDbEntity
  8
外形
100
AcDbLine
 10
694.5052158776781
 20
325.105459717521
 30
0.0
 11
695.5052158776781
 21
325.105459717521
 31
0.0
  0
VIEWPORT
  5
2D8
102
{ACAD_XDICTIONARY
360
305
102
}
330
2D1
100
AcDbEntity
 67
     1
  8
0
 62
     5
100
AcDbViewport
 10
143.6899261474609
 20
100.2135806083679
 30
0.0
 40
425.6404035561828
 41
222.1517806396483
 68
     1
 69
     1
 12
143.6899261474609
 22
100.2135806083679
 13
0.0
 23
0.0
 14
10.0
 24
10.0
 15
10.0
 25
10.0
 16
0.0
 26
0.0
 36
1.0
 17
0.0
 27
0.0
 37
0.0
 42
50.0
 43
0.0
 44
0.0
 45
222.1517806396483
 50
0.0
 51
0.0
 72
   100
 90
    32800
  1

281
     0
 71
     1
 74
     0
110
0.0
120
0.0
130
0.0
111
1.0
121
0.0
131
0.0
112
0.0
122
1.0
132
0.0
 79
     0
146
0.0
  0
VIEWPORT
  5
2DA
102
{ACAD_XDICTIONARY
360
307
102
}
330
2D1
100
AcDbEntity
 67
     1
  8
寸法
 62
     5
100
AcDbViewport
 10
143.6899168491363
 20
100.1712510585784
 30
0.0
 40
229.9038669586181
 41
160.2740016937255
 68
     2
 69
     2
 12
480.2244933164883
 22
278.016991346559
 13
0.0
 23
0.0
 14
10.0
 24
10.0
 15
10.0
 25
10.0
 16
0.0
 26
0.0
 36
1.0
 17
0.0
 27
0.0
 37
0.0
 42
50.0
 43
0.0
 44
0.0
 45
78.59316620049068
 50
0.0
 51
0.0
 72
   100
 90
    32864
  1

281
     0
 71
     1
 74
     0
110
0.0
120
0.0
130
0.0
111
1.0
121
0.0
131
0.0
112
0.0
122
1.0
132
0.0
 79
     0
146
0.0
  0
ENDSEC
  0
SECTION
  2
OBJECTS
  0
DICTIONARY
  5
C
330
0
100
AcDbDictionary
281
     1
  3
ACAD_COLOR
350
2EC
  3
ACAD_GROUP
350
D
  3
ACAD_LAYOUT
350
1A
  3
ACAD_MATERIAL
350
2EB
  3
ACAD_MLINESTYLE
350
17
  3
ACAD_PLOTSETTINGS
350
19
  3
ACAD_PLOTSTYLENAME
350
E
  3
ACAD_TABLESTYLE
350
2F4
  3
AcDbVariableDictionary
350
309
  0
DICTIONARY
  5
305
330
2D8
100
AcDbDictionary
280
     1
281
     1
  3
ACAD_XREC_ROUNDTRIP
360
306
  0
DICTIONARY
  5
307
330
2DA
100
AcDbDictionary
280
     1
281
     1
  3
ACAD_XREC_ROUNDTRIP
360
308
  0
DICTIONARY
  5
2EC
102
{ACAD_REACTORS
330
C
102
}
330
C
100
AcDbDictionary
281
     1
  0
DICTIONARY
  5
D
102
{ACAD_REACTORS
330
C
102
}
330
C
100
AcDbDictionary
281
     1
  3
*A1
350
E30
  0
DICTIONARY
  5
1A
102
{ACAD_REACTORS
330
C
102
}
330
C
100
AcDbDictionary
281
     1
  3
Model
350
22
  3
ﾚｲｱｳﾄ2
350
2D2
  0
DICTIONARY
  5
2EB
102
{ACAD_REACTORS
330
C
102
}
330
C
100
AcDbDictionary
281
     1
  0
DICTIONARY
  5
17
102
{ACAD_REACTORS
330
C
102
}
330
C
100
AcDbDictionary
281
     1
  3
Standard
350
18
  0
DICTIONARY
  5
19
102
{ACAD_REACTORS
330
C
102
}
330
C
100
AcDbDictionary
281
     1
  0
ACDBDICTIONARYWDFLT
  5
E
102
{ACAD_REACTORS
330
C
102
}
330
C
100
AcDbDictionary
281
     1
  3
Normal
350
F
100
AcDbDictionaryWithDefault
340
F
  0
DICTIONARY
  5
2F4
102
{ACAD_REACTORS
330
C
102
}
330
C
100
AcDbDictionary
281
     1
  3
Standard
350
2F5
  0
DICTIONARY
  5
309
102
{ACAD_REACTORS
330
C
102
}
330
C
100
AcDbDictionary
281
     1
  3
CTABLESTYLE
350
30A
  3
DIMASSOC
350
30B
  3
PROJECTNAME
350
30C
  0
XRECORD
  5
306
102
{ACAD_REACTORS
330
305
102
}
330
305
100
AcDbXrecord
280
     1
102
SHADEPLOT
 70
     0
  0
XRECORD
  5
308
102
{ACAD_REACTORS
330
307
102
}
330
307
100
AcDbXrecord
280
     1
102
SHADEPLOT
 70
     0
  0
GROUP
  5
E30
102
{ACAD_REACTORS
330
D
102
}
330
D
100
AcDbGroup
300

 70
     1
 71
     1
340
E29
340
E23
340
E22
340
E25
340
E24
340
E2B
340
E2C
340
E20
340
E17
340
E21
  0
LAYOUT
  5
22
102
{ACAD_XDICTIONARY
360
301
102
}
102
{ACAD_REACTORS
330
1A
102
}
330
1A
100
AcDbPlotSettings
  1

  2
Canon LBP-1420(RYU)
  4
A4
  6
VIEW1
 40
5.87375
 41
5.873747999999999
 42
5.873749
 43
5.873749
 44
209.973328
 45
296.925995
 46
31.96
 47
3.27
 48
345.5206905361017
 49
146.6163266985872
140
902.7839332817723
141
415.2239980957156
142
1.0
143
2.0
 70
 11428
 72
     1
 73
     1
 74
     4
  7
monochrome.ctb
 75
     0
147
0.5
148
-345.5206905361017
149
-146.6163266985872
100
AcDbLayout
  1
Model
 70
     1
 71
     0
 10
0.0
 20
0.0
 11
12.0
 21
9.0
 12
0.0
 22
0.0
 32
0.0
 14
0.0
 24
0.0
 34
0.0
 15
0.0
 25
0.0
 35
0.0
146
0.0
 13
0.0
 23
0.0
 33
0.0
 16
1.0
 26
0.0
 36
0.0
 17
0.0
 27
1.0
 37
0.0
 76
     0
330
1F
  0
LAYOUT
  5
2D2
102
{ACAD_XDICTIONARY
360
303
102
}
102
{ACAD_REACTORS
330
1A
102
}
330
1A
100
AcDbPlotSettings
  1

  2
FX0F277C
  4
A4
  6

 40
4.773083209991455
 41
4.773089885711669
 42
4.857742309570311
 43
4.7730712890625
 44
209.9733276367186
 45
296.9259948730469
 46
0.0
 47
0.0
 48
0.0
 49
0.0
140
0.0
141
0.0
142
1.0
143
1.0
 70
   688
 72
     1
 73
     1
 74
     5
  7

 75
    16
147
1.0
148
0.0
149
0.0
100
AcDbLayout
  1
ﾚｲｱｳﾄ2
 70
     1
 71
     1
 10
-4.7730712890625
 20
-4.773083209991455
 11
292.1529235839843
 21
205.2002444267273
 12
0.0
 22
0.0
 32
0.0
 14
28.73798336982726
 24
20.03425021171568
 34
0.0
 15
258.6418503284454
 25
180.3082519054413
 35
0.0
146
0.0
 13
0.0
 23
0.0
 33
0.0
 16
1.0
 26
0.0
 36
0.0
 17
0.0
 27
1.0
 37
0.0
 76
     0
330
2D1
331
2D8
  0
MLINESTYLE
  5
18
102
{ACAD_REACTORS
330
17
102
}
330
17
100
AcDbMlineStyle
  2
STANDARD
 70
     0
  3

 62
   256
 51
90.0
 52
90.0
 71
     2
 49
0.5
 62
   256
  6
BYLAYER
 49
-0.5
 62
   256
  6
BYLAYER
  0
ACDBPLACEHOLDER
  5
F
102
{ACAD_REACTORS
330
E
102
}
330
E
  0
ACAD_PROXY_OBJECT
  5
2F5
102
{ACAD_REACTORS
330
2F4
102
}
330
2F4
100
AcDbProxyObject
 90
      499
 91
      503
 95
   655383
 70
     0
 93
     1841
310
4214DD185B99185C9928000000000000F83F0000000000003E0FC00000000000004901028000000C1008070000C3001FDFF8000000C1003FBFF000000182007F7FE00000030400FEFFC00000060801FDFF8000000C1003FBFF000000182000000000000000C2020B0000001820100E000186003FBFF000000182007F7FE000
310
00030400FEFFC00000060801FDFF8000000C1003FBFF000000182007F7FE0000003040000000000000012404160000003040201C00030C007F7FE00000030400FEFFC00000060801FDFF8000000C1003FBFF000000182007F7FE00000030400FEFFC00000060804D
340
11
340
11
340
11
 94
        0
  0
DICTIONARYVAR
  5
30A
102
{ACAD_REACTORS
330
309
102
}
330
309
100
DictionaryVariables
280
     0
  1
STANDARD
  0
DICTIONARYVAR
  5
30B
102
{ACAD_REACTORS
330
309
102
}
330
309
100
DictionaryVariables
280
     0
  1
1
  0
DICTIONARYVAR
  5
30C
102
{ACAD_REACTORS
330
309
102
}
330
309
100
DictionaryVariables
280
     0
  1

  0
DICTIONARY
  5
301
330
22
100
AcDbDictionary
280
     1
281
     1
  3
ACAD_XREC_ROUNDTRIP
360
302
  0
DICTIONARY
  5
303
330
2D2
100
AcDbDictionary
280
     1
281
     1
  3
ACAD_XREC_ROUNDTRIP
360
304
  0
XRECORD
  5
302
102
{ACAD_REACTORS
330
301
102
}
330
301
100
AcDbXrecord
280
     1
102
SHADEPLOT
 70
     0
102
SHADEPLOTRESLEVEL
 70
     2
102
SHADEPLOTCUSTOMDPI
 70
   300
  0
XRECORD
  5
304
102
{ACAD_REACTORS
330
303
102
}
330
303
100
AcDbXrecord
280
     1
102
SHADEPLOT
 70
     0
102
SHADEPLOTRESLEVEL
 70
     2
102
SHADEPLOTCUSTOMDPI
 70
   300
  0
ENDSEC
  0
EOF
