  0
SECTION
  2
HEADER
  9
$ACADVER
  1
AC1015
  9
$ACADMAINTVER
 70
    10
  9
$DWGCODEPAGE
  3
ANSI_932
  9
$INSBASE
 10
0.0
 20
0.0
 30
0.0
  9
$EXTMIN
 10
460.4352248946602
 20
235.4912011674584
 30
0.0
  9
$EXTMAX
 10
516.8909661089352
 20
316.4467380548872
 30
0.0
  9
$LIMMIN
 10
0.0
 20
0.0
  9
$LIMMAX
 10
420.0
 20
297.0
  9
$ORTHOMODE
 70
     1
  9
$REGENMODE
 70
     1
  9
$FILLMODE
 70
     1
  9
$QTEXTMODE
 70
     0
  9
$MIRRTEXT
 70
     1
  9
$LTSCALE
 40
1.0
  9
$ATTMODE
 70
     1
  9
$TEXTSIZE
 40
2.5
  9
$TRACEWID
 40
1.0
  9
$TEXTSTYLE
  7
Standard
  9
$CLAYER
  8
寸法
  9
$CELTYPE
  6
ByLayer
  9
$CECOLOR
 62
     5
  9
$CELTSCALE
 40
1.0
  9
$DISPSILH
 70
     0
  9
$DIMSCALE
 40
1.0
  9
$DIMASZ
 40
1.0
  9
$DIMEXO
 40
2.5
  9
$DIMDLI
 40
3.75
  9
$DIMRND
 40
0.0
  9
$DIMDLE
 40
0.0
  9
$DIMEXE
 40
0.5
  9
$DIMTP
 40
0.0
  9
$DIMTM
 40
0.0
  9
$DIMTXT
 40
0.7
  9
$DIMCEN
 40
2.5
  9
$DIMTSZ
 40
0.0
  9
$DIMTOL
 70
     0
  9
$DIMLIM
 70
     0
  9
$DIMTIH
 70
     0
  9
$DIMTOH
 70
     0
  9
$DIMSE1
 70
     0
  9
$DIMSE2
 70
     0
  9
$DIMTAD
 70
     1
  9
$DIMZIN
 70
     9
  9
$DIMBLK
  1

  9
$DIMASO
 70
     1
  9
$DIMSHO
 70
     1
  9
$DIMPOST
  1

  9
$DIMAPOST
  1

  9
$DIMALT
 70
     0
  9
$DIMALTD
 70
     3
  9
$DIMALTF
 40
0.03937007874016
  9
$DIMLFAC
 40
1.0
  9
$DIMTOFL
 70
     1
  9
$DIMTVP
 40
0.0
  9
$DIMTIX
 70
     0
  9
$DIMSOXD
 70
     0
  9
$DIMSAH
 70
     0
  9
$DIMBLK1
  1

  9
$DIMBLK2
  1

  9
$DIMSTYLE
  2
ISO-25
  9
$DIMCLRD
 70
     0
  9
$DIMCLRE
 70
     0
  9
$DIMCLRT
 70
     0
  9
$DIMTFAC
 40
1.0
  9
$DIMGAP
 40
0.2
  9
$DIMJUST
 70
     0
  9
$DIMSD1
 70
     0
  9
$DIMSD2
 70
     0
  9
$DIMTOLJ
 70
     0
  9
$DIMTZIN
 70
     8
  9
$DIMALTZ
 70
     0
  9
$DIMALTTZ
 70
     0
  9
$DIMUPT
 70
     0
  9
$DIMDEC
 70
     2
  9
$DIMTDEC
 70
     2
  9
$DIMALTU
 70
     2
  9
$DIMALTTD
 70
     3
  9
$DIMTXSTY
  7
Standard
  9
$DIMAUNIT
 70
     0
  9
$DIMADEC
 70
     1
  9
$DIMALTRND
 40
0.0
  9
$DIMAZIN
 70
     1
  9
$DIMDSEP
 70
    46
  9
$DIMATFIT
 70
     3
  9
$DIMFRAC
 70
     0
  9
$DIMLDRBLK
  1

  9
$DIMLUNIT
 70
     2
  9
$DIMLWD
 70
    -2
  9
$DIMLWE
 70
    -2
  9
$DIMTMOVE
 70
     0
  9
$LUNITS
 70
     2
  9
$LUPREC
 70
     4
  9
$SKETCHINC
 40
1.0
  9
$FILLETRAD
 40
0.0
  9
$AUNITS
 70
     0
  9
$AUPREC
 70
     0
  9
$MENU
  1
.
  9
$ELEVATION
 40
0.0
  9
$PELEVATION
 40
0.0
  9
$THICKNESS
 40
0.0
  9
$LIMCHECK
 70
     0
  9
$CHAMFERA
 40
0.0
  9
$CHAMFERB
 40
0.0
  9
$CHAMFERC
 40
20.0
  9
$CHAMFERD
 40
0.0
  9
$SKPOLY
 70
     0
  9
$TDCREATE
 40
2453483.907673240
  9
$TDUCREATE
 40
2453483.532673240
  9
$TDUPDATE
 40
2453518.751085428
  9
$TDUUPDATE
 40
2453518.376085427
  9
$TDINDWG
 40
0.2458545023
  9
$TDUSRTIMER
 40
0.2458543171
  9
$USRTIMER
 70
     1
  9
$ANGBASE
 50
0.0
  9
$ANGDIR
 70
     0
  9
$PDMODE
 70
     0
  9
$PDSIZE
 40
0.0
  9
$PLINEWID
 40
0.0
  9
$SPLFRAME
 70
     0
  9
$SPLINETYPE
 70
     6
  9
$SPLINESEGS
 70
     8
  9
$HANDSEED
  5
2037
  9
$SURFTAB1
 70
     6
  9
$SURFTAB2
 70
     6
  9
$SURFTYPE
 70
     6
  9
$SURFU
 70
     6
  9
$SURFV
 70
     6
  9
$UCSBASE
  2

  9
$UCSNAME
  2

  9
$UCSORG
 10
0.0
 20
0.0
 30
0.0
  9
$UCSXDIR
 10
1.0
 20
0.0
 30
0.0
  9
$UCSYDIR
 10
0.0
 20
1.0
 30
0.0
  9
$UCSORTHOREF
  2

  9
$UCSORTHOVIEW
 70
     0
  9
$UCSORGTOP
 10
0.0
 20
0.0
 30
0.0
  9
$UCSORGBOTTOM
 10
0.0
 20
0.0
 30
0.0
  9
$UCSORGLEFT
 10
0.0
 20
0.0
 30
0.0
  9
$UCSORGRIGHT
 10
0.0
 20
0.0
 30
0.0
  9
$UCSORGFRONT
 10
0.0
 20
0.0
 30
0.0
  9
$UCSORGBACK
 10
0.0
 20
0.0
 30
0.0
  9
$PUCSBASE
  2

  9
$PUCSNAME
  2

  9
$PUCSORG
 10
0.0
 20
0.0
 30
0.0
  9
$PUCSXDIR
 10
1.0
 20
0.0
 30
0.0
  9
$PUCSYDIR
 10
0.0
 20
1.0
 30
0.0
  9
$PUCSORTHOREF
  2

  9
$PUCSORTHOVIEW
 70
     0
  9
$PUCSORGTOP
 10
0.0
 20
0.0
 30
0.0
  9
$PUCSORGBOTTOM
 10
0.0
 20
0.0
 30
0.0
  9
$PUCSORGLEFT
 10
0.0
 20
0.0
 30
0.0
  9
$PUCSORGRIGHT
 10
0.0
 20
0.0
 30
0.0
  9
$PUCSORGFRONT
 10
0.0
 20
0.0
 30
0.0
  9
$PUCSORGBACK
 10
0.0
 20
0.0
 30
0.0
  9
$USERI1
 70
     0
  9
$USERI2
 70
     0
  9
$USERI3
 70
     0
  9
$USERI4
 70
     0
  9
$USERI5
 70
     0
  9
$USERR1
 40
0.0
  9
$USERR2
 40
0.0
  9
$USERR3
 40
0.0
  9
$USERR4
 40
0.0
  9
$USERR5
 40
0.0
  9
$WORLDVIEW
 70
     1
  9
$SHADEDGE
 70
     3
  9
$SHADEDIF
 70
    70
  9
$TILEMODE
 70
     1
  9
$MAXACTVP
 70
    64
  9
$PINSBASE
 10
0.0
 20
0.0
 30
0.0
  9
$PLIMCHECK
 70
     0
  9
$PEXTMIN
 10
-0.0022107197171408
 20
-0.0056219074012347
 30
-0.0015258207003583
  9
$PEXTMAX
 10
200.3467194242936
 20
287.3876809325698
 30
0.0000000349246037
  9
$PLIMMIN
 10
-4.773083209991455
 20
-4.773089885711669
  9
$PLIMMAX
 10
205.2002444267273
 20
292.1529049873352
  9
$UNITMODE
 70
     0
  9
$VISRETAIN
 70
     1
  9
$PLINEGEN
 70
     0
  9
$PSLTSCALE
 70
     1
  9
$TREEDEPTH
 70
  3020
  9
$CMLSTYLE
  2
Standard
  9
$CMLJUST
 70
     0
  9
$CMLSCALE
 40
20.0
  9
$PROXYGRAPHICS
 70
     1
  9
$MEASUREMENT
 70
     1
  9
$CELWEIGHT
370
    -1
  9
$ENDCAPS
280
     0
  9
$JOINSTYLE
280
     0
  9
$LWDISPLAY
290
     0
  9
$INSUNITS
 70
     4
  9
$HYPERLINKBASE
  1

  9
$STYLESHEET
  1
monochrome.ctb
  9
$XEDIT
290
     1
  9
$CEPSNTYPE
380
     0
  9
$PSTYLEMODE
290
     1
  9
$FINGERPRINTGUID
  2
{FDEAD578-A652-11D2-9A35-0060089B3A3F}
  9
$VERSIONGUID
  2
{A0B2E749-FED8-4DA3-92D4-7EB94FB98254}
  9
$EXTNAMES
290
     1
  9
$PSVPSCALE
 40
0.0
  9
$OLESTARTUP
290
     0
  0
ENDSEC
  0
SECTION
  2
CLASSES
  0
CLASS
  1
ACDBDICTIONARYWDFLT
  2
AcDbDictionaryWithDefault
  3
AutoCAD 2000
 90
        0
280
     0
281
     0
  0
CLASS
  1
ACDBPLACEHOLDER
  2
AcDbPlaceHolder
  3
AutoCAD 2000
 90
        0
280
     0
281
     0
  0
CLASS
  1
LAYOUT
  2
AcDbLayout
  3
AutoCAD 2000
 90
        0
280
     0
281
     0
  0
CLASS
  1
TABLESTYLE
  2
AcDbTableStyle
  3
ObjectDBX Classes
 90
     2047
280
     0
281
     0
  0
CLASS
  1
DICTIONARYVAR
  2
AcDbDictionaryVar
  3
AutoCAD 2000
 90
        0
280
     0
281
     0
  0
CLASS
  1
IMAGEDEF
  2
AcDbRasterImageDef
  3
ISM
 90
        0
280
     0
281
     0
  0
CLASS
  1
RASTERVARIABLES
  2
AcDbRasterVariables
  3
ISM
 90
        0
280
     0
281
     0
  0
CLASS
  1
IMAGEDEF_REACTOR
  2
AcDbRasterImageDefReactor
  3
ISM
 90
    32769
280
     0
281
     0
  0
CLASS
  1
IMAGE
  2
AcDbRasterImage
  3
ISM
 90
    32895
280
     0
281
     1
  0
ENDSEC
  0
SECTION
  2
TABLES
  0
TABLE
  2
VPORT
  5
8
330
0
100
AcDbSymbolTable
 70
     2
  0
VPORT
  5
2036
330
8
100
AcDbSymbolTableRecord
100
AcDbViewportTableRecord
  2
*Active
 70
     0
 10
0.0
 20
0.0
 11
1.0
 21
1.0
 12
492.6774894241664
 22
274.6997347529405
 13
0.0
 23
0.0
 14
10.0
 24
10.0
 15
10.0
 25
10.0
 16
0.0
 26
0.0
 36
1.0
 17
0.0
 27
0.0
 37
0.0
 40
85.80049396955296
 41
1.561128526645767
 42
50.0
 43
0.0
 44
0.0
 50
0.0
 51
0.0
 71
     0
 72
   100
 73
     1
 74
     3
 75
     0
 76
     0
 77
     0
 78
     0
281
     0
 65
     1
110
0.0
120
0.0
130
0.0
111
1.0
121
0.0
131
0.0
112
0.0
122
1.0
132
0.0
 79
     0
146
0.0
  0
ENDTAB
  0
TABLE
  2
LTYPE
  5
5
330
0
100
AcDbSymbolTable
 70
     1
  0
LTYPE
  5
14
330
5
100
AcDbSymbolTableRecord
100
AcDbLinetypeTableRecord
  2
ByBlock
 70
     0
  3

 72
    65
 73
     0
 40
0.0
  0
LTYPE
  5
15
330
5
100
AcDbSymbolTableRecord
100
AcDbLinetypeTableRecord
  2
ByLayer
 70
     0
  3

 72
    65
 73
     0
 40
0.0
  0
LTYPE
  5
16
330
5
100
AcDbSymbolTableRecord
100
AcDbLinetypeTableRecord
  2
Continuous
 70
     0
  3
Solid line
 72
    65
 73
     0
 40
0.0
  0
ENDTAB
  0
TABLE
  2
LAYER
  5
2
330
0
100
AcDbSymbolTable
 70
     4
  0
LAYER
  5
10
330
2
100
AcDbSymbolTableRecord
100
AcDbLayerTableRecord
  2
0
 70
     0
 62
     7
  6
Continuous
370
    -3
390
F
  0
LAYER
  5
64
330
2
100
AcDbSymbolTableRecord
100
AcDbLayerTableRecord
  2
外形
 70
     0
 62
     7
  6
Continuous
370
    -3
390
F
  0
LAYER
  5
65
330
2
100
AcDbSymbolTableRecord
100
AcDbLayerTableRecord
  2
寸法
 70
     0
 62
     7
  6
Continuous
370
    -3
390
F
  0
LAYER
  5
E3
330
2
100
AcDbSymbolTableRecord
100
AcDbLayerTableRecord
  2
Defpoints
 70
     0
 62
     7
  6
Continuous
290
     0
370
    -3
390
F
  0
ENDTAB
  0
TABLE
  2
STYLE
  5
3
330
0
100
AcDbSymbolTable
 70
     1
  0
STYLE
  5
11
330
3
100
AcDbSymbolTableRecord
100
AcDbTextStyleTableRecord
  2
Standard
 70
     0
 40
0.0
 41
1.0
 50
0.0
 71
     0
 42
2.5
  3
txt
  4

  0
ENDTAB
  0
TABLE
  2
VIEW
  5
6
330
0
100
AcDbSymbolTable
 70
     0
  0
ENDTAB
  0
TABLE
  2
UCS
  5
7
330
0
100
AcDbSymbolTable
 70
     0
  0
ENDTAB
  0
TABLE
  2
APPID
  5
9
330
0
100
AcDbSymbolTable
 70
     2
  0
APPID
  5
12
330
9
100
AcDbSymbolTableRecord
100
AcDbRegAppTableRecord
  2
ACAD
 70
     0
  0
APPID
  5
313
330
9
100
AcDbSymbolTableRecord
100
AcDbRegAppTableRecord
  2
QDRX_VIEW
 70
     0
  0
ENDTAB
  0
TABLE
  2
DIMSTYLE
  5
A
330
0
100
AcDbSymbolTable
 70
     1
100
AcDbDimStyleTable
 71
     1
340
27
  0
DIMSTYLE
105
27
102
{ACAD_REACTORS
330
455
330
4BF
330
53C
330
53A
330
53B
330
6F9
330
840
330
774
330
744
330
1B02
330
454
102
}
330
A
100
AcDbSymbolTableRecord
100
AcDbDimStyleTableRecord
  2
ISO-25
 70
     0
 41
1.0
 42
2.5
 43
3.75
 44
0.5
 73
     0
 74
     0
 77
     1
 78
     9
 79
     1
140
0.7
141
2.5
143
0.03937007874016
147
0.2
171
     3
172
     1
179
     1
271
     2
272
     2
274
     3
283
     0
284
     8
340
11
  0
ENDTAB
  0
TABLE
  2
BLOCK_RECORD
  5
1
330
0
100
AcDbSymbolTable
 70
    11
  0
BLOCK_RECORD
  5
1F
330
1
100
AcDbSymbolTableRecord
100
AcDbBlockTableRecord
  2
*Model_Space
340
22
  0
BLOCK_RECORD
  5
2D1
330
1
100
AcDbSymbolTableRecord
100
AcDbBlockTableRecord
  2
*Paper_Space
340
2D2
  0
BLOCK_RECORD
  5
456
330
1
100
AcDbSymbolTableRecord
100
AcDbBlockTableRecord
  2
*D0
340
0
  0
BLOCK_RECORD
  5
462
330
1
100
AcDbSymbolTableRecord
100
AcDbBlockTableRecord
  2
*D1
340
0
  0
BLOCK_RECORD
  5
4C3
330
1
100
AcDbSymbolTableRecord
100
AcDbBlockTableRecord
  2
*D2
340
0
  0
BLOCK_RECORD
  5
53D
330
1
100
AcDbSymbolTableRecord
100
AcDbBlockTableRecord
  2
*D3
340
0
  0
BLOCK_RECORD
  5
549
330
1
100
AcDbSymbolTableRecord
100
AcDbBlockTableRecord
  2
*D4
340
0
  0
BLOCK_RECORD
  5
555
330
1
100
AcDbSymbolTableRecord
100
AcDbBlockTableRecord
  2
*D5
340
0
  0
BLOCK_RECORD
  5
6FA
330
1
100
AcDbSymbolTableRecord
100
AcDbBlockTableRecord
  2
*D6
340
0
  0
BLOCK_RECORD
  5
745
330
1
100
AcDbSymbolTableRecord
100
AcDbBlockTableRecord
  2
*D7
340
0
  0
BLOCK_RECORD
  5
791
330
1
100
AcDbSymbolTableRecord
100
AcDbBlockTableRecord
  2
*D8
340
0
  0
BLOCK_RECORD
  5
841
330
1
100
AcDbSymbolTableRecord
100
AcDbBlockTableRecord
  2
*D9
340
0
  0
BLOCK_RECORD
  5
1C30
330
1
100
AcDbSymbolTableRecord
100
AcDbBlockTableRecord
  2
_None
340
0
  0
ENDTAB
  0
ENDSEC
  0
SECTION
  2
BLOCKS
  0
BLOCK
  5
20
330
1F
100
AcDbEntity
  8
0
100
AcDbBlockBegin
  2
*Model_Space
 70
     0
 10
0.0
 20
0.0
 30
0.0
  3
*Model_Space
  1

  0
ENDBLK
  5
21
330
1F
100
AcDbEntity
  8
0
100
AcDbBlockEnd
  0
BLOCK
  5
2D3
330
2D1
100
AcDbEntity
 67
     1
  8
0
 62
     5
100
AcDbBlockBegin
  2
*Paper_Space
 70
     0
 10
0.0
 20
0.0
 30
0.0
  3
*Paper_Space
  1

  0
ENDBLK
  5
2D4
330
2D1
100
AcDbEntity
 67
     1
  8
0
 62
     5
100
AcDbBlockEnd
  0
BLOCK
  5
460
330
456
100
AcDbEntity
  8
0
 62
     5
100
AcDbBlockBegin
  2
*D0
 70
     1
 10
0.0
 20
0.0
 30
0.0
  3
*D0
  1

  0
LINE
  5
1F53
330
456
100
AcDbEntity
  8
寸法
 62
     0
370
    -2
100
AcDbLine
 10
494.9681320752036
 20
301.2474570709881
 30
0.0
 11
498.1333125618481
 21
301.2474570709881
 31
0.0
  0
LINE
  5
1F54
330
456
100
AcDbEntity
  8
寸法
 62
     0
370
    -2
100
AcDbLine
 10
496.9681320752036
 20
277.2474570709881
 30
0.0
 11
498.1333125618481
 21
277.2474570709881
 31
0.0
  0
LINE
  5
1F55
330
456
100
AcDbEntity
  8
寸法
 62
     0
370
    -2
100
AcDbLine
 10
497.6333125618481
 20
300.2474570709881
 30
0.0
 11
497.6333125618481
 21
278.2474570709881
 31
0.0
  0
SOLID
  5
1F56
330
456
100
AcDbEntity
  8
寸法
 62
     0
100
AcDbTrace
 10
497.4666458951814
 20
300.2474570709881
 30
0.0
 11
497.7999792285148
 21
300.2474570709881
 31
0.0
 12
497.6333125618481
 22
301.2474570709881
 32
0.0
 13
497.6333125618481
 23
301.2474570709881
 33
0.0
  0
SOLID
  5
1F57
330
456
100
AcDbEntity
  8
寸法
 62
     0
100
AcDbTrace
 10
497.4666458951814
 20
278.2474570709881
 30
0.0
 11
497.7999792285148
 21
278.2474570709881
 31
0.0
 12
497.6333125618481
 22
277.2474570709881
 32
0.0
 13
497.6333125618481
 23
277.2474570709881
 33
0.0
  0
MTEXT
  5
1F58
330
456
100
AcDbEntity
  8
寸法
 62
     0
100
AcDbMText
 10
497.083312561848
 20
289.2474570709882
 30
0.0
 40
0.7
 41
0.0
 71
     5
 72
     1
  1
24Max
 11
0.0000000000000001
 21
1.0
 31
0.0
 73
     1
 44
1.0
  0
POINT
  5
1F59
330
456
100
AcDbEntity
  8
Defpoints
 62
     0
100
AcDbPoint
 10
492.4681320752036
 20
301.2474570709881
 30
0.0
  0
POINT
  5
1F5A
330
456
100
AcDbEntity
  8
Defpoints
 62
     0
100
AcDbPoint
 10
494.4681320752037
 20
277.2474570709881
 30
0.0
  0
POINT
  5
1F5B
330
456
100
AcDbEntity
  8
Defpoints
 62
     0
100
AcDbPoint
 10
497.6333125618481
 20
277.2474570709881
 30
0.0
  0
ENDBLK
  5
461
330
456
100
AcDbEntity
  8
0
 62
     5
100
AcDbBlockEnd
  0
BLOCK
  5
46C
330
462
100
AcDbEntity
  8
0
 62
     5
100
AcDbBlockBegin
  2
*D1
 70
     1
 10
0.0
 20
0.0
 30
0.0
  3
*D1
  1

  0
LINE
  5
1F9D
330
462
100
AcDbEntity
  8
寸法
 62
     0
370
    -2
100
AcDbLine
 10
469.4681320752036
 20
301.7474570709881
 30
0.0
 11
469.4681320752036
 21
304.4601779127306
 31
0.0
  0
LINE
  5
1F9E
330
462
100
AcDbEntity
  8
寸法
 62
     0
370
    -2
100
AcDbLine
 10
494.4681320752036
 20
301.7474570709881
 30
0.0
 11
494.4681320752036
 21
304.4601779127306
 31
0.0
  0
LINE
  5
1F9F
330
462
100
AcDbEntity
  8
寸法
 62
     0
370
    -2
100
AcDbLine
 10
470.4681320752036
 20
303.9601779127306
 30
0.0
 11
493.4681320752036
 21
303.9601779127306
 31
0.0
  0
SOLID
  5
1FA0
330
462
100
AcDbEntity
  8
寸法
 62
     0
100
AcDbTrace
 10
470.4681320752036
 20
304.1268445793973
 30
0.0
 11
470.4681320752036
 21
303.7935112460639
 31
0.0
 12
469.4681320752036
 22
303.9601779127306
 32
0.0
 13
469.4681320752036
 23
303.9601779127306
 33
0.0
  0
SOLID
  5
1FA1
330
462
100
AcDbEntity
  8
寸法
 62
     0
100
AcDbTrace
 10
493.4681320752036
 20
304.1268445793973
 30
0.0
 11
493.4681320752036
 21
303.7935112460639
 31
0.0
 12
494.4681320752036
 22
303.9601779127306
 32
0.0
 13
494.4681320752036
 23
303.9601779127306
 33
0.0
  0
MTEXT
  5
1FA2
330
462
100
AcDbEntity
  8
寸法
 62
     0
100
AcDbMText
 10
481.9681320752036
 20
304.5101779127306
 30
0.0
 40
0.7
 41
0.0
 71
     5
 72
     1
  1
25Max
 73
     1
 44
1.0
  0
POINT
  5
1FA3
330
462
100
AcDbEntity
  8
Defpoints
 62
     0
100
AcDbPoint
 10
469.4681320752036
 20
299.2474570709881
 30
0.0
  0
POINT
  5
1FA4
330
462
100
AcDbEntity
  8
Defpoints
 62
     0
100
AcDbPoint
 10
494.4681320752036
 20
299.2474570709881
 30
0.0
  0
POINT
  5
1FA5
330
462
100
AcDbEntity
  8
Defpoints
 62
     0
100
AcDbPoint
 10
494.4681320752036
 20
303.9601779127306
 30
0.0
  0
ENDBLK
  5
46D
330
462
100
AcDbEntity
  8
0
 62
     5
100
AcDbBlockEnd
  0
BLOCK
  5
4CD
330
4C3
100
AcDbEntity
  8
0
 62
     5
100
AcDbBlockBegin
  2
*D2
 70
     1
 10
0.0
 20
0.0
 30
0.0
  3
*D2
  1

  0
LINE
  5
1F5C
330
4C3
100
AcDbEntity
  8
寸法
 62
     0
370
    -2
100
AcDbLine
 10
492.4881320752038
 20
277.2474570709881
 30
0.0
 11
498.1333125618481
 21
277.2474570709881
 31
0.0
  0
LINE
  5
1F5D
330
4C3
100
AcDbEntity
  8
寸法
 62
     0
370
    -2
100
AcDbLine
 10
492.4881320752038
 20
273.247457070988
 30
0.0
 11
498.1333125618481
 21
273.247457070988
 31
0.0
  0
LINE
  5
1F5E
330
4C3
100
AcDbEntity
  8
寸法
 62
     0
370
    -2
100
AcDbLine
 10
497.6333125618481
 20
276.2474570709881
 30
0.0
 11
497.6333125618481
 21
274.247457070988
 31
0.0
  0
SOLID
  5
1F5F
330
4C3
100
AcDbEntity
  8
寸法
 62
     0
100
AcDbTrace
 10
497.4666458951814
 20
276.2474570709881
 30
0.0
 11
497.7999792285148
 21
276.2474570709881
 31
0.0
 12
497.6333125618481
 22
277.2474570709881
 32
0.0
 13
497.6333125618481
 23
277.2474570709881
 33
0.0
  0
SOLID
  5
1F60
330
4C3
100
AcDbEntity
  8
寸法
 62
     0
100
AcDbTrace
 10
497.4666458951814
 20
274.247457070988
 30
0.0
 11
497.7999792285148
 21
274.247457070988
 31
0.0
 12
497.6333125618481
 22
273.247457070988
 32
0.0
 13
497.6333125618481
 23
273.247457070988
 33
0.0
  0
MTEXT
  5
1F61
330
4C3
100
AcDbEntity
  8
寸法
 62
     0
100
AcDbMText
 10
497.083312561848
 20
275.2474570709881
 30
0.0
 40
0.7
 41
0.0
 71
     5
 72
     1
  1
4
 11
0.0000000000000001
 21
1.0
 31
0.0
 73
     1
 44
1.0
  0
POINT
  5
1F62
330
4C3
100
AcDbEntity
  8
Defpoints
 62
     0
100
AcDbPoint
 10
489.9881320752038
 20
277.2474570709881
 30
0.0
  0
POINT
  5
1F63
330
4C3
100
AcDbEntity
  8
Defpoints
 62
     0
100
AcDbPoint
 10
489.9881320752037
 20
273.247457070988
 30
0.0
  0
POINT
  5
1F64
330
4C3
100
AcDbEntity
  8
Defpoints
 62
     0
100
AcDbPoint
 10
497.6333125618481
 20
273.247457070988
 30
0.0
  0
ENDBLK
  5
4CE
330
4C3
100
AcDbEntity
  8
0
 62
     5
100
AcDbBlockEnd
  0
BLOCK
  5
547
330
53D
100
AcDbEntity
  8
0
 62
     5
100
AcDbBlockBegin
  2
*D3
 70
     1
 10
0.0
 20
0.0
 30
0.0
  3
*D3
  1

  0
LINE
  5
1FF2
330
53D
100
AcDbEntity
  8
寸法
 62
     0
370
    -2
100
AcDbLine
 10
474.3481320752037
 20
272.747457070988
 30
0.0
 11
474.3481320752037
 21
268.6694496632122
 31
0.0
  0
LINE
  5
1FF3
330
53D
100
AcDbEntity
  8
寸法
 62
     0
370
    -2
100
AcDbLine
 10
476.8881320752036
 20
272.747457070988
 30
0.0
 11
476.8881320752036
 21
268.6694496632122
 31
0.0
  0
LINE
  5
1FF4
330
53D
100
AcDbEntity
  8
寸法
 62
     0
370
    -2
100
AcDbLine
 10
475.8881320752037
 20
269.1694496632122
 30
0.0
 11
475.3481320752037
 21
269.1694496632122
 31
0.0
  0
LINE
  5
1FF5
330
53D
100
AcDbEntity
  8
寸法
 62
     0
370
    -2
100
AcDbLine
 10
474.3481320752037
 20
269.1694496632122
 30
0.0
 11
470.8481320752037
 21
269.1694496632122
 31
0.0
  0
SOLID
  5
1FF6
330
53D
100
AcDbEntity
  8
寸法
 62
     0
100
AcDbTrace
 10
475.8881320752037
 20
269.3361163298789
 30
0.0
 11
475.8881320752037
 21
269.0027829965455
 31
0.0
 12
476.8881320752036
 22
269.1694496632122
 32
0.0
 13
476.8881320752036
 23
269.1694496632122
 33
0.0
  0
SOLID
  5
1FF7
330
53D
100
AcDbEntity
  8
寸法
 62
     0
100
AcDbTrace
 10
475.3481320752037
 20
269.3361163298789
 30
0.0
 11
475.3481320752037
 21
269.0027829965455
 31
0.0
 12
474.3481320752037
 22
269.1694496632122
 32
0.0
 13
474.3481320752037
 23
269.1694496632122
 33
0.0
  0
MTEXT
  5
1FF8
330
53D
100
AcDbEntity
  8
寸法
 62
     0
100
AcDbMText
 10
472.0981320752037
 20
269.7194496632122
 30
0.0
 40
0.7
 41
0.0
 71
     5
 72
     1
  1
2.54
 73
     1
 44
1.0
  0
POINT
  5
1FF9
330
53D
100
AcDbEntity
  8
Defpoints
 62
     0
100
AcDbPoint
 10
474.3481320752037
 20
273.247457070988
 30
0.0
  0
POINT
  5
1FFA
330
53D
100
AcDbEntity
  8
Defpoints
 62
     0
100
AcDbPoint
 10
476.8881320752036
 20
273.247457070988
 30
0.0
  0
POINT
  5
1FFB
330
53D
100
AcDbEntity
  8
Defpoints
 62
     0
100
AcDbPoint
 10
476.8881320752036
 20
269.1694496632122
 30
0.0
  0
ENDBLK
  5
548
330
53D
100
AcDbEntity
  8
0
 62
     5
100
AcDbBlockEnd
  0
BLOCK
  5
553
330
549
100
AcDbEntity
  8
0
 62
     5
100
AcDbBlockBegin
  2
*D4
 70
     1
 10
0.0
 20
0.0
 30
0.0
  3
*D4
  1

  0
LINE
  5
1FFC
330
549
100
AcDbEntity
  8
寸法
 62
     0
370
    -2
100
AcDbLine
 10
476.8881320752037
 20
272.747457070988
 30
0.0
 11
476.8881320752037
 21
268.6694496632122
 31
0.0
  0
LINE
  5
1FFD
330
549
100
AcDbEntity
  8
寸法
 62
     0
370
    -2
100
AcDbLine
 10
484.5081320752037
 20
272.747457070988
 30
0.0
 11
484.5081320752037
 21
268.6694496632122
 31
0.0
  0
LINE
  5
1FFE
330
549
100
AcDbEntity
  8
寸法
 62
     0
370
    -2
100
AcDbLine
 10
477.8881320752037
 20
269.1694496632122
 30
0.0
 11
483.5081320752038
 21
269.1694496632122
 31
0.0
  0
SOLID
  5
1FFF
330
549
100
AcDbEntity
  8
寸法
 62
     0
100
AcDbTrace
 10
477.8881320752037
 20
269.3361163298789
 30
0.0
 11
477.8881320752037
 21
269.0027829965455
 31
0.0
 12
476.8881320752037
 22
269.1694496632122
 32
0.0
 13
476.8881320752037
 23
269.1694496632122
 33
0.0
  0
SOLID
  5
2000
330
549
100
AcDbEntity
  8
寸法
 62
     0
100
AcDbTrace
 10
483.5081320752038
 20
269.3361163298789
 30
0.0
 11
483.5081320752038
 21
269.0027829965455
 31
0.0
 12
484.5081320752037
 22
269.1694496632122
 32
0.0
 13
484.5081320752037
 23
269.1694496632122
 33
0.0
  0
MTEXT
  5
2001
330
549
100
AcDbEntity
  8
寸法
 62
     0
100
AcDbMText
 10
480.6981320752037
 20
269.7194496632122
 30
0.0
 40
0.7
 41
0.0
 71
     5
 72
     1
  1
7.62
 73
     1
 44
1.0
  0
POINT
  5
2002
330
549
100
AcDbEntity
  8
Defpoints
 62
     0
100
AcDbPoint
 10
476.8881320752037
 20
273.247457070988
 30
0.0
  0
POINT
  5
2003
330
549
100
AcDbEntity
  8
Defpoints
 62
     0
100
AcDbPoint
 10
484.5081320752037
 20
273.247457070988
 30
0.0
  0
POINT
  5
2004
330
549
100
AcDbEntity
  8
Defpoints
 62
     0
100
AcDbPoint
 10
484.5081320752037
 20
269.1694496632122
 30
0.0
  0
ENDBLK
  5
554
330
549
100
AcDbEntity
  8
0
 62
     5
100
AcDbBlockEnd
  0
BLOCK
  5
55F
330
555
100
AcDbEntity
  8
0
 62
     5
100
AcDbBlockBegin
  2
*D5
 70
     1
 10
0.0
 20
0.0
 30
0.0
  3
*D5
  1

  0
LINE
  5
2005
330
555
100
AcDbEntity
  8
寸法
 62
     0
370
    -2
100
AcDbLine
 10
484.5081320752037
 20
272.747457070988
 30
0.0
 11
484.5081320752037
 21
268.6694496632122
 31
0.0
  0
LINE
  5
2006
330
555
100
AcDbEntity
  8
寸法
 62
     0
370
    -2
100
AcDbLine
 10
489.5881320752037
 20
272.747457070988
 30
0.0
 11
489.5881320752037
 21
268.6694496632122
 31
0.0
  0
LINE
  5
2007
330
555
100
AcDbEntity
  8
寸法
 62
     0
370
    -2
100
AcDbLine
 10
485.5081320752037
 20
269.1694496632122
 30
0.0
 11
488.5881320752037
 21
269.1694496632122
 31
0.0
  0
SOLID
  5
2008
330
555
100
AcDbEntity
  8
寸法
 62
     0
100
AcDbTrace
 10
485.5081320752037
 20
269.3361163298789
 30
0.0
 11
485.5081320752037
 21
269.0027829965455
 31
0.0
 12
484.5081320752037
 22
269.1694496632122
 32
0.0
 13
484.5081320752037
 23
269.1694496632122
 33
0.0
  0
SOLID
  5
2009
330
555
100
AcDbEntity
  8
寸法
 62
     0
100
AcDbTrace
 10
488.5881320752037
 20
269.3361163298789
 30
0.0
 11
488.5881320752037
 21
269.0027829965455
 31
0.0
 12
489.5881320752037
 22
269.1694496632122
 32
0.0
 13
489.5881320752037
 23
269.1694496632122
 33
0.0
  0
MTEXT
  5
200A
330
555
100
AcDbEntity
  8
寸法
 62
     0
100
AcDbMText
 10
487.0481320752037
 20
269.7194496632122
 30
0.0
 40
0.7
 41
0.0
 71
     5
 72
     1
  1
5.08
 73
     1
 44
1.0
  0
POINT
  5
200B
330
555
100
AcDbEntity
  8
Defpoints
 62
     0
100
AcDbPoint
 10
484.5081320752037
 20
273.247457070988
 30
0.0
  0
POINT
  5
200C
330
555
100
AcDbEntity
  8
Defpoints
 62
     0
100
AcDbPoint
 10
489.5881320752037
 20
273.247457070988
 30
0.0
  0
POINT
  5
200D
330
555
100
AcDbEntity
  8
Defpoints
 62
     0
100
AcDbPoint
 10
489.5881320752037
 20
269.1694496632122
 30
0.0
  0
ENDBLK
  5
560
330
555
100
AcDbEntity
  8
0
 62
     5
100
AcDbBlockEnd
  0
BLOCK
  5
706
330
6FA
100
AcDbEntity
  8
0
 62
     5
100
AcDbBlockBegin
  2
*D6
 70
     1
 10
0.0
 20
0.0
 30
0.0
  3
*D6
  1

  0
LINE
  5
1F81
330
6FA
100
AcDbEntity
  8
寸法
 62
     0
370
    -2
100
AcDbLine
 10
474.7481320752037
 20
275.7474570709881
 30
0.0
 11
474.7481320752037
 21
274.3142448906517
 31
0.0
  0
LINE
  5
1F82
330
6FA
100
AcDbEntity
  8
寸法
 62
     0
370
    -2
100
AcDbLine
 10
473.9481320752036
 20
275.7474570709881
 30
0.0
 11
473.9481320752036
 21
274.3142448906517
 31
0.0
  0
LINE
  5
1F83
330
6FA
100
AcDbEntity
  8
寸法
 62
     0
370
    -2
100
AcDbLine
 10
475.7481320752037
 20
273.8142448906517
 30
0.0
 11
476.7481320752038
 21
273.8142448906517
 31
0.0
  0
LINE
  5
1F84
330
6FA
100
AcDbEntity
  8
寸法
 62
     0
370
    -2
100
AcDbLine
 10
472.9481320752036
 20
273.8142448906517
 30
0.0
 11
470.2647987418703
 21
273.8142448906517
 31
0.0
  0
SOLID
  5
1F85
330
6FA
100
AcDbEntity
  8
寸法
 62
     0
100
AcDbTrace
 10
475.7481320752037
 20
273.9809115573184
 30
0.0
 11
475.7481320752037
 21
273.647578223985
 31
0.0
 12
474.7481320752037
 22
273.8142448906517
 32
0.0
 13
474.7481320752037
 23
273.8142448906517
 33
0.0
  0
SOLID
  5
1F86
330
6FA
100
AcDbEntity
  8
寸法
 62
     0
100
AcDbTrace
 10
472.9481320752036
 20
273.9809115573184
 30
0.0
 11
472.9481320752036
 21
273.647578223985
 31
0.0
 12
473.9481320752036
 22
273.8142448906517
 32
0.0
 13
473.9481320752036
 23
273.8142448906517
 33
0.0
  0
MTEXT
  5
1F87
330
6FA
100
AcDbEntity
  8
寸法
 62
     0
100
AcDbMText
 10
471.106465408537
 20
274.3642448906517
 30
0.0
 40
0.7
 41
0.0
 71
     5
 72
     1
  1
0.8
 73
     1
 44
1.0
  0
POINT
  5
1F88
330
6FA
100
AcDbEntity
  8
Defpoints
 62
     0
100
AcDbPoint
 10
474.7481320752037
 20
273.2474570709881
 30
0.0
  0
POINT
  5
1F89
330
6FA
100
AcDbEntity
  8
Defpoints
 62
     0
100
AcDbPoint
 10
473.9481320752036
 20
273.2474570709881
 30
0.0
  0
POINT
  5
1F8A
330
6FA
100
AcDbEntity
  8
Defpoints
 62
     0
100
AcDbPoint
 10
473.9481320752036
 20
273.8142448906517
 30
0.0
  0
ENDBLK
  5
707
330
6FA
100
AcDbEntity
  8
0
 62
     5
100
AcDbBlockEnd
  0
BLOCK
  5
74F
330
745
100
AcDbEntity
  8
0
 62
     5
100
AcDbBlockBegin
  2
*D7
 70
     1
 10
0.0
 20
0.0
 30
0.0
  3
*D7
  1

  0
LINE
  5
2022
330
745
100
AcDbEntity
  8
寸法
 62
     0
370
    -2
100
AcDbLine
 10
508.6838593277486
 20
302.2474570709881
 30
0.0
 11
508.6838593277486
 21
304.4601779127306
 31
0.0
  0
LINE
  5
2023
330
745
100
AcDbEntity
  8
寸法
 62
     0
370
    -2
100
AcDbLine
 10
516.6838593277486
 20
302.2474570709881
 30
0.0
 11
516.6838593277486
 21
304.4601779127306
 31
0.0
  0
LINE
  5
2024
330
745
100
AcDbEntity
  8
寸法
 62
     0
370
    -2
100
AcDbLine
 10
509.6838593277486
 20
303.9601779127306
 30
0.0
 11
515.6838593277487
 21
303.9601779127306
 31
0.0
  0
SOLID
  5
2025
330
745
100
AcDbEntity
  8
寸法
 62
     0
100
AcDbTrace
 10
509.6838593277486
 20
304.1268445793973
 30
0.0
 11
509.6838593277486
 21
303.7935112460639
 31
0.0
 12
508.6838593277486
 22
303.9601779127306
 32
0.0
 13
508.6838593277486
 23
303.9601779127306
 33
0.0
  0
SOLID
  5
2026
330
745
100
AcDbEntity
  8
寸法
 62
     0
100
AcDbTrace
 10
515.6838593277487
 20
304.1268445793973
 30
0.0
 11
515.6838593277487
 21
303.7935112460639
 31
0.0
 12
516.6838593277486
 22
303.9601779127306
 32
0.0
 13
516.6838593277486
 23
303.9601779127306
 33
0.0
  0
MTEXT
  5
2027
330
745
100
AcDbEntity
  8
寸法
 62
     0
100
AcDbMText
 10
512.6838593277486
 20
304.5101779127306
 30
0.0
 40
0.7
 41
0.0
 71
     5
 72
     1
  1
8Max
 73
     1
 44
1.0
  0
POINT
  5
2028
330
745
100
AcDbEntity
  8
Defpoints
 62
     0
100
AcDbPoint
 10
508.6838593277486
 20
300.247457070988
 30
0.0
  0
POINT
  5
2029
330
745
100
AcDbEntity
  8
Defpoints
 62
     0
100
AcDbPoint
 10
516.6838593277486
 20
300.2474570709881
 30
0.0
  0
POINT
  5
202A
330
745
100
AcDbEntity
  8
Defpoints
 62
     0
100
AcDbPoint
 10
516.6838593277486
 20
303.9601779127306
 30
0.0
  0
ENDBLK
  5
750
330
745
100
AcDbEntity
  8
0
 62
     5
100
AcDbBlockEnd
  0
BLOCK
  5
79D
330
791
100
AcDbEntity
  8
0
 62
     5
100
AcDbBlockBegin
  2
*D8
 70
     1
 10
0.0
 20
0.0
 30
0.0
  3
*D8
  1

  0
LINE
  5
1F95
330
791
100
AcDbEntity
  8
寸法
 62
     0
370
    -2
100
AcDbLine
 10
511.4338593277486
 20
277.247457070988
 30
0.0
 11
511.4338593277486
 21
275.8142448906515
 31
0.0
  0
LINE
  5
1F96
330
791
100
AcDbEntity
  8
寸法
 62
     0
370
    -2
100
AcDbLine
 10
512.4338593277486
 20
275.3142448906515
 30
0.0
 11
515.1171926610818
 21
275.3142448906515
 31
0.0
  0
LINE
  5
1F97
330
791
100
AcDbEntity
  8
寸法
 62
     0
370
    -2
100
AcDbLine
 10
511.4338593277486
 20
275.3142448906515
 30
0.0
 11
515.1171926610818
 21
275.3142448906515
 31
0.0
  0
SOLID
  5
1F98
330
791
100
AcDbEntity
  8
寸法
 62
     0
100
AcDbTrace
 10
512.4338593277486
 20
275.4809115573182
 30
0.0
 11
512.4338593277486
 21
275.1475782239849
 31
0.0
 12
511.4338593277486
 22
275.3142448906515
 32
0.0
 13
511.4338593277486
 23
275.3142448906515
 33
0.0
  0
MTEXT
  5
1F99
330
791
100
AcDbEntity
  8
寸法
 62
     0
100
AcDbMText
 10
514.2755259944152
 20
275.8642448906515
 30
0.0
 40
0.7
 41
0.0
 71
     5
 72
     1
  1
0.5
 73
     1
 44
1.0
  0
POINT
  5
1F9A
330
791
100
AcDbEntity
  8
Defpoints
 62
     0
100
AcDbPoint
 10
511.4338593277486
 20
274.747457070988
 30
0.0
  0
POINT
  5
1F9B
330
791
100
AcDbEntity
  8
Defpoints
 62
     0
100
AcDbPoint
 10
511.4338593277486
 20
274.747457070988
 30
0.0
  0
POINT
  5
1F9C
330
791
100
AcDbEntity
  8
Defpoints
 62
     0
100
AcDbPoint
 10
511.4338593277486
 20
275.3142448906515
 30
0.0
  0
ENDBLK
  5
79E
330
791
100
AcDbEntity
  8
0
 62
     5
100
AcDbBlockEnd
  0
BLOCK
  5
84D
330
841
100
AcDbEntity
  8
0
 62
     5
100
AcDbBlockBegin
  2
*D9
 70
     1
 10
0.0
 20
0.0
 30
0.0
  3
*D9
  1

  0
LINE
  5
2018
330
841
100
AcDbEntity
  8
寸法
 62
     0
370
    -2
100
AcDbLine
 10
508.6838593277485
 20
278.7474570709881
 30
0.0
 11
508.6838593277485
 21
268.6694496632122
 31
0.0
  0
LINE
  5
2019
330
841
100
AcDbEntity
  8
寸法
 62
     0
370
    -2
100
AcDbLine
 10
511.1838593277484
 20
272.247457070988
 30
0.0
 11
511.1838593277484
 21
268.6694496632122
 31
0.0
  0
LINE
  5
201A
330
841
100
AcDbEntity
  8
寸法
 62
     0
370
    -2
100
AcDbLine
 10
509.6838593277486
 20
269.1694496632122
 30
0.0
 11
510.1838593277484
 21
269.1694496632122
 31
0.0
  0
LINE
  5
201B
330
841
100
AcDbEntity
  8
寸法
 62
     0
370
    -2
100
AcDbLine
 10
511.1838593277484
 20
269.1694496632122
 30
0.0
 11
514.6080113205838
 21
269.1694496632122
 31
0.0
  0
SOLID
  5
201C
330
841
100
AcDbEntity
  8
寸法
 62
     0
100
AcDbTrace
 10
509.6838593277486
 20
269.3361163298789
 30
0.0
 11
509.6838593277486
 21
269.0027829965455
 31
0.0
 12
508.6838593277485
 22
269.1694496632122
 32
0.0
 13
508.6838593277485
 23
269.1694496632122
 33
0.0
  0
SOLID
  5
201D
330
841
100
AcDbEntity
  8
寸法
 62
     0
100
AcDbTrace
 10
510.1838593277484
 20
269.3361163298789
 30
0.0
 11
510.1838593277484
 21
269.0027829965455
 31
0.0
 12
511.1838593277484
 22
269.1694496632122
 32
0.0
 13
511.1838593277484
 23
269.1694496632122
 33
0.0
  0
MTEXT
  5
201E
330
841
100
AcDbEntity
  8
寸法
 62
     0
100
AcDbMText
 10
514.2913446539172
 20
269.7194496632122
 30
0.0
 40
0.7
 41
0.0
 71
     5
 72
     1
  1
1
 73
     1
 44
1.0
  0
POINT
  5
201F
330
841
100
AcDbEntity
  8
Defpoints
 62
     0
100
AcDbPoint
 10
508.6838593277485
 20
279.747457070988
 30
0.0
  0
POINT
  5
2020
330
841
100
AcDbEntity
  8
Defpoints
 62
     0
100
AcDbPoint
 10
511.1838593277484
 20
273.247457070988
 30
0.0
  0
POINT
  5
2021
330
841
100
AcDbEntity
  8
Defpoints
 62
     0
100
AcDbPoint
 10
511.1838593277484
 20
269.1694496632122
 30
0.0
  0
ENDBLK
  5
84E
330
841
100
AcDbEntity
  8
0
 62
     5
100
AcDbBlockEnd
  0
BLOCK
  5
1C31
330
1C30
100
AcDbEntity
  8
0
 62
     5
100
AcDbBlockBegin
  2
_None
 70
     0
 10
0.0
 20
0.0
 30
0.0
  3
_None
  1

  0
ENDBLK
  5
1C32
330
1C30
100
AcDbEntity
  8
0
 62
     5
100
AcDbBlockEnd
  0
ENDSEC
  0
SECTION
  2
ENTITIES
  0
MTEXT
  5
CA
330
1F
100
AcDbEntity
  8
外形
100
AcDbMText
 10
485.7556596497618
 20
272.1455976787055
 30
0.0
 40
0.7
 41
0.5
 71
     5
 72
     5
  1
{\fＭＳ ゴシック|b0|i0|c128|p49;2}
 73
     1
 44
1.0
  0
MTEXT
  5
F7
330
1F
100
AcDbEntity
  8
外形
100
AcDbMText
 10
467.619106209026
 20
314.593044873069
 30
0.0
 40
2.5
 41
15.32881114699549
 71
     5
 72
     5
  1
{\fMS UI Gothic|b0|i0|c128|p17;外形寸法}
 73
     1
 44
1.0
  0
DIMENSION
  5
454
330
1F
100
AcDbEntity
  8
寸法
 62
     5
100
AcDbDimension
  2
*D1
 10
494.4681320752036
 20
303.9601779127306
 30
0.0
 11
481.9681320752036
 21
304.5101779127306
 31
0.0
 70
    32
 71
     5
 42
25.0
  3
ISO-25
100
AcDbAlignedDimension
 13
469.4681320752036
 23
299.2474570709881
 33
0.0
 14
494.4681320752036
 24
299.2474570709881
 34
0.0
100
AcDbRotatedDimension
1001
ACAD
1000
DSTYLE
1002
{
1070
     3
1000
Max
1002
}
  0
DIMENSION
  5
455
330
1F
100
AcDbEntity
  8
寸法
 62
     5
100
AcDbDimension
  2
*D0
 10
497.6333125618481
 20
277.2474570709881
 30
0.0
 11
497.083312561848
 21
289.2474570709882
 31
0.0
 70
    32
 71
     5
 42
24.00000000000005
  3
ISO-25
100
AcDbAlignedDimension
 13
492.4681320752036
 23
301.2474570709881
 33
0.0
 14
494.4681320752037
 24
277.2474570709881
 34
0.0
 50
90.0
100
AcDbRotatedDimension
1001
ACAD
1000
DSTYLE
1002
{
1070
     3
1000
Max
1002
}
  0
DIMENSION
  5
4BF
330
1F
100
AcDbEntity
  8
寸法
 62
     5
100
AcDbDimension
  2
*D2
 10
497.6333125618481
 20
273.247457070988
 30
0.0
 11
497.083312561848
 21
275.2474570709881
 31
0.0
 70
    32
 71
     5
 42
4.000000000000113
  3
ISO-25
100
AcDbAlignedDimension
 13
489.9881320752038
 23
277.2474570709881
 33
0.0
 14
489.9881320752037
 24
273.247457070988
 34
0.0
 50
90.0
100
AcDbRotatedDimension
  0
DIMENSION
  5
53A
330
1F
100
AcDbEntity
  8
寸法
 62
     5
100
AcDbDimension
  2
*D4
 10
484.5081320752037
 20
269.1694496632122
 30
0.0
 11
480.6981320752037
 21
269.7194496632122
 31
0.0
 70
    32
 71
     5
 42
7.620000000000004
  3
ISO-25
100
AcDbAlignedDimension
 13
476.8881320752037
 23
273.247457070988
 33
0.0
 14
484.5081320752037
 24
273.247457070988
 34
0.0
100
AcDbRotatedDimension
1001
ACAD
1000
DSTYLE
1002
{
1070
    42
1040
0.5
1002
}
  0
DIMENSION
  5
53B
330
1F
100
AcDbEntity
  8
寸法
 62
     5
100
AcDbDimension
  2
*D5
 10
489.5881320752037
 20
269.1694496632122
 30
0.0
 11
487.0481320752037
 21
269.7194496632122
 31
0.0
 70
    32
 71
     5
 42
5.079999999999984
  3
ISO-25
100
AcDbAlignedDimension
 13
484.5081320752037
 23
273.247457070988
 33
0.0
 14
489.5881320752037
 24
273.247457070988
 34
0.0
100
AcDbRotatedDimension
1001
ACAD
1000
DSTYLE
1002
{
1070
    42
1040
0.5
1002
}
  0
DIMENSION
  5
53C
330
1F
100
AcDbEntity
  8
寸法
 62
     5
100
AcDbDimension
  2
*D3
 10
476.8881320752036
 20
269.1694496632122
 30
0.0
 11
472.0981320752037
 21
269.1694496632122
 31
0.0
 70
   160
 71
     5
 42
2.539999999999963
  3
ISO-25
100
AcDbAlignedDimension
 13
474.3481320752037
 23
273.247457070988
 33
0.0
 14
476.8881320752036
 24
273.247457070988
 34
0.0
100
AcDbRotatedDimension
1001
ACAD
1000
DSTYLE
1002
{
1070
    42
1040
0.5
1002
}
  0
CIRCLE
  5
5F2
330
1F
100
AcDbEntity
  8
外形
100
AcDbCircle
 10
485.7556596497618
 20
272.1455976787055
 30
0.0
 40
0.5
  0
LINE
  5
651
330
1F
100
AcDbEntity
  8
外形
 62
     1
100
AcDbLine
 10
474.3481320752038
 20
237.4912011674584
 30
0.0
 11
474.3481320752038
 21
235.4912011674584
 31
0.0
  0
LINE
  5
652
330
1F
100
AcDbEntity
  8
外形
 62
     1
100
AcDbLine
 10
484.5081320752037
 20
237.4912011674584
 30
0.0
 11
484.5081320752037
 21
235.4912011674584
 31
0.0
  0
LINE
  5
654
330
1F
100
AcDbEntity
  8
外形
 62
     1
100
AcDbLine
 10
473.3481320752038
 20
236.4912011674583
 30
0.0
 11
490.5881320752038
 21
236.4912011674583
 31
0.0
  0
CIRCLE
  5
657
330
1F
100
AcDbEntity
  8
外形
100
AcDbCircle
 10
476.8881320752037
 20
236.4912011674583
 30
0.0
 40
0.5
  0
LINE
  5
658
330
1F
100
AcDbEntity
  8
外形
 62
     1
100
AcDbLine
 10
476.8881320752037
 20
237.4912011674584
 30
0.0
 11
476.8881320752037
 21
235.4912011674584
 31
0.0
  0
CIRCLE
  5
65A
330
1F
100
AcDbEntity
  8
外形
100
AcDbCircle
 10
489.5881320752038
 20
236.4912011674583
 30
0.0
 40
0.5
  0
LINE
  5
65B
330
1F
100
AcDbEntity
  8
外形
 62
     1
100
AcDbLine
 10
489.5881320752038
 20
237.4912011674584
 30
0.0
 11
489.5881320752038
 21
235.4912011674584
 31
0.0
  0
MTEXT
  5
65D
330
1F
100
AcDbEntity
  8
寸法
 62
     5
100
AcDbMText
 10
494.1991729982489
 20
238.9579262402649
 30
0.0
 40
0.7
 41
0.0
 71
     8
 72
     1
  1
{\fMS UI Gothic|b0|i0|c128|p17;穴径φ1.0}
 73
     2
 44
1.0
  0
CIRCLE
  5
65E
330
1F
100
AcDbEntity
  8
外形
100
AcDbCircle
 10
474.3481320752038
 20
236.4912011674584
 30
0.0
 40
0.5
  0
CIRCLE
  5
661
330
1F
100
AcDbEntity
  8
外形
100
AcDbCircle
 10
484.5081320752037
 20
236.4912011674584
 30
0.0
 40
0.5
  0
MTEXT
  5
6F1
330
1F
100
AcDbEntity
  8
外形
100
AcDbMText
 10
490.8177309508619
 20
272.1455976787055
 30
0.0
 40
0.7
 41
0.5
 71
     5
 72
     5
  1
{\fＭＳ ゴシック|b0|i0|c128|p49;1}
 73
     1
 44
1.0
  0
CIRCLE
  5
6F2
330
1F
100
AcDbEntity
  8
外形
100
AcDbCircle
 10
490.8177309508619
 20
272.1455976787055
 30
0.0
 40
0.5
  0
CIRCLE
  5
6F3
330
1F
100
AcDbEntity
  8
外形
100
AcDbCircle
 10
477.9531365134726
 20
272.1455976787058
 30
0.0
 40
0.5
  0
MTEXT
  5
6F4
330
1F
100
AcDbEntity
  8
外形
100
AcDbMText
 10
477.9531365134726
 20
272.1455976787058
 30
0.0
 40
0.7
 41
0.5
 71
     5
 72
     5
  1
{\fＭＳ ゴシック|b0|i0|c128|p49;3}
 73
     1
 44
1.0
  0
CIRCLE
  5
6F5
330
1F
100
AcDbEntity
  8
外形
100
AcDbCircle
 10
473.007450302038
 20
272.1455976787055
 30
0.0
 40
0.5
  0
MTEXT
  5
6F8
330
1F
100
AcDbEntity
  8
外形
100
AcDbMText
 10
473.007450302038
 20
272.1455976787057
 30
0.0
 40
0.7
 41
0.5
 71
     5
 72
     5
  1
{\fＭＳ ゴシック|b0|i0|c128|p49;4}
 73
     1
 44
1.0
  0
DIMENSION
  5
6F9
330
1F
100
AcDbEntity
  8
寸法
 62
     5
100
AcDbDimension
  2
*D6
 10
473.9481320752036
 20
273.8142448906517
 30
0.0
 11
471.106465408537
 21
274.3642448906517
 31
0.0
 70
    32
 71
     5
 42
0.800000000000125
  3
ISO-25
100
AcDbAlignedDimension
 13
474.7481320752037
 23
273.2474570709881
 33
0.0
 14
473.9481320752036
 24
273.2474570709881
 34
0.0
100
AcDbRotatedDimension
1001
ACAD
1000
DSTYLE
1002
{
1070
   172
1070
     0
1002
}
  0
LINE
  5
740
330
1F
100
AcDbEntity
  8
外形
100
AcDbLine
 10
516.6838593277486
 20
300.2474570709881
 30
0.0
 11
516.6838593277486
 21
279.7474570709882
 31
0.0
  0
LINE
  5
741
330
1F
100
AcDbEntity
  8
外形
100
AcDbLine
 10
509.6838593277486
 20
301.2474570709881
 30
0.0
 11
515.6838593277487
 21
301.2474570709881
 31
0.0
  0
LINE
  5
743
330
1F
100
AcDbEntity
  8
外形
100
AcDbLine
 10
515.6838593277487
 20
278.7474570709882
 30
0.0
 11
511.9870658035504
 21
278.7474570709881
 31
0.0
  0
DIMENSION
  5
744
330
1F
100
AcDbEntity
  8
寸法
 62
     5
100
AcDbDimension
  2
*D7
 10
516.6838593277486
 20
303.9601779127306
 30
0.0
 11
512.6838593277486
 21
304.5101779127306
 31
0.0
 70
    32
 71
     5
 42
8.0
  3
ISO-25
100
AcDbAlignedDimension
 13
508.6838593277486
 23
300.247457070988
 33
0.0
 14
516.6838593277486
 24
300.2474570709881
 34
0.0
100
AcDbRotatedDimension
1001
ACAD
1000
DSTYLE
1002
{
1070
    42
1040
2.0
1070
     3
1000
Max
1002
}
  0
LINE
  5
75A
330
1F
100
AcDbEntity
  8
外形
100
AcDbLine
 10
508.6838593277486
 20
300.247457070988
 30
0.0
 11
508.6838593277485
 21
279.747457070988
 31
0.0
  0
DIMENSION
  5
774
330
1F
100
AcDbEntity
  8
寸法
 62
     5
100
AcDbDimension
  2
*D8
 10
511.4338593277486
 20
275.3142448906515
 30
0.0
 11
514.2755259944152
 21
275.8642448906515
 31
0.0
 70
    32
  1
0.5
 71
     5
 42
0.0
  3
ISO-25
100
AcDbAlignedDimension
 13
511.4338593277486
 23
274.747457070988
 33
0.0
 14
511.4338593277486
 24
274.747457070988
 34
0.0
100
AcDbRotatedDimension
1001
ACAD
1000
DSTYLE
1002
{
1070
   175
1070
     1
1070
    73
1070
     0
1070
   172
1070
     0
1070
    75
1070
     1
1070
   281
1070
     1
1070
   371
1070
    -2
1070
   344
1005
0
1070
   173
1070
     1
1070
   343
1005
1C30
1002
}
  0
DIMENSION
  5
840
330
1F
100
AcDbEntity
  8
寸法
 62
     5
100
AcDbDimension
  2
*D9
 10
511.1838593277484
 20
269.1694496632122
 30
0.0
 11
514.2913446539172
 21
269.1694496632122
 31
0.0
 70
   160
  1
1
 71
     5
 42
2.499999999999829
  3
ISO-25
100
AcDbAlignedDimension
 13
508.6838593277485
 23
279.747457070988
 33
0.0
 14
511.1838593277484
 24
273.247457070988
 34
0.0
100
AcDbRotatedDimension
1001
ACAD
1000
DSTYLE
1002
{
1070
    42
1040
1.0
1002
}
  0
MTEXT
  5
1255
330
1F
100
AcDbEntity
  8
外形
100
AcDbMText
 10
479.9309635310238
 20
253.1988415391493
 30
0.0
 40
2.5
 41
40.49999999999999
 71
     5
 72
     5
  1
{\fMS UI Gothic|b0|i0|c128|p17;プリント基板取付穴寸法図 }
 73
     1
 44
1.0
  0
LINE
  5
1847
330
1F
100
AcDbEntity
  8
外形
100
AcDbLine
 10
494.4681320752037
 20
280.7474570709881
 30
0.0
 11
494.4681320752036
 21
299.2474570709881
 31
0.0
  0
LINE
  5
1849
330
1F
100
AcDbEntity
  8
外形
100
AcDbLine
 10
492.4681320752036
 20
301.2474570709881
 30
0.0
 11
471.4681320752036
 21
301.2474570709881
 31
0.0
  0
LINE
  5
184B
330
1F
100
AcDbEntity
  8
外形
100
AcDbLine
 10
469.4681320752036
 20
299.2474570709881
 30
0.0
 11
469.4681320752037
 21
280.7474570709881
 31
0.0
  0
LINE
  5
1A25
330
1F
100
AcDbEntity
  8
外形
100
AcDbLine
 10
489.9881320752037
 20
273.247457070988
 30
0.0
 11
489.1881320752037
 21
273.247457070988
 31
0.0
  0
LINE
  5
1AA7
330
1F
100
AcDbEntity
  8
外形
100
AcDbLine
 10
471.4681320752037
 20
278.7474570709881
 30
0.0
 11
473.5807785937541
 21
278.7474570709881
 31
0.0
  0
LINE
  5
1AB6
330
1F
100
AcDbEntity
  8
外形
100
AcDbLine
 10
484.9081320752038
 20
273.247457070988
 30
0.0
 11
484.1081320752037
 21
273.247457070988
 31
0.0
  0
LINE
  5
1ABA
330
1F
100
AcDbEntity
  8
外形
100
AcDbLine
 10
476.4881320752039
 20
277.2474570709881
 30
0.0
 11
476.4881320752037
 21
273.247457070988
 31
0.0
  0
LINE
  5
1ABB
330
1F
100
AcDbEntity
  8
外形
100
AcDbLine
 10
477.2881320752039
 20
277.2474570709881
 30
0.0
 11
477.2881320752038
 21
273.247457070988
 31
0.0
  0
LINE
  5
1ABC
330
1F
100
AcDbEntity
  8
外形
100
AcDbLine
 10
477.2881320752038
 20
273.247457070988
 30
0.0
 11
476.4881320752037
 21
273.247457070988
 31
0.0
  0
LINE
  5
1ACA
330
1F
100
AcDbEntity
  8
外形
100
AcDbLine
 10
474.7481320752037
 20
277.2474570709881
 30
0.0
 11
474.7481320752037
 21
273.247457070988
 31
0.0
  0
LINE
  5
1ACB
330
1F
100
AcDbEntity
  8
外形
100
AcDbLine
 10
473.948132075204
 20
277.2474570709881
 30
0.0
 11
473.9481320752036
 21
273.247457070988
 31
0.0
  0
LINE
  5
1ACC
330
1F
100
AcDbEntity
  8
外形
100
AcDbLine
 10
474.7481320752037
 20
273.247457070988
 30
0.0
 11
473.9481320752036
 21
273.247457070988
 31
0.0
  0
LINE
  5
1AE8
330
1F
100
AcDbEntity
  8
外形
100
AcDbLine
 10
484.9081320752038
 20
277.2474570709881
 30
0.0
 11
484.9081320752038
 21
273.247457070988
 31
0.0
  0
LINE
  5
1AE9
330
1F
100
AcDbEntity
  8
外形
100
AcDbLine
 10
484.1081320752038
 20
277.2474570709881
 30
0.0
 11
484.1081320752037
 21
273.247457070988
 31
0.0
  0
LINE
  5
1AF0
330
1F
100
AcDbEntity
  8
外形
100
AcDbLine
 10
489.1881320752038
 20
277.2474570709881
 30
0.0
 11
489.1881320752037
 21
273.247457070988
 31
0.0
  0
LINE
  5
1AF1
330
1F
100
AcDbEntity
  8
外形
100
AcDbLine
 10
489.9881320752037
 20
277.2474570709881
 30
0.0
 11
489.9881320752037
 21
273.247457070988
 31
0.0
  0
ARC
  5
1AFB
330
1F
100
AcDbEntity
  8
外形
100
AcDbCircle
 10
492.4681320752037
 20
280.7474570709881
 30
0.0
 40
2.0
100
AcDbArc
 50
270.0
 51
0.0
  0
ARC
  5
1AFC
330
1F
100
AcDbEntity
  8
外形
100
AcDbCircle
 10
471.4681320752037
 20
280.7474570709881
 30
0.0
 40
2.0
100
AcDbArc
 50
180.0
 51
270.0
  0
LEADER
  5
1B02
330
1F
100
AcDbEntity
  8
寸法
 62
     5
100
AcDbLeader
  3
ISO-25
 76
     3
 10
490.1298596431713
 20
236.9046990913813
 30
0.0
 10
491.9297323605967
 20
238.9579262402649
 30
0.0
 10
496.4336217734728
 20
238.9579262402649
 30
0.0
1001
ACAD
1000
DSTYLE
1002
{
1070
   147
1040
0.2
1070
    77
1070
     0
1002
}
  0
ARC
  5
1B2C
330
1F
100
AcDbEntity
  8
外形
100
AcDbCircle
 10
509.6838593277486
 20
279.747457070988
 30
0.0
 40
1.0
100
AcDbArc
 50
180.0000000000001
 51
270.0000000000006
  0
ARC
  5
1B2D
330
1F
100
AcDbEntity
  8
外形
100
AcDbCircle
 10
515.6838593277487
 20
279.7474570709882
 30
0.0
 40
1.0
100
AcDbArc
 50
270.0000000000005
 51
0.0
  0
ARC
  5
1B2F
330
1F
100
AcDbEntity
  8
外形
100
AcDbCircle
 10
509.6838593277486
 20
300.247457070988
 30
0.0
 40
1.0
100
AcDbArc
 50
90.0
 51
180.0
  0
ARC
  5
1B30
330
1F
100
AcDbEntity
  8
外形
100
AcDbCircle
 10
515.6838593277487
 20
300.2474570709881
 30
0.0
 40
1.0
100
AcDbArc
 50
0.0
 51
90.0
  0
ARC
  5
1B31
330
1F
100
AcDbEntity
  8
外形
100
AcDbCircle
 10
471.4681320752036
 20
299.2474570709881
 30
0.0
 40
2.0
100
AcDbArc
 50
90.0
 51
180.0
  0
ARC
  5
1B32
330
1F
100
AcDbEntity
  8
外形
100
AcDbCircle
 10
492.4681320752036
 20
299.2474570709881
 30
0.0
 40
2.0
100
AcDbArc
 50
0.0
 51
90.0
  0
LINE
  5
1B48
330
1F
100
AcDbEntity
  8
外形
100
AcDbLine
 10
490.3757830761243
 20
278.7474570709881
 30
0.0
 11
492.4681320752037
 21
278.7474570709881
 31
0.0
  0
LINE
  5
1B49
330
1F
100
AcDbEntity
  8
外形
100
AcDbLine
 10
485.2957830761242
 20
278.7474570709881
 30
0.0
 11
488.8207785937539
 21
278.7474570709881
 31
0.0
  0
LINE
  5
1B4A
330
1F
100
AcDbEntity
  8
外形
100
AcDbLine
 10
477.6757830761243
 20
278.7474570709881
 30
0.0
 11
483.7407785937538
 21
278.7474570709881
 31
0.0
  0
LINE
  5
1B4B
330
1F
100
AcDbEntity
  8
外形
100
AcDbLine
 10
475.1357830761245
 20
278.7474570709881
 30
0.0
 11
476.1207785937539
 21
278.7474570709881
 31
0.0
  0
LINE
  5
1BC7
330
1F
100
AcDbEntity
  8
外形
100
AcDbLine
 10
511.4338593277486
 20
278.147883685993
 30
0.0
 11
511.4338593277484
 21
273.247457070988
 31
0.0
  0
LINE
  5
1BC9
330
1F
100
AcDbEntity
  8
外形
100
AcDbLine
 10
511.4338593277484
 20
273.247457070988
 30
0.0
 11
510.9338593277484
 21
273.247457070988
 31
0.0
  0
LINE
  5
1BD0
330
1F
100
AcDbEntity
  8
外形
100
AcDbLine
 10
510.9338593277485
 20
278.169002417231
 30
0.0
 11
510.9338593277484
 21
273.247457070988
 31
0.0
  0
LINE
  5
1BD3
330
1F
100
AcDbEntity
  8
外形
100
AcDbLine
 10
510.9338593277485
 20
277.247457070988
 30
0.0
 11
511.4338593277486
 21
277.247457070988
 31
0.0
  0
LINE
  5
1BD4
330
1F
100
AcDbEntity
  8
外形
100
AcDbLine
 10
510.9338593277485
 20
277.5474570709878
 30
0.0
 11
511.4338593277486
 21
277.5474570709878
 31
0.0
  0
LINE
  5
1D2A
330
1F
100
AcDbEntity
  8
外形
100
AcDbLine
 10
510.4320613211799
 20
278.7474570709881
 30
0.0
 11
509.6838593277486
 21
278.7474570709881
 31
0.0
  0
SPLINE
  5
1FE5
330
1F
100
AcDbEntity
  8
外形
100
AcDbSpline
210
0.0
220
0.0
230
1.0
 70
     8
 71
     3
 72
    12
 73
     8
 74
     6
 42
0.0000000001
 43
0.0000000001
 44
0.0000000001
 40
0.0
 40
0.0
 40
0.0
 40
0.0
 40
0.4419308939421724
 40
1.076466245230853
 40
1.627943462087929
 40
1.722149614480883
 40
2.178645462794209
 40
2.178645462794209
 40
2.178645462794209
 40
2.178645462794209
 10
473.5807785937541
 20
278.7474570709881
 30
0.0
 10
473.617466202534
 20
278.5935332131007
 30
0.0
 10
473.7068307910055
 20
278.2186016579125
 30
0.0
 10
474.3267761564196
 20
278.113104815883
 30
0.0
 10
474.775559478185
 20
278.1532524001742
 30
0.0
 10
475.0444617776238
 20
278.4125568460749
 30
0.0
 10
475.0943932005716
 20
278.5956690559314
 30
0.0
 10
475.1357830761245
 20
278.7474570709881
 30
0.0
 11
473.5807785937541
 21
278.7474570709881
 31
0.0
 11
473.7448708903185
 21
278.3371198520709
 31
0.0
 11
474.3481320752039
 21
278.1403686008785
 31
0.0
 11
474.88565650257
 21
278.2636350224908
 31
0.0
 11
474.9536021956779
 21
278.3288897689601
 31
0.0
 11
475.1357830761245
 21
278.7474570709881
 31
0.0
  0
ARC
  5
1FE6
330
1F
100
AcDbEntity
  8
外形
100
AcDbCircle
 10
472.9657273375018
 20
278.0447387529844
 30
0.0
 40
1.952594358649356
100
AcDbArc
 50
335.9007094921074
 51
6.893647716862893
  0
ARC
  5
1FE7
330
1F
100
AcDbEntity
  8
外形
100
AcDbCircle
 10
475.7305368129035
 20
278.0447387529844
 30
0.0
 40
1.952594358647125
100
AcDbArc
 50
172.7584557008727
 51
204.0992905079218
  0
ARC
  5
1FE9
330
1F
100
AcDbEntity
  8
外形
100
AcDbCircle
 10
475.5057273375016
 20
278.0447387529844
 30
0.0
 40
1.952594358649356
100
AcDbArc
 50
335.9007094921074
 51
6.893647716862893
  0
ARC
  5
1FEA
330
1F
100
AcDbEntity
  8
外形
100
AcDbCircle
 10
478.2705368129034
 20
278.0447387529844
 30
0.0
 40
1.952594358647125
100
AcDbArc
 50
172.7584557008727
 51
204.0992905079218
  0
SPLINE
  5
1FEB
330
1F
100
AcDbEntity
  8
外形
100
AcDbSpline
210
0.0
220
0.0
230
1.0
 70
     8
 71
     3
 72
    12
 73
     8
 74
     6
 42
0.0000000001
 43
0.0000000001
 44
0.0000000001
 40
0.0
 40
0.0
 40
0.0
 40
0.0
 40
0.4419308939421724
 40
1.076466245230853
 40
1.627943462087929
 40
1.722149614480883
 40
2.178645462794209
 40
2.178645462794209
 40
2.178645462794209
 40
2.178645462794209
 10
476.1207785937539
 20
278.7474570709881
 30
0.0
 10
476.1574662025339
 20
278.5935332131007
 30
0.0
 10
476.2468307910054
 20
278.2186016579125
 30
0.0
 10
476.8667761564195
 20
278.113104815883
 30
0.0
 10
477.3155594781849
 20
278.1532524001742
 30
0.0
 10
477.5844617776236
 20
278.4125568460749
 30
0.0
 10
477.6343932005715
 20
278.5956690559314
 30
0.0
 10
477.6757830761244
 20
278.7474570709881
 30
0.0
 11
476.1207785937539
 21
278.7474570709881
 31
0.0
 11
476.2848708903185
 21
278.3371198520709
 31
0.0
 11
476.8881320752038
 21
278.1403686008785
 31
0.0
 11
477.42565650257
 21
278.2636350224908
 31
0.0
 11
477.4936021956778
 21
278.3288897689601
 31
0.0
 11
477.6757830761244
 21
278.7474570709881
 31
0.0
  0
ARC
  5
1FEC
330
1F
100
AcDbEntity
  8
外形
100
AcDbCircle
 10
483.1257273375015
 20
278.0447387529844
 30
0.0
 40
1.952594358649356
100
AcDbArc
 50
335.9007094921074
 51
6.893647716862893
  0
ARC
  5
1FED
330
1F
100
AcDbEntity
  8
外形
100
AcDbCircle
 10
485.8905368129033
 20
278.0447387529844
 30
0.0
 40
1.952594358647125
100
AcDbArc
 50
172.7584557008725
 51
204.0992905079218
  0
SPLINE
  5
1FEE
330
1F
100
AcDbEntity
  8
外形
100
AcDbSpline
210
0.0
220
0.0
230
1.0
 70
     8
 71
     3
 72
    12
 73
     8
 74
     6
 42
0.0000000001
 43
0.0000000001
 44
0.0000000001
 40
0.0
 40
0.0
 40
0.0
 40
0.0
 40
0.4419308939421724
 40
1.076466245230853
 40
1.627943462087929
 40
1.722149614480883
 40
2.178645462794209
 40
2.178645462794209
 40
2.178645462794209
 40
2.178645462794209
 10
483.7407785937538
 20
278.7474570709881
 30
0.0
 10
483.7774662025338
 20
278.5935332131007
 30
0.0
 10
483.8668307910053
 20
278.2186016579125
 30
0.0
 10
484.4867761564195
 20
278.113104815883
 30
0.0
 10
484.9355594781846
 20
278.1532524001742
 30
0.0
 10
485.2044617776236
 20
278.4125568460749
 30
0.0
 10
485.2543932005714
 20
278.5956690559314
 30
0.0
 10
485.2957830761243
 20
278.7474570709881
 30
0.0
 11
483.7407785937538
 21
278.7474570709881
 31
0.0
 11
483.9048708903184
 21
278.3371198520709
 31
0.0
 11
484.5081320752036
 21
278.1403686008785
 31
0.0
 11
485.0456565025699
 21
278.2636350224908
 31
0.0
 11
485.1136021956777
 21
278.3288897689601
 31
0.0
 11
485.2957830761243
 21
278.7474570709881
 31
0.0
  0
ARC
  5
1FEF
330
1F
100
AcDbEntity
  8
外形
100
AcDbCircle
 10
488.2057273375017
 20
278.0447387529844
 30
0.0
 40
1.952594358649356
100
AcDbArc
 50
335.9007094921074
 51
6.893647716862893
  0
ARC
  5
1FF0
330
1F
100
AcDbEntity
  8
外形
100
AcDbCircle
 10
490.9705368129034
 20
278.0447387529844
 30
0.0
 40
1.952594358647125
100
AcDbArc
 50
172.7584557008727
 51
204.0992905079218
  0
SPLINE
  5
1FF1
330
1F
100
AcDbEntity
  8
外形
100
AcDbSpline
210
0.0
220
0.0
230
1.0
 70
     8
 71
     3
 72
    12
 73
     8
 74
     6
 42
0.0000000001
 43
0.0000000001
 44
0.0000000001
 40
0.0
 40
0.0
 40
0.0
 40
0.0
 40
0.4419308939421724
 40
1.076466245230853
 40
1.627943462087929
 40
1.722149614480883
 40
2.178645462794209
 40
2.178645462794209
 40
2.178645462794209
 40
2.178645462794209
 10
488.8207785937539
 20
278.7474570709881
 30
0.0
 10
488.8574662025339
 20
278.5935332131007
 30
0.0
 10
488.9468307910053
 20
278.2186016579125
 30
0.0
 10
489.5667761564196
 20
278.113104815883
 30
0.0
 10
490.0155594781848
 20
278.1532524001742
 30
0.0
 10
490.2844617776237
 20
278.4125568460749
 30
0.0
 10
490.3343932005714
 20
278.5956690559314
 30
0.0
 10
490.3757830761244
 20
278.7474570709881
 30
0.0
 11
488.8207785937539
 21
278.7474570709881
 31
0.0
 11
488.9848708903184
 21
278.3371198520709
 31
0.0
 11
489.5881320752038
 21
278.1403686008785
 31
0.0
 11
490.12565650257
 21
278.2636350224908
 31
0.0
 11
490.1936021956778
 21
278.3288897689601
 31
0.0
 11
490.3757830761244
 21
278.7474570709881
 31
0.0
  0
SPLINE
  5
202C
330
1F
100
AcDbEntity
  8
外形
100
AcDbSpline
210
0.0
220
0.0
230
1.0
 70
     8
 71
     3
 72
    12
 73
     8
 74
     6
 42
0.0000000001
 43
0.0000000001
 44
0.0000000001
 40
0.0
 40
0.0
 40
0.0
 40
0.0
 40
0.4419308939421724
 40
1.061499942545805
 40
1.628015373550656
 40
1.722221525943611
 40
2.178717374256937
 40
2.178717374256937
 40
2.178717374256937
 40
2.178717374256937
 10
510.4320613211799
 20
278.7474570709881
 30
0.0
 10
510.4686411680315
 20
278.5934482074174
 30
0.0
 10
510.5565044649032
 20
278.2235252125043
 30
0.0
 10
511.172200284439
 20
278.1135502928307
 30
0.0
 10
511.6231407172922
 20
278.1497817263763
 30
0.0
 10
511.8957615980835
 20
278.412521524229
 30
0.0
 10
511.9456836751337
 20
278.5956530468861
 30
0.0
 10
511.9870658035504
 20
278.7474570709881
 30
0.0
 11
510.4320613211799
 21
278.7474570709881
 31
0.0
 11
510.5961536177445
 21
278.3371198520709
 31
0.0
 11
511.1838593277484
 21
278.1409877424703
 31
0.0
 11
511.736939229996
 21
278.2636350224907
 31
0.0
 11
511.8048849231039
 21
278.3288897689601
 31
0.0
 11
511.9870658035504
 21
278.7474570709881
 31
0.0
  0
VIEWPORT
  5
2D8
102
{ACAD_XDICTIONARY
360
305
102
}
330
2D1
100
AcDbEntity
 67
     1
  8
0
 62
     5
100
AcDbViewport
 10
100.1722543522882
 20
143.6910295125843
 30
0.0
 40
391.2694115339002
 41
290.7546280193859
 68
     1
 69
     1
 12
100.1722543522882
 22
143.6910295125843
 13
0.0
 23
0.0
 14
10.0
 24
10.0
 15
10.0
 25
10.0
 16
0.0
 26
0.0
 36
1.0
 17
0.0
 27
0.0
 37
0.0
 42
50.0
 43
0.0
 44
0.0
 45
290.7546280193859
 50
0.0
 51
0.0
 72
   100
 90
    32800
  1

281
     0
 71
     1
 74
     0
110
0.0
120
0.0
130
0.0
111
1.0
121
0.0
131
0.0
112
0.0
122
1.0
132
0.0
 79
     0
146
0.0
  0
VIEWPORT
  5
1D65
330
2D1
100
AcDbEntity
 67
     1
  8
寸法
 62
     5
100
AcDbViewport
 10
100.1712510585784
 20
143.6899168491363
 30
0.0
 40
200.3425021171569
 41
287.3798336982726
 68
     2
 69
     2
 12
483.05123536426
 22
275.9686352130151
 13
0.0
 23
0.0
 14
10.0
 24
10.0
 15
10.0
 25
10.0
 16
0.0
 26
0.0
 36
1.0
 17
0.0
 27
0.0
 37
0.0
 42
50.0
 43
0.0
 44
0.0
 45
98.7828992106157
 50
0.0
 51
0.0
 72
   100
 90
    32864
  1

281
     0
 71
     1
 74
     0
110
0.0
120
0.0
130
0.0
111
1.0
121
0.0
131
0.0
112
0.0
122
1.0
132
0.0
 79
     0
146
0.0
  0
ENDSEC
  0
SECTION
  2
OBJECTS
  0
DICTIONARY
  5
C
330
0
100
AcDbDictionary
281
     1
  3
ACAD_COLOR
350
2EC
  3
ACAD_GROUP
350
D
  3
ACAD_IMAGE_DICT
350
1354
  3
ACAD_IMAGE_VARS
350
1356
  3
ACAD_LAYOUT
350
1A
  3
ACAD_MATERIAL
350
2EB
  3
ACAD_MLINESTYLE
350
17
  3
ACAD_PLOTSETTINGS
350
19
  3
ACAD_PLOTSTYLENAME
350
E
  3
ACAD_TABLESTYLE
350
2F4
  3
AcadDim
350
11D0
  3
AcDbVariableDictionary
350
309
  0
DICTIONARY
  5
305
330
2D8
100
AcDbDictionary
280
     1
281
     1
  3
ACAD_XREC_ROUNDTRIP
360
306
  0
DICTIONARY
  5
2EC
102
{ACAD_REACTORS
330
C
102
}
330
C
100
AcDbDictionary
281
     1
  0
DICTIONARY
  5
D
102
{ACAD_REACTORS
330
C
102
}
330
C
100
AcDbDictionary
281
     1
  0
DICTIONARY
  5
1354
102
{ACAD_REACTORS
330
C
102
}
330
C
100
AcDbDictionary
281
     1
  3
A$C6DFC16C6
350
184E
  0
RASTERVARIABLES
  5
1356
102
{ACAD_REACTORS
330
C
102
}
330
C
100
AcDbRasterVariables
 90
        0
 70
     1
 71
     1
 72
     1
  0
DICTIONARY
  5
1A
102
{ACAD_REACTORS
330
C
102
}
330
C
100
AcDbDictionary
281
     1
  3
Model
350
22
  3
ﾚｲｱｳﾄ2
350
2D2
  0
DICTIONARY
  5
2EB
102
{ACAD_REACTORS
330
C
102
}
330
C
100
AcDbDictionary
281
     1
  0
DICTIONARY
  5
17
102
{ACAD_REACTORS
330
C
102
}
330
C
100
AcDbDictionary
281
     1
  3
Standard
350
18
  0
DICTIONARY
  5
19
102
{ACAD_REACTORS
330
C
102
}
330
C
100
AcDbDictionary
281
     1
  0
ACDBDICTIONARYWDFLT
  5
E
102
{ACAD_REACTORS
330
C
102
}
330
C
100
AcDbDictionary
281
     1
  3
Normal
350
F
100
AcDbDictionaryWithDefault
340
F
  0
DICTIONARY
  5
2F4
102
{ACAD_REACTORS
330
C
102
}
330
C
100
AcDbDictionary
281
     1
  3
Standard
350
2F5
  0
XRECORD
  5
11D0
102
{ACAD_REACTORS
330
C
102
}
330
C
100
AcDbXrecord
280
     1
 90
   990106
  3

 60
     0
 61
     0
 62
     1
 63
     3
 64
     0
 65
     0
 66
     1
 67
     6
 68
     1
 69
     0
 70
     0
 71
     0
 72
     0
 40
0.0
170
     1
  0
DICTIONARY
  5
309
102
{ACAD_REACTORS
330
C
102
}
330
C
100
AcDbDictionary
281
     1
  3
CTABLESTYLE
350
30A
  3
DIMASSOC
350
30B
  3
PROJECTNAME
350
30C
  0
XRECORD
  5
306
102
{ACAD_REACTORS
330
305
102
}
330
305
100
AcDbXrecord
280
     1
102
SHADEPLOT
 70
     0
  0
IMAGEDEF
  5
184E
102
{ACAD_REACTORS
330
1354
102
}
330
1354
100
AcDbRasterImageDef
 90
        0
  1
E:\DOCUME~1\ADMINI~1\LOCALS~1\Temp\A$C6DFC16C6.dib
 10
307.0
 20
286.0
 11
0.003257328990228
 21
0.003257328990228
280
     1
281
     0
  0
LAYOUT
  5
22
102
{ACAD_XDICTIONARY
360
301
102
}
102
{ACAD_REACTORS
330
1A
102
}
330
1A
100
AcDbPlotSettings
  1

  2
Canon LBP-1420(RYU)
  4
A4
  6
QQQQ
 40
5.873749732971191
 41
5.873747825622558
 42
5.873748779296875
 43
5.873748779296875
 44
209.9733276367187
 45
296.9259948730469
 46
-2.24
 47
5.57
 48
459.1731660551266
 49
234.2976412838771
140
519.9841205782884
141
316.5092467196128
142
1.0
143
0.3
 70
 11428
 72
     1
 73
     0
 74
     4
  7
monochrome.ctb
 75
     0
147
3.333333333333333
148
-459.1731660551266
149
-234.2976412838771
100
AcDbLayout
  1
Model
 70
     1
 71
     0
 10
0.0
 20
0.0
 11
12.0
 21
9.0
 12
0.0
 22
0.0
 32
0.0
 14
0.0
 24
0.0
 34
0.0
 15
0.0
 25
0.0
 35
0.0
146
0.0
 13
0.0
 23
0.0
 33
0.0
 16
1.0
 26
0.0
 36
0.0
 17
0.0
 27
1.0
 37
0.0
 76
     0
330
1F
  0
LAYOUT
  5
2D2
102
{ACAD_XDICTIONARY
360
303
102
}
102
{ACAD_REACTORS
330
1A
102
}
330
1A
100
AcDbPlotSettings
  1

  2
none_device
  4
none_user_media
  6

 40
4.773083209991455
 41
4.773089885711669
 42
4.857742309570312
 43
4.7730712890625
 44
209.9733276367187
 45
296.9259948730469
 46
0.0
 47
0.0
 48
0.0
 49
0.0
140
0.0
141
0.0
142
1.0
143
1.0
 70
   688
 72
     1
 73
     0
 74
     5
  7
monochrome.ctb
 75
    16
147
1.0
148
0.0
149
0.0
100
AcDbLayout
  1
ﾚｲｱｳﾄ2
 70
     1
 71
     1
 10
-4.773083209991455
 20
-4.773089885711669
 11
205.2002444267273
 21
292.1529049873352
 12
0.0
 22
0.0
 32
0.0
 14
-0.0022107197171408
 24
-0.0056219074012347
 34
-0.0015258207003583
 15
200.3467194242936
 25
287.3876809325698
 35
0.0000000349246037
146
0.0
 13
0.0
 23
0.0
 33
0.0
 16
1.0
 26
0.0
 36
0.0
 17
0.0
 27
1.0
 37
0.0
 76
     0
330
2D1
331
2D8
  0
MLINESTYLE
  5
18
102
{ACAD_REACTORS
330
17
102
}
330
17
100
AcDbMlineStyle
  2
STANDARD
 70
     0
  3

 62
   256
 51
90.0
 52
90.0
 71
     2
 49
0.5
 62
   256
  6
BYLAYER
 49
-0.5
 62
   256
  6
BYLAYER
  0
ACDBPLACEHOLDER
  5
F
102
{ACAD_REACTORS
330
E
102
}
330
E
  0
ACAD_PROXY_OBJECT
  5
2F5
102
{ACAD_REACTORS
330
2F4
102
}
330
2F4
100
AcDbProxyObject
 90
      499
 91
      503
 95
   655383
 70
     0
 93
     1841
310
4214DD185B99185C9928000000000000F83F0000000000003E0FC00000000000004901028000000C1008070000C3001FDFF8000000C1003FBFF000000182007F7FE00000030400FEFFC00000060801FDFF8000000C1003FBFF000000182000000000000000C2020B0000001820100E000186003FBFF000000182007F7FE000
310
00030400FEFFC00000060801FDFF8000000C1003FBFF000000182007F7FE0000003040000000000000012404160000003040201C00030C007F7FE00000030400FEFFC00000060801FDFF8000000C1003FBFF000000182007F7FE00000030400FEFFC000000608000
340
11
340
11
340
11
 94
        0
  0
DICTIONARYVAR
  5
30A
102
{ACAD_REACTORS
330
309
102
}
330
309
100
DictionaryVariables
280
     0
  1
STANDARD
  0
DICTIONARYVAR
  5
30B
102
{ACAD_REACTORS
330
309
102
}
330
309
100
DictionaryVariables
280
     0
  1
1
  0
DICTIONARYVAR
  5
30C
102
{ACAD_REACTORS
330
309
102
}
330
309
100
DictionaryVariables
280
     0
  1

  0
DICTIONARY
  5
301
330
22
100
AcDbDictionary
280
     1
281
     1
  3
ACAD_XREC_ROUNDTRIP
360
302
  0
DICTIONARY
  5
303
330
2D2
100
AcDbDictionary
280
     1
281
     1
  3
ACAD_XREC_ROUNDTRIP
360
304
  0
XRECORD
  5
302
102
{ACAD_REACTORS
330
301
102
}
330
301
100
AcDbXrecord
280
     1
102
SHADEPLOT
 70
     0
102
SHADEPLOTRESLEVEL
 70
     2
102
SHADEPLOTCUSTOMDPI
 70
   300
  0
XRECORD
  5
304
102
{ACAD_REACTORS
330
303
102
}
330
303
100
AcDbXrecord
280
     1
102
SHADEPLOT
 70
     0
102
SHADEPLOTRESLEVEL
 70
     2
102
SHADEPLOTCUSTOMDPI
 70
   300
  0
ENDSEC
  0
EOF
