  0
SECTION
  2
HEADER
  9
$ACADVER
  1
AC1015
  9
$ACADMAINTVER
 70
    10
  9
$DWGCODEPAGE
  3
ANSI_932
  9
$INSBASE
 10
0.0
 20
0.0
 30
0.0
  9
$EXTMIN
 10
412.578939183629
 20
165.0883196239447
 30
0.0
  9
$EXTMAX
 10
808.1825417124431
 20
411.1531375296761
 30
0.0
  9
$LIMMIN
 10
0.0
 20
0.0
  9
$LIMMAX
 10
420.0
 20
297.0
  9
$ORTHOMODE
 70
     1
  9
$REGENMODE
 70
     1
  9
$FILLMODE
 70
     1
  9
$QTEXTMODE
 70
     0
  9
$MIRRTEXT
 70
     1
  9
$LTSCALE
 40
1.0
  9
$ATTMODE
 70
     1
  9
$TEXTSIZE
 40
2.5
  9
$TRACEWID
 40
1.0
  9
$TEXTSTYLE
  7
Standard
  9
$CLAYER
  8
寸法
  9
$CELTYPE
  6
ByLayer
  9
$CECOLOR
 62
   256
  9
$CELTSCALE
 40
1.0
  9
$DISPSILH
 70
     0
  9
$DIMSCALE
 40
7.0
  9
$DIMASZ
 40
1.0
  9
$DIMEXO
 40
0.2
  9
$DIMDLI
 40
3.75
  9
$DIMRND
 40
0.0
  9
$DIMDLE
 40
0.0
  9
$DIMEXE
 40
0.5
  9
$DIMTP
 40
0.0
  9
$DIMTM
 40
0.0
  9
$DIMTXT
 40
0.7
  9
$DIMCEN
 40
2.5
  9
$DIMTSZ
 40
0.0
  9
$DIMTOL
 70
     0
  9
$DIMLIM
 70
     0
  9
$DIMTIH
 70
     0
  9
$DIMTOH
 70
     0
  9
$DIMSE1
 70
     0
  9
$DIMSE2
 70
     0
  9
$DIMTAD
 70
     1
  9
$DIMZIN
 70
     8
  9
$DIMBLK
  1

  9
$DIMASO
 70
     1
  9
$DIMSHO
 70
     1
  9
$DIMPOST
  1

  9
$DIMAPOST
  1

  9
$DIMALT
 70
     0
  9
$DIMALTD
 70
     3
  9
$DIMALTF
 40
0.03937007874016
  9
$DIMLFAC
 40
1.0
  9
$DIMTOFL
 70
     1
  9
$DIMTVP
 40
0.0
  9
$DIMTIX
 70
     0
  9
$DIMSOXD
 70
     0
  9
$DIMSAH
 70
     0
  9
$DIMBLK1
  1

  9
$DIMBLK2
  1

  9
$DIMSTYLE
  2
ISO-25
  9
$DIMCLRD
 70
     0
  9
$DIMCLRE
 70
     0
  9
$DIMCLRT
 70
     0
  9
$DIMTFAC
 40
1.0
  9
$DIMGAP
 40
0.2
  9
$DIMJUST
 70
     0
  9
$DIMSD1
 70
     0
  9
$DIMSD2
 70
     0
  9
$DIMTOLJ
 70
     0
  9
$DIMTZIN
 70
     8
  9
$DIMALTZ
 70
     0
  9
$DIMALTTZ
 70
     0
  9
$DIMUPT
 70
     0
  9
$DIMDEC
 70
     2
  9
$DIMTDEC
 70
     2
  9
$DIMALTU
 70
     2
  9
$DIMALTTD
 70
     3
  9
$DIMTXSTY
  7
Standard
  9
$DIMAUNIT
 70
     0
  9
$DIMADEC
 70
     0
  9
$DIMALTRND
 40
0.0
  9
$DIMAZIN
 70
     0
  9
$DIMDSEP
 70
    46
  9
$DIMATFIT
 70
     3
  9
$DIMFRAC
 70
     0
  9
$DIMLDRBLK
  1

  9
$DIMLUNIT
 70
     2
  9
$DIMLWD
 70
    -2
  9
$DIMLWE
 70
    -2
  9
$DIMTMOVE
 70
     0
  9
$LUNITS
 70
     2
  9
$LUPREC
 70
     4
  9
$SKETCHINC
 40
1.0
  9
$FILLETRAD
 40
1.0
  9
$AUNITS
 70
     0
  9
$AUPREC
 70
     0
  9
$MENU
  1
.
  9
$ELEVATION
 40
0.0
  9
$PELEVATION
 40
0.0
  9
$THICKNESS
 40
0.0
  9
$LIMCHECK
 70
     0
  9
$CHAMFERA
 40
0.0
  9
$CHAMFERB
 40
0.0
  9
$CHAMFERC
 40
20.0
  9
$CHAMFERD
 40
0.0
  9
$SKPOLY
 70
     0
  9
$TDCREATE
 40
2453483.907673240
  9
$TDUCREATE
 40
2453483.532673240
  9
$TDUPDATE
 40
2453518.752965127
  9
$TDUUPDATE
 40
2453518.377965127
  9
$TDINDWG
 40
0.1871136111
  9
$TDUSRTIMER
 40
0.1871134259
  9
$USRTIMER
 70
     1
  9
$ANGBASE
 50
0.0
  9
$ANGDIR
 70
     0
  9
$PDMODE
 70
     0
  9
$PDSIZE
 40
0.0
  9
$PLINEWID
 40
0.0
  9
$SPLFRAME
 70
     0
  9
$SPLINETYPE
 70
     6
  9
$SPLINESEGS
 70
     8
  9
$HANDSEED
  5
1A25
  9
$SURFTAB1
 70
     6
  9
$SURFTAB2
 70
     6
  9
$SURFTYPE
 70
     6
  9
$SURFU
 70
     6
  9
$SURFV
 70
     6
  9
$UCSBASE
  2

  9
$UCSNAME
  2

  9
$UCSORG
 10
0.0
 20
0.0
 30
0.0
  9
$UCSXDIR
 10
1.0
 20
0.0
 30
0.0
  9
$UCSYDIR
 10
0.0
 20
1.0
 30
0.0
  9
$UCSORTHOREF
  2

  9
$UCSORTHOVIEW
 70
     0
  9
$UCSORGTOP
 10
0.0
 20
0.0
 30
0.0
  9
$UCSORGBOTTOM
 10
0.0
 20
0.0
 30
0.0
  9
$UCSORGLEFT
 10
0.0
 20
0.0
 30
0.0
  9
$UCSORGRIGHT
 10
0.0
 20
0.0
 30
0.0
  9
$UCSORGFRONT
 10
0.0
 20
0.0
 30
0.0
  9
$UCSORGBACK
 10
0.0
 20
0.0
 30
0.0
  9
$PUCSBASE
  2

  9
$PUCSNAME
  2

  9
$PUCSORG
 10
0.0
 20
0.0
 30
0.0
  9
$PUCSXDIR
 10
1.0
 20
0.0
 30
0.0
  9
$PUCSYDIR
 10
0.0
 20
1.0
 30
0.0
  9
$PUCSORTHOREF
  2

  9
$PUCSORTHOVIEW
 70
     0
  9
$PUCSORGTOP
 10
0.0
 20
0.0
 30
0.0
  9
$PUCSORGBOTTOM
 10
0.0
 20
0.0
 30
0.0
  9
$PUCSORGLEFT
 10
0.0
 20
0.0
 30
0.0
  9
$PUCSORGRIGHT
 10
0.0
 20
0.0
 30
0.0
  9
$PUCSORGFRONT
 10
0.0
 20
0.0
 30
0.0
  9
$PUCSORGBACK
 10
0.0
 20
0.0
 30
0.0
  9
$USERI1
 70
     0
  9
$USERI2
 70
     0
  9
$USERI3
 70
     0
  9
$USERI4
 70
     0
  9
$USERI5
 70
     0
  9
$USERR1
 40
0.0
  9
$USERR2
 40
0.0
  9
$USERR3
 40
0.0
  9
$USERR4
 40
0.0
  9
$USERR5
 40
0.0
  9
$WORLDVIEW
 70
     1
  9
$SHADEDGE
 70
     3
  9
$SHADEDIF
 70
    70
  9
$TILEMODE
 70
     1
  9
$MAXACTVP
 70
    64
  9
$PINSBASE
 10
0.0
 20
0.0
 30
0.0
  9
$PLIMCHECK
 70
     0
  9
$PEXTMIN
 10
0.0
 20
0.0
 30
0.0
  9
$PEXTMAX
 10
200.3425021171569
 20
287.3798336982726
 30
0.0
  9
$PLIMMIN
 10
-4.773083209991455
 20
-4.773089885711669
  9
$PLIMMAX
 10
205.2002444267273
 20
292.1529049873352
  9
$UNITMODE
 70
     0
  9
$VISRETAIN
 70
     1
  9
$PLINEGEN
 70
     0
  9
$PSLTSCALE
 70
     1
  9
$TREEDEPTH
 70
  3020
  9
$CMLSTYLE
  2
Standard
  9
$CMLJUST
 70
     0
  9
$CMLSCALE
 40
20.0
  9
$PROXYGRAPHICS
 70
     1
  9
$MEASUREMENT
 70
     1
  9
$CELWEIGHT
370
    -1
  9
$ENDCAPS
280
     0
  9
$JOINSTYLE
280
     0
  9
$LWDISPLAY
290
     0
  9
$INSUNITS
 70
     4
  9
$HYPERLINKBASE
  1

  9
$STYLESHEET
  1
monochrome.ctb
  9
$XEDIT
290
     1
  9
$CEPSNTYPE
380
     0
  9
$PSTYLEMODE
290
     1
  9
$FINGERPRINTGUID
  2
{FDEAD578-A652-11D2-9A35-0060089B3A3F}
  9
$VERSIONGUID
  2
{8F933D70-4FD2-4B8C-8B3A-B78FC496070B}
  9
$EXTNAMES
290
     1
  9
$PSVPSCALE
 40
0.0
  9
$OLESTARTUP
290
     0
  0
ENDSEC
  0
SECTION
  2
CLASSES
  0
CLASS
  1
ACDBDICTIONARYWDFLT
  2
AcDbDictionaryWithDefault
  3
AutoCAD 2000
 90
        0
280
     0
281
     0
  0
CLASS
  1
ACDBPLACEHOLDER
  2
AcDbPlaceHolder
  3
AutoCAD 2000
 90
        0
280
     0
281
     0
  0
CLASS
  1
LAYOUT
  2
AcDbLayout
  3
AutoCAD 2000
 90
        0
280
     0
281
     0
  0
CLASS
  1
TABLESTYLE
  2
AcDbTableStyle
  3
ObjectDBX Classes
 90
     2047
280
     0
281
     0
  0
CLASS
  1
DICTIONARYVAR
  2
AcDbDictionaryVar
  3
AutoCAD 2000
 90
        0
280
     0
281
     0
  0
ENDSEC
  0
SECTION
  2
TABLES
  0
TABLE
  2
VPORT
  5
8
330
0
100
AcDbSymbolTable
 70
     2
  0
VPORT
  5
1A24
330
8
100
AcDbSymbolTableRecord
100
AcDbViewportTableRecord
  2
*Active
 70
     0
 10
0.0
 20
0.0
 11
1.0
 21
1.0
 12
597.871104895433
 22
287.5186069212085
 13
0.0
 23
0.0
 14
10.0
 24
10.0
 15
10.0
 25
10.0
 16
0.0
 26
0.0
 36
1.0
 17
0.0
 27
0.0
 37
0.0
 40
287.7626586897374
 41
1.561128526645767
 42
50.0
 43
0.0
 44
0.0
 50
0.0
 51
0.0
 71
     0
 72
   100
 73
     1
 74
     3
 75
     0
 76
     0
 77
     0
 78
     0
281
     0
 65
     1
110
0.0
120
0.0
130
0.0
111
1.0
121
0.0
131
0.0
112
0.0
122
1.0
132
0.0
 79
     0
146
0.0
  0
ENDTAB
  0
TABLE
  2
LTYPE
  5
5
330
0
100
AcDbSymbolTable
 70
     2
  0
LTYPE
  5
14
330
5
100
AcDbSymbolTableRecord
100
AcDbLinetypeTableRecord
  2
ByBlock
 70
     0
  3

 72
    65
 73
     0
 40
0.0
  0
LTYPE
  5
15
330
5
100
AcDbSymbolTableRecord
100
AcDbLinetypeTableRecord
  2
ByLayer
 70
     0
  3

 72
    65
 73
     0
 40
0.0
  0
LTYPE
  5
16
330
5
100
AcDbSymbolTableRecord
100
AcDbLinetypeTableRecord
  2
Continuous
 70
     0
  3
Solid line
 72
    65
 73
     0
 40
0.0
  0
LTYPE
  5
79
330
5
100
AcDbSymbolTableRecord
100
AcDbLinetypeTableRecord
  2
CENTER
 70
     0
  3
Center ____ _ ____ _ ____ _ ____ _ ____ _ ____
 72
    65
 73
     4
 40
50.8
 49
31.75
 74
     0
 49
-6.349999999999998
 74
     0
 49
6.349999999999998
 74
     0
 49
-6.349999999999998
 74
     0
  0
ENDTAB
  0
TABLE
  2
LAYER
  5
2
330
0
100
AcDbSymbolTable
 70
     4
  0
LAYER
  5
10
330
2
100
AcDbSymbolTableRecord
100
AcDbLayerTableRecord
  2
0
 70
     0
 62
     7
  6
Continuous
370
    -3
390
F
  0
LAYER
  5
64
330
2
100
AcDbSymbolTableRecord
100
AcDbLayerTableRecord
  2
外形
 70
     0
 62
     7
  6
Continuous
370
    -3
390
F
  0
LAYER
  5
65
330
2
100
AcDbSymbolTableRecord
100
AcDbLayerTableRecord
  2
寸法
 70
     0
 62
     7
  6
Continuous
370
    -3
390
F
  0
LAYER
  5
E3
330
2
100
AcDbSymbolTableRecord
100
AcDbLayerTableRecord
  2
Defpoints
 70
     0
 62
     7
  6
Continuous
290
     0
370
    -3
390
F
  0
ENDTAB
  0
TABLE
  2
STYLE
  5
3
330
0
100
AcDbSymbolTable
 70
     1
  0
STYLE
  5
11
330
3
100
AcDbSymbolTableRecord
100
AcDbTextStyleTableRecord
  2
Standard
 70
     0
 40
0.0
 41
1.0
 50
0.0
 71
     0
 42
2.5
  3
txt
  4

  0
ENDTAB
  0
TABLE
  2
VIEW
  5
6
330
0
100
AcDbSymbolTable
 70
     0
  0
ENDTAB
  0
TABLE
  2
UCS
  5
7
330
0
100
AcDbSymbolTable
 70
     0
  0
ENDTAB
  0
TABLE
  2
APPID
  5
9
330
0
100
AcDbSymbolTable
 70
     1
  0
APPID
  5
12
330
9
100
AcDbSymbolTableRecord
100
AcDbRegAppTableRecord
  2
ACAD
 70
     0
  0
ENDTAB
  0
TABLE
  2
DIMSTYLE
  5
A
330
0
100
AcDbSymbolTable
 70
     1
100
AcDbDimStyleTable
 71
     1
340
27
  0
DIMSTYLE
105
27
102
{ACAD_REACTORS
330
AB5
330
AF3
330
B1B
330
B43
330
C0D
330
C51
330
C84
330
11F6
330
131F
330
E29
330
E2B
330
E32
330
E33
330
B74
102
}
330
A
100
AcDbSymbolTableRecord
100
AcDbDimStyleTableRecord
  2
ISO-25
 70
     0
 40
7.0
 41
1.0
 42
0.2
 43
3.75
 44
0.5
 73
     0
 74
     0
 77
     1
 78
     8
140
0.7
141
2.5
143
0.03937007874016
147
0.2
171
     3
172
     1
271
     2
272
     2
274
     3
283
     0
284
     8
340
11
  0
ENDTAB
  0
TABLE
  2
BLOCK_RECORD
  5
1
330
0
100
AcDbSymbolTable
 70
    10
  0
BLOCK_RECORD
  5
1F
330
1
100
AcDbSymbolTableRecord
100
AcDbBlockTableRecord
  2
*Model_Space
340
22
  0
BLOCK_RECORD
  5
2D1
330
1
100
AcDbSymbolTableRecord
100
AcDbBlockTableRecord
  2
*Paper_Space
340
2D2
  0
BLOCK_RECORD
  5
AB6
330
1
100
AcDbSymbolTableRecord
100
AcDbBlockTableRecord
  2
*D0
340
0
  0
BLOCK_RECORD
  5
AF4
330
1
100
AcDbSymbolTableRecord
100
AcDbBlockTableRecord
  2
*D1
340
0
  0
BLOCK_RECORD
  5
B1C
330
1
100
AcDbSymbolTableRecord
100
AcDbBlockTableRecord
  2
*D2
340
0
  0
BLOCK_RECORD
  5
B44
330
1
100
AcDbSymbolTableRecord
100
AcDbBlockTableRecord
  2
*D3
340
0
  0
BLOCK_RECORD
  5
B75
330
1
100
AcDbSymbolTableRecord
100
AcDbBlockTableRecord
  2
*D4
340
0
  0
BLOCK_RECORD
  5
C0E
330
1
100
AcDbSymbolTableRecord
100
AcDbBlockTableRecord
  2
*D5
340
0
  0
BLOCK_RECORD
  5
C52
330
1
100
AcDbSymbolTableRecord
100
AcDbBlockTableRecord
  2
*D6
340
0
  0
BLOCK_RECORD
  5
C85
330
1
100
AcDbSymbolTableRecord
100
AcDbBlockTableRecord
  2
*D7
340
0
  0
BLOCK_RECORD
  5
1320
330
1
100
AcDbSymbolTableRecord
100
AcDbBlockTableRecord
  2
*D8
340
0
  0
BLOCK_RECORD
  5
132C
330
1
100
AcDbSymbolTableRecord
100
AcDbBlockTableRecord
  2
*D9
340
0
  0
ENDTAB
  0
ENDSEC
  0
SECTION
  2
BLOCKS
  0
BLOCK
  5
20
330
1F
100
AcDbEntity
  8
0
100
AcDbBlockBegin
  2
*Model_Space
 70
     0
 10
0.0
 20
0.0
 30
0.0
  3
*Model_Space
  1

  0
ENDBLK
  5
21
330
1F
100
AcDbEntity
  8
0
100
AcDbBlockEnd
  0
BLOCK
  5
2D3
330
2D1
100
AcDbEntity
 67
     1
  8
0
 62
     5
100
AcDbBlockBegin
  2
*Paper_Space
 70
     0
 10
0.0
 20
0.0
 30
0.0
  3
*Paper_Space
  1

  0
ENDBLK
  5
2D4
330
2D1
100
AcDbEntity
 67
     1
  8
0
 62
     5
100
AcDbBlockEnd
  0
BLOCK
  5
AC0
330
AB6
100
AcDbEntity
  8
0
100
AcDbBlockBegin
  2
*D0
 70
     1
 10
0.0
 20
0.0
 30
0.0
  3
*D0
  1

  0
LINE
  5
1457
330
AB6
100
AcDbEntity
  8
寸法
 62
     0
370
    -2
100
AcDbLine
 10
473.2416581718114
 20
270.3698125793155
 30
0.0
 11
473.2416581718114
 21
313.9161468180328
 31
0.0
  0
LINE
  5
1458
330
AB6
100
AcDbEntity
  8
寸法
 62
     0
370
    -2
100
AcDbLine
 10
495.2416581718114
 20
270.3698125793155
 30
0.0
 11
495.2416581718114
 21
313.9161468180328
 31
0.0
  0
LINE
  5
1459
330
AB6
100
AcDbEntity
  8
寸法
 62
     0
370
    -2
100
AcDbLine
 10
480.2416581718114
 20
310.4161468180328
 30
0.0
 11
488.2416581718114
 21
310.4161468180328
 31
0.0
  0
SOLID
  5
145A
330
AB6
100
AcDbEntity
  8
寸法
 62
     0
100
AcDbTrace
 10
480.2416581718114
 20
311.5828134846995
 30
0.0
 11
480.2416581718114
 21
309.2494801513661
 31
0.0
 12
473.2416581718114
 22
310.4161468180328
 32
0.0
 13
473.2416581718114
 23
310.4161468180328
 33
0.0
  0
SOLID
  5
145B
330
AB6
100
AcDbEntity
  8
寸法
 62
     0
100
AcDbTrace
 10
488.2416581718114
 20
311.5828134846995
 30
0.0
 11
488.2416581718114
 21
309.2494801513661
 31
0.0
 12
495.2416581718114
 22
310.4161468180328
 32
0.0
 13
495.2416581718114
 23
310.4161468180328
 33
0.0
  0
MTEXT
  5
145C
330
AB6
100
AcDbEntity
  8
寸法
 62
     0
100
AcDbMText
 10
484.2416581718114
 20
314.2661468180329
 30
0.0
 40
4.899999999999999
 41
0.0
 71
     5
 72
     1
  1
22
 73
     1
 44
1.0
  0
POINT
  5
145D
330
AB6
100
AcDbEntity
  8
Defpoints
 62
     0
100
AcDbPoint
 10
473.2416581718114
 20
268.9698125793155
 30
0.0
  0
POINT
  5
145E
330
AB6
100
AcDbEntity
  8
Defpoints
 62
     0
100
AcDbPoint
 10
495.2416581718114
 20
268.9698125793155
 30
0.0
  0
POINT
  5
145F
330
AB6
100
AcDbEntity
  8
Defpoints
 62
     0
100
AcDbPoint
 10
495.2416581718114
 20
310.4161468180328
 30
0.0
  0
ENDBLK
  5
AC1
330
AB6
100
AcDbEntity
  8
0
100
AcDbBlockEnd
  0
BLOCK
  5
AFE
330
AF4
100
AcDbEntity
  8
0
100
AcDbBlockBegin
  2
*D1
 70
     1
 10
0.0
 20
0.0
 30
0.0
  3
*D1
  1

  0
LINE
  5
1469
330
AF4
100
AcDbEntity
  8
寸法
 62
     0
370
    -2
100
AcDbLine
 10
466.7416581718113
 20
289.2822221379172
 30
0.0
 11
466.7416581718113
 21
334.9161468180328
 31
0.0
  0
LINE
  5
146A
330
AF4
100
AcDbEntity
  8
寸法
 62
     0
370
    -2
100
AcDbLine
 10
501.7416581718114
 20
289.2822221379172
 30
0.0
 11
501.7416581718114
 21
334.9161468180328
 31
0.0
  0
LINE
  5
146B
330
AF4
100
AcDbEntity
  8
寸法
 62
     0
370
    -2
100
AcDbLine
 10
473.7416581718114
 20
331.4161468180328
 30
0.0
 11
494.7416581718114
 21
331.4161468180328
 31
0.0
  0
SOLID
  5
146C
330
AF4
100
AcDbEntity
  8
寸法
 62
     0
100
AcDbTrace
 10
473.7416581718114
 20
332.5828134846995
 30
0.0
 11
473.7416581718114
 21
330.2494801513661
 31
0.0
 12
466.7416581718113
 22
331.4161468180328
 32
0.0
 13
466.7416581718113
 23
331.4161468180328
 33
0.0
  0
SOLID
  5
146D
330
AF4
100
AcDbEntity
  8
寸法
 62
     0
100
AcDbTrace
 10
494.7416581718114
 20
332.5828134846995
 30
0.0
 11
494.7416581718114
 21
330.2494801513661
 31
0.0
 12
501.7416581718114
 22
331.4161468180328
 32
0.0
 13
501.7416581718114
 23
331.4161468180328
 33
0.0
  0
MTEXT
  5
146E
330
AF4
100
AcDbEntity
  8
寸法
 62
     0
100
AcDbMText
 10
484.2416581718114
 20
335.2661468180329
 30
0.0
 40
4.899999999999999
 41
0.0
 71
     5
 72
     1
  1
35
 73
     1
 44
1.0
  0
POINT
  5
146F
330
AF4
100
AcDbEntity
  8
Defpoints
 62
     0
100
AcDbPoint
 10
466.7416581718113
 20
287.8822221379172
 30
0.0
  0
POINT
  5
1470
330
AF4
100
AcDbEntity
  8
Defpoints
 62
     0
100
AcDbPoint
 10
501.7416581718114
 20
287.8822221379172
 30
0.0
  0
POINT
  5
1471
330
AF4
100
AcDbEntity
  8
Defpoints
 62
     0
100
AcDbPoint
 10
501.7416581718114
 20
331.4161468180328
 30
0.0
  0
ENDBLK
  5
AFF
330
AF4
100
AcDbEntity
  8
0
100
AcDbBlockEnd
  0
BLOCK
  5
B26
330
B1C
100
AcDbEntity
  8
0
100
AcDbBlockBegin
  2
*D2
 70
     1
 10
0.0
 20
0.0
 30
0.0
  3
*D2
  1

  0
LINE
  5
147B
330
B1C
100
AcDbEntity
  8
寸法
 62
     0
370
    -2
100
AcDbLine
 10
460.7416581718115
 20
289.7159989310401
 30
0.0
 11
460.7416581718115
 21
355.9161468180328
 31
0.0
  0
LINE
  5
147C
330
B1C
100
AcDbEntity
  8
寸法
 62
     0
370
    -2
100
AcDbLine
 10
507.7416581718113
 20
289.7159989310401
 30
0.0
 11
507.7416581718113
 21
355.9161468180328
 31
0.0
  0
LINE
  5
147D
330
B1C
100
AcDbEntity
  8
寸法
 62
     0
370
    -2
100
AcDbLine
 10
467.7416581718115
 20
352.4161468180328
 30
0.0
 11
500.7416581718112
 21
352.4161468180328
 31
0.0
  0
SOLID
  5
147E
330
B1C
100
AcDbEntity
  8
寸法
 62
     0
100
AcDbTrace
 10
467.7416581718115
 20
353.5828134846995
 30
0.0
 11
467.7416581718115
 21
351.2494801513661
 31
0.0
 12
460.7416581718115
 22
352.4161468180328
 32
0.0
 13
460.7416581718115
 23
352.4161468180328
 33
0.0
  0
SOLID
  5
147F
330
B1C
100
AcDbEntity
  8
寸法
 62
     0
100
AcDbTrace
 10
500.7416581718112
 20
353.5828134846995
 30
0.0
 11
500.7416581718112
 21
351.2494801513661
 31
0.0
 12
507.7416581718113
 22
352.4161468180328
 32
0.0
 13
507.7416581718113
 23
352.4161468180328
 33
0.0
  0
MTEXT
  5
1480
330
B1C
100
AcDbEntity
  8
寸法
 62
     0
100
AcDbMText
 10
484.2416581718114
 20
356.2661468180329
 30
0.0
 40
4.899999999999999
 41
0.0
 71
     5
 72
     1
  1
47
 73
     1
 44
1.0
  0
POINT
  5
1481
330
B1C
100
AcDbEntity
  8
Defpoints
 62
     0
100
AcDbPoint
 10
460.7416581718115
 20
288.3159989310401
 30
0.0
  0
POINT
  5
1482
330
B1C
100
AcDbEntity
  8
Defpoints
 62
     0
100
AcDbPoint
 10
507.7416581718113
 20
288.3159989310401
 30
0.0
  0
POINT
  5
1483
330
B1C
100
AcDbEntity
  8
Defpoints
 62
     0
100
AcDbPoint
 10
507.7416581718113
 20
352.4161468180328
 30
0.0
  0
ENDBLK
  5
B27
330
B1C
100
AcDbEntity
  8
0
100
AcDbBlockEnd
  0
BLOCK
  5
B4E
330
B44
100
AcDbEntity
  8
0
100
AcDbBlockBegin
  2
*D3
 70
     1
 10
0.0
 20
0.0
 30
0.0
  3
*D3
  1

  0
LINE
  5
1980
330
B44
100
AcDbEntity
  8
寸法
 62
     0
370
    -2
100
AcDbLine
 10
461.9292486132097
 20
284.4698125793155
 30
0.0
 11
436.3789391836291
 21
284.4698125793155
 31
0.0
  0
LINE
  5
1981
330
B44
100
AcDbEntity
  8
寸法
 62
     0
370
    -2
100
AcDbLine
 10
463.0416581718114
 20
194.4698125793155
 30
0.0
 11
436.3789391836291
 21
194.4698125793155
 31
0.0
  0
LINE
  5
1982
330
B44
100
AcDbEntity
  8
寸法
 62
     0
370
    -2
100
AcDbLine
 10
439.8789391836291
 20
277.4698125793155
 30
0.0
 11
439.8789391836291
 21
201.4698125793155
 31
0.0
  0
SOLID
  5
1983
330
B44
100
AcDbEntity
  8
寸法
 62
     0
100
AcDbTrace
 10
438.7122725169624
 20
277.4698125793155
 30
0.0
 11
441.0456058502957
 21
277.4698125793155
 31
0.0
 12
439.8789391836291
 22
284.4698125793155
 32
0.0
 13
439.8789391836291
 23
284.4698125793155
 33
0.0
  0
SOLID
  5
1984
330
B44
100
AcDbEntity
  8
寸法
 62
     0
100
AcDbTrace
 10
438.7122725169624
 20
201.4698125793155
 30
0.0
 11
441.0456058502957
 21
201.4698125793155
 31
0.0
 12
439.8789391836291
 22
194.4698125793155
 32
0.0
 13
439.8789391836291
 23
194.4698125793155
 33
0.0
  0
MTEXT
  5
1985
330
B44
100
AcDbEntity
  8
寸法
 62
     0
100
AcDbMText
 10
436.028939183629
 20
239.4698125793156
 30
0.0
 40
4.899999999999999
 41
0.0
 71
     5
 72
     1
  1
90
 11
0.0000000000000001
 21
1.0
 31
0.0
 73
     1
 44
1.0
  0
POINT
  5
1986
330
B44
100
AcDbEntity
  8
Defpoints
 62
     0
100
AcDbPoint
 10
463.3292486132098
 20
284.4698125793155
 30
0.0
  0
POINT
  5
1987
330
B44
100
AcDbEntity
  8
Defpoints
 62
     0
100
AcDbPoint
 10
464.4416581718115
 20
194.4698125793155
 30
0.0
  0
POINT
  5
1988
330
B44
100
AcDbEntity
  8
Defpoints
 62
     0
100
AcDbPoint
 10
439.8789391836291
 20
194.4698125793155
 30
0.0
  0
ENDBLK
  5
B4F
330
B44
100
AcDbEntity
  8
0
100
AcDbBlockEnd
  0
BLOCK
  5
B7F
330
B75
100
AcDbEntity
  8
0
100
AcDbBlockBegin
  2
*D4
 70
     1
 10
0.0
 20
0.0
 30
0.0
  3
*D4
  1

  0
LINE
  5
141C
330
B75
100
AcDbEntity
  8
寸法
 62
     0
370
    -2
100
AcDbLine
 10
460.3416581718115
 20
289.4698125793155
 30
0.0
 11
415.3789391836291
 21
289.4698125793155
 31
0.0
  0
LINE
  5
141D
330
B75
100
AcDbEntity
  8
寸法
 62
     0
370
    -2
100
AcDbLine
 10
460.3416581718114
 20
189.4698125793155
 30
0.0
 11
415.3789391836291
 21
189.4698125793155
 31
0.0
  0
LINE
  5
141E
330
B75
100
AcDbEntity
  8
寸法
 62
     0
370
    -2
100
AcDbLine
 10
418.8789391836291
 20
282.4698125793155
 30
0.0
 11
418.8789391836291
 21
196.4698125793155
 31
0.0
  0
SOLID
  5
141F
330
B75
100
AcDbEntity
  8
寸法
 62
     0
100
AcDbTrace
 10
417.7122725169623
 20
282.4698125793155
 30
0.0
 11
420.0456058502958
 21
282.4698125793155
 31
0.0
 12
418.8789391836291
 22
289.4698125793155
 32
0.0
 13
418.8789391836291
 23
289.4698125793155
 33
0.0
  0
SOLID
  5
1420
330
B75
100
AcDbEntity
  8
寸法
 62
     0
100
AcDbTrace
 10
417.7122725169623
 20
196.4698125793155
 30
0.0
 11
420.0456058502958
 21
196.4698125793155
 31
0.0
 12
418.8789391836291
 22
189.4698125793155
 32
0.0
 13
418.8789391836291
 23
189.4698125793155
 33
0.0
  0
MTEXT
  5
1421
330
B75
100
AcDbEntity
  8
寸法
 62
     0
100
AcDbMText
 10
415.028939183629
 20
239.4698125793156
 30
0.0
 40
4.899999999999999
 41
0.0
 71
     5
 72
     1
  1
100
 11
0.0000000000000001
 21
1.0
 31
0.0
 73
     1
 44
1.0
  0
POINT
  5
1422
330
B75
100
AcDbEntity
  8
Defpoints
 62
     0
100
AcDbPoint
 10
461.7416581718115
 20
289.4698125793155
 30
0.0
  0
POINT
  5
1423
330
B75
100
AcDbEntity
  8
Defpoints
 62
     0
100
AcDbPoint
 10
461.7416581718114
 20
189.4698125793155
 30
0.0
  0
POINT
  5
1424
330
B75
100
AcDbEntity
  8
Defpoints
 62
     0
100
AcDbPoint
 10
418.8789391836291
 20
189.4698125793155
 30
0.0
  0
ENDBLK
  5
B80
330
B75
100
AcDbEntity
  8
0
100
AcDbBlockEnd
  0
BLOCK
  5
C18
330
C0E
100
AcDbEntity
  8
0
100
AcDbBlockBegin
  2
*D5
 70
     1
 10
0.0
 20
0.0
 30
0.0
  3
*D5
  1

  0
LINE
  5
14D8
330
C0E
100
AcDbEntity
  8
寸法
 62
     0
370
    -2
100
AcDbLine
 10
496.6416581718114
 20
268.9698125793155
 30
0.0
 11
532.2416581718114
 21
268.9698125793155
 31
0.0
  0
LINE
  5
14D9
330
C0E
100
AcDbEntity
  8
寸法
 62
     0
370
    -2
100
AcDbLine
 10
513.7970820969902
 20
239.4698125793155
 30
0.0
 11
532.2416581718113
 21
239.4698125793155
 31
0.0
  0
LINE
  5
14DA
330
C0E
100
AcDbEntity
  8
寸法
 62
     0
370
    -2
100
AcDbLine
 10
528.7416581718114
 20
261.9698125793155
 30
0.0
 11
528.7416581718113
 21
246.4698125793155
 31
0.0
  0
SOLID
  5
14DB
330
C0E
100
AcDbEntity
  8
寸法
 62
     0
100
AcDbTrace
 10
527.5749915051448
 20
261.9698125793155
 30
0.0
 11
529.908324838478
 21
261.9698125793155
 31
0.0
 12
528.7416581718114
 22
268.9698125793155
 32
0.0
 13
528.7416581718114
 23
268.9698125793155
 33
0.0
  0
SOLID
  5
14DC
330
C0E
100
AcDbEntity
  8
寸法
 62
     0
100
AcDbTrace
 10
527.5749915051447
 20
246.4698125793155
 30
0.0
 11
529.9083248384779
 21
246.4698125793155
 31
0.0
 12
528.7416581718113
 22
239.4698125793155
 32
0.0
 13
528.7416581718113
 23
239.4698125793155
 33
0.0
  0
MTEXT
  5
14DD
330
C0E
100
AcDbEntity
  8
寸法
 62
     0
100
AcDbMText
 10
524.8916581718113
 20
254.2198125793156
 30
0.0
 40
4.899999999999999
 41
0.0
 71
     5
 72
     1
  1
29.5
 11
0.0000000000000001
 21
1.0
 31
0.0
 73
     1
 44
1.0
  0
POINT
  5
14DE
330
C0E
100
AcDbEntity
  8
Defpoints
 62
     0
100
AcDbPoint
 10
495.2416581718114
 20
268.9698125793155
 30
0.0
  0
POINT
  5
14DF
330
C0E
100
AcDbEntity
  8
Defpoints
 62
     0
100
AcDbPoint
 10
512.3970820969902
 20
239.4698125793155
 30
0.0
  0
POINT
  5
14E0
330
C0E
100
AcDbEntity
  8
Defpoints
 62
     0
100
AcDbPoint
 10
528.7416581718113
 20
239.4698125793155
 30
0.0
  0
ENDBLK
  5
C19
330
C0E
100
AcDbEntity
  8
0
100
AcDbBlockEnd
  0
BLOCK
  5
C5C
330
C52
100
AcDbEntity
  8
0
100
AcDbBlockBegin
  2
*D6
 70
     1
 10
0.0
 20
0.0
 30
0.0
  3
*D6
  1

  0
LINE
  5
14A9
330
C52
100
AcDbEntity
  8
寸法
 62
     0
370
    -2
100
AcDbLine
 10
513.9970820969903
 20
239.4698125793155
 30
0.0
 11
532.2416581718113
 21
239.4698125793155
 31
0.0
  0
LINE
  5
14AA
330
C52
100
AcDbEntity
  8
寸法
 62
     0
370
    -2
100
AcDbLine
 10
493.1416581718114
 20
207.9698125793155
 30
0.0
 11
532.2416581718113
 21
207.9698125793155
 31
0.0
  0
LINE
  5
14AB
330
C52
100
AcDbEntity
  8
寸法
 62
     0
370
    -2
100
AcDbLine
 10
528.7416581718113
 20
232.4698125793155
 30
0.0
 11
528.7416581718113
 21
214.9698125793155
 31
0.0
  0
SOLID
  5
14AC
330
C52
100
AcDbEntity
  8
寸法
 62
     0
100
AcDbTrace
 10
527.5749915051447
 20
232.4698125793155
 30
0.0
 11
529.9083248384779
 21
232.4698125793155
 31
0.0
 12
528.7416581718113
 22
239.4698125793155
 32
0.0
 13
528.7416581718113
 23
239.4698125793155
 33
0.0
  0
SOLID
  5
14AD
330
C52
100
AcDbEntity
  8
寸法
 62
     0
100
AcDbTrace
 10
527.5749915051447
 20
214.9698125793155
 30
0.0
 11
529.9083248384779
 21
214.9698125793155
 31
0.0
 12
528.7416581718113
 22
207.9698125793155
 32
0.0
 13
528.7416581718113
 23
207.9698125793155
 33
0.0
  0
MTEXT
  5
14AE
330
C52
100
AcDbEntity
  8
寸法
 62
     0
100
AcDbMText
 10
524.8916581718113
 20
223.7198125793156
 30
0.0
 40
4.899999999999999
 41
0.0
 71
     5
 72
     1
  1
31.5
 11
0.0000000000000001
 21
1.0
 31
0.0
 73
     1
 44
1.0
  0
POINT
  5
14AF
330
C52
100
AcDbEntity
  8
Defpoints
 62
     0
100
AcDbPoint
 10
512.5970820969903
 20
239.4698125793155
 30
0.0
  0
POINT
  5
14B0
330
C52
100
AcDbEntity
  8
Defpoints
 62
     0
100
AcDbPoint
 10
491.7416581718113
 20
207.9698125793155
 30
0.0
  0
POINT
  5
14B1
330
C52
100
AcDbEntity
  8
Defpoints
 62
     0
100
AcDbPoint
 10
528.7416581718113
 20
207.9698125793155
 30
0.0
  0
ENDBLK
  5
C5D
330
C52
100
AcDbEntity
  8
0
100
AcDbBlockEnd
  0
BLOCK
  5
C8F
330
C85
100
AcDbEntity
  8
0
100
AcDbBlockBegin
  2
*D7
 70
     1
 10
0.0
 20
0.0
 30
0.0
  3
*D7
  1

  0
LINE
  5
14CB
330
C85
100
AcDbEntity
  8
寸法
 62
     0
370
    -2
100
AcDbLine
 10
491.7416581718113
 20
206.5698125793155
 30
0.0
 11
491.7416581718113
 21
165.0883196239447
 31
0.0
  0
LINE
  5
14CC
330
C85
100
AcDbEntity
  8
寸法
 62
     0
370
    -2
100
AcDbLine
 10
476.7416581718114
 20
206.5698125793155
 30
0.0
 11
476.7416581718114
 21
165.0883196239447
 31
0.0
  0
LINE
  5
14CD
330
C85
100
AcDbEntity
  8
寸法
 62
     0
370
    -2
100
AcDbLine
 10
498.7416581718114
 20
168.5883196239447
 30
0.0
 11
505.7416581718114
 21
168.5883196239447
 31
0.0
  0
LINE
  5
14CE
330
C85
100
AcDbEntity
  8
寸法
 62
     0
370
    -2
100
AcDbLine
 10
469.7416581718114
 20
168.5883196239447
 30
0.0
 11
462.7416581718114
 21
168.5883196239447
 31
0.0
  0
LINE
  5
14CF
330
C85
100
AcDbEntity
  8
寸法
 62
     0
370
    -2
100
AcDbLine
 10
491.7416581718113
 20
168.5883196239447
 30
0.0
 11
476.7416581718114
 21
168.5883196239447
 31
0.0
  0
SOLID
  5
14D0
330
C85
100
AcDbEntity
  8
寸法
 62
     0
100
AcDbTrace
 10
498.7416581718114
 20
169.7549862906114
 30
0.0
 11
498.7416581718114
 21
167.4216529572781
 31
0.0
 12
491.7416581718113
 22
168.5883196239447
 32
0.0
 13
491.7416581718113
 23
168.5883196239447
 33
0.0
  0
SOLID
  5
14D1
330
C85
100
AcDbEntity
  8
寸法
 62
     0
100
AcDbTrace
 10
469.7416581718114
 20
169.7549862906114
 30
0.0
 11
469.7416581718114
 21
167.4216529572781
 31
0.0
 12
476.7416581718114
 22
168.5883196239447
 32
0.0
 13
476.7416581718114
 23
168.5883196239447
 33
0.0
  0
MTEXT
  5
14D2
330
C85
100
AcDbEntity
  8
寸法
 62
     0
100
AcDbMText
 10
484.2416581718114
 20
172.4383196239447
 30
0.0
 40
4.899999999999999
 41
0.0
 71
     5
 72
     1
  1
15
 73
     1
 44
1.0
  0
POINT
  5
14D3
330
C85
100
AcDbEntity
  8
Defpoints
 62
     0
100
AcDbPoint
 10
491.7416581718113
 20
207.9698125793155
 30
0.0
  0
POINT
  5
14D4
330
C85
100
AcDbEntity
  8
Defpoints
 62
     0
100
AcDbPoint
 10
476.7416581718114
 20
207.9698125793155
 30
0.0
  0
POINT
  5
14D5
330
C85
100
AcDbEntity
  8
Defpoints
 62
     0
100
AcDbPoint
 10
476.7416581718114
 20
168.5883196239447
 30
0.0
  0
ENDBLK
  5
C90
330
C85
100
AcDbEntity
  8
0
100
AcDbBlockEnd
  0
BLOCK
  5
132A
330
1320
100
AcDbEntity
  8
0
100
AcDbBlockBegin
  2
*D8
 70
     1
 10
0.0
 20
0.0
 30
0.0
  3
*D8
  1

  0
LINE
  5
14EB
330
1320
100
AcDbEntity
  8
寸法
 62
     0
370
    -2
100
AcDbLine
 10
601.4899483683762
 20
281.8698125793155
 30
0.0
 11
601.4899483683762
 21
315.3882188131979
 31
0.0
  0
LINE
  5
14EC
330
1320
100
AcDbEntity
  8
寸法
 62
     0
370
    -2
100
AcDbLine
 10
701.4899483683762
 20
290.3698125793157
 30
0.0
 11
701.4899483683762
 21
315.3882188131979
 31
0.0
  0
LINE
  5
14ED
330
1320
100
AcDbEntity
  8
寸法
 62
     0
370
    -2
100
AcDbLine
 10
608.4899483683762
 20
311.8882188131979
 30
0.0
 11
694.4899483683761
 21
311.8882188131979
 31
0.0
  0
SOLID
  5
14EE
330
1320
100
AcDbEntity
  8
寸法
 62
     0
100
AcDbTrace
 10
608.4899483683762
 20
313.0548854798646
 30
0.0
 11
608.4899483683762
 21
310.7215521465312
 31
0.0
 12
601.4899483683762
 22
311.8882188131979
 32
0.0
 13
601.4899483683762
 23
311.8882188131979
 33
0.0
  0
SOLID
  5
14EF
330
1320
100
AcDbEntity
  8
寸法
 62
     0
100
AcDbTrace
 10
694.4899483683761
 20
313.0548854798646
 30
0.0
 11
694.4899483683761
 21
310.7215521465312
 31
0.0
 12
701.4899483683762
 22
311.8882188131979
 32
0.0
 13
701.4899483683762
 23
311.8882188131979
 33
0.0
  0
MTEXT
  5
14F0
330
1320
100
AcDbEntity
  8
寸法
 62
     0
100
AcDbMText
 10
651.4899483683762
 20
315.7382188131979
 30
0.0
 40
4.899999999999999
 41
0.0
 71
     5
 72
     1
  1
100
 73
     1
 44
1.0
  0
POINT
  5
14F1
330
1320
100
AcDbEntity
  8
Defpoints
 62
     0
100
AcDbPoint
 10
601.4899483683762
 20
280.4698125793155
 30
0.0
  0
POINT
  5
14F2
330
1320
100
AcDbEntity
  8
Defpoints
 62
     0
100
AcDbPoint
 10
701.4899483683762
 20
288.9698125793157
 30
0.0
  0
POINT
  5
14F3
330
1320
100
AcDbEntity
  8
Defpoints
 62
     0
100
AcDbPoint
 10
701.4899483683762
 20
311.8882188131979
 30
0.0
  0
ENDBLK
  5
132B
330
1320
100
AcDbEntity
  8
0
100
AcDbBlockEnd
  0
BLOCK
  5
1336
330
132C
100
AcDbEntity
  8
0
100
AcDbBlockBegin
  2
*D9
 70
     1
 10
0.0
 20
0.0
 30
0.0
  3
*D9
  1

  0
LINE
  5
14E2
330
132C
100
AcDbEntity
  8
寸法
 62
     0
370
    -2
100
AcDbLine
 10
605.3101254202426
 20
279.4698125793155
 30
0.0
 11
576.9899483683762
 21
279.4698125793155
 31
0.0
  0
LINE
  5
14E3
330
132C
100
AcDbEntity
  8
寸法
 62
     0
370
    -2
100
AcDbLine
 10
605.3101254202426
 20
199.4698125793155
 30
0.0
 11
576.9899483683762
 21
199.4698125793155
 31
0.0
  0
LINE
  5
14E4
330
132C
100
AcDbEntity
  8
寸法
 62
     0
370
    -2
100
AcDbLine
 10
580.4899483683763
 20
272.4698125793155
 30
0.0
 11
580.4899483683762
 21
206.4698125793155
 31
0.0
  0
SOLID
  5
14E5
330
132C
100
AcDbEntity
  8
寸法
 62
     0
100
AcDbTrace
 10
579.3232817017097
 20
272.4698125793155
 30
0.0
 11
581.6566150350429
 21
272.4698125793155
 31
0.0
 12
580.4899483683763
 22
279.4698125793155
 32
0.0
 13
580.4899483683763
 23
279.4698125793155
 33
0.0
  0
SOLID
  5
14E6
330
132C
100
AcDbEntity
  8
寸法
 62
     0
100
AcDbTrace
 10
579.3232817017095
 20
206.4698125793155
 30
0.0
 11
581.6566150350428
 21
206.4698125793155
 31
0.0
 12
580.4899483683762
 22
199.4698125793155
 32
0.0
 13
580.4899483683762
 23
199.4698125793155
 33
0.0
  0
MTEXT
  5
14E7
330
132C
100
AcDbEntity
  8
寸法
 62
     0
100
AcDbMText
 10
576.6399483683762
 20
239.4698125793156
 30
0.0
 40
4.899999999999999
 41
0.0
 71
     5
 72
     1
  1
80
 11
0.0000000000000001
 21
1.0
 31
0.0
 73
     1
 44
1.0
  0
POINT
  5
14E8
330
132C
100
AcDbEntity
  8
Defpoints
 62
     0
100
AcDbPoint
 10
606.7101254202427
 20
279.4698125793155
 30
0.0
  0
POINT
  5
14E9
330
132C
100
AcDbEntity
  8
Defpoints
 62
     0
100
AcDbPoint
 10
606.7101254202427
 20
199.4698125793155
 30
0.0
  0
POINT
  5
14EA
330
132C
100
AcDbEntity
  8
Defpoints
 62
     0
100
AcDbPoint
 10
580.4899483683762
 20
199.4698125793155
 30
0.0
  0
ENDBLK
  5
1337
330
132C
100
AcDbEntity
  8
0
100
AcDbBlockEnd
  0
ENDSEC
  0
SECTION
  2
ENTITIES
  0
LINE
  5
9E9
330
1F
100
AcDbEntity
  8
外形
  6
CENTER
 62
     1
 48
0.2
100
AcDbLine
 10
484.2416581718112
 20
284.8487074478057
 30
0.0
 11
484.2416581718114
 21
192.0186378074357
 31
0.0
  0
LINE
  5
9EA
330
1F
100
AcDbEntity
  8
外形
  6
CENTER
 62
     1
 48
0.2
100
AcDbLine
 10
453.9671172715117
 20
239.4698125793155
 30
0.0
 11
512.3970820969902
 21
239.4698125793155
 31
0.0
  0
LINE
  5
A4C
330
1F
100
AcDbEntity
  8
外形
100
AcDbLine
 10
460.7416581718115
 20
279.4698125793154
 30
0.0
 11
507.7416581718113
 21
279.4698125793155
 31
0.0
  0
LINE
  5
A4D
330
1F
100
AcDbEntity
  8
外形
100
AcDbLine
 10
460.7416581718114
 20
199.4698125793155
 30
0.0
 11
507.7416581718114
 21
199.4698125793155
 31
0.0
  0
LINE
  5
A4E
330
1F
100
AcDbEntity
  8
外形
100
AcDbLine
 10
507.7416581718113
 20
279.4698125793155
 30
0.0
 11
507.7416581718114
 21
199.4698125793155
 31
0.0
  0
LINE
  5
A4F
330
1F
100
AcDbEntity
  8
外形
100
AcDbLine
 10
460.7416581718115
 20
279.4698125793154
 30
0.0
 11
460.7416581718114
 21
199.4698125793155
 31
0.0
  0
LINE
  5
A50
330
1F
100
AcDbEntity
  8
外形
100
AcDbLine
 10
460.7416581718115
 20
280.4698125793154
 30
0.0
 11
460.7416581718115
 21
288.4698125793155
 31
0.0
  0
LINE
  5
A53
330
1F
100
AcDbEntity
  8
外形
100
AcDbLine
 10
473.2239813312098
 20
281.1077354398531
 30
0.0
 11
480.7519535308511
 21
281.1077354398532
 31
0.0
  0
LINE
  5
A54
330
1F
100
AcDbEntity
  8
外形
100
AcDbLine
 10
470.4111517574164
 20
288.7290731312436
 30
0.0
 11
472.2581739144782
 21
281.848474887925
 31
0.0
  0
LINE
  5
A55
330
1F
100
AcDbEntity
  8
外形
100
AcDbLine
 10
481.7519535308511
 20
280.1077354398532
 30
0.0
 11
481.7519535308511
 21
279.4698125793155
 31
0.0
  0
ARC
  5
A5C
330
1F
100
AcDbEntity
  8
外形
100
AcDbCircle
 10
461.7416581718115
 20
280.4698125793154
 30
0.0
 40
1.0
100
AcDbArc
 50
180.0
 51
270.0000000000001
  0
ARC
  5
A5E
330
1F
100
AcDbEntity
  8
外形
100
AcDbCircle
 10
473.2239813312098
 20
282.1077354398531
 30
0.0
 40
1.0
100
AcDbArc
 50
195.0261904456855
 51
270.0000000000002
  0
ARC
  5
A5F
330
1F
100
AcDbEntity
  8
外形
100
AcDbCircle
 10
480.7519535308511
 20
280.1077354398532
 30
0.0
 40
1.0
100
AcDbArc
 50
0.0
 51
90.00000000000046
  0
LINE
  5
A60
330
1F
100
AcDbEntity
  8
外形
  6
CENTER
 62
     1
 48
0.2
100
AcDbLine
 10
463.3292486132098
 20
284.4698125793155
 30
0.0
 11
470.154067730413
 21
284.4698125793155
 31
0.0
  0
LINE
  5
A61
330
1F
100
AcDbEntity
  8
外形
  6
CENTER
 62
     1
 48
0.2
100
AcDbLine
 10
466.7416581718113
 20
287.8822221379172
 30
0.0
 11
466.7416581718113
 21
281.0574030207138
 31
0.0
  0
CIRCLE
  5
A62
330
1F
100
AcDbEntity
  8
外形
100
AcDbCircle
 10
466.7416581718113
 20
284.4698125793155
 30
0.0
 40
2.299999999999999
  0
LINE
  5
A77
330
1F
100
AcDbEntity
  8
外形
100
AcDbLine
 10
460.7416581718115
 20
199.4698125793155
 30
0.0
 11
507.7416581718113
 21
199.4698125793155
 31
0.0
  0
CIRCLE
  5
A94
330
1F
100
AcDbEntity
  8
外形
100
AcDbCircle
 10
491.7416581718113
 20
224.143960298896
 30
0.0
 40
3.0
  0
CIRCLE
  5
A95
330
1F
100
AcDbEntity
  8
外形
100
AcDbCircle
 10
491.7416581718113
 20
224.143960298896
 30
0.0
 40
2.5
  0
DIMENSION
  5
AB5
330
1F
100
AcDbEntity
  8
寸法
 62
     5
100
AcDbDimension
  2
*D0
 10
495.2416581718114
 20
310.4161468180328
 30
0.0
 11
484.2416581718114
 21
314.2661468180329
 31
0.0
 70
    32
 71
     5
 42
22.0
  3
ISO-25
100
AcDbAlignedDimension
 13
473.2416581718114
 23
268.9698125793155
 33
0.0
 14
495.2416581718114
 24
268.9698125793155
 34
0.0
100
AcDbRotatedDimension
  0
DIMENSION
  5
AF3
330
1F
100
AcDbEntity
  8
寸法
 62
     5
100
AcDbDimension
  2
*D1
 10
501.7416581718114
 20
331.4161468180328
 30
0.0
 11
484.2416581718114
 21
335.2661468180329
 31
0.0
 70
    32
 71
     5
 42
35.0
  3
ISO-25
100
AcDbAlignedDimension
 13
466.7416581718113
 23
287.8822221379172
 33
0.0
 14
501.7416581718114
 24
287.8822221379172
 34
0.0
100
AcDbRotatedDimension
  0
DIMENSION
  5
B1B
330
1F
100
AcDbEntity
  8
寸法
 62
     5
100
AcDbDimension
  2
*D2
 10
507.7416581718113
 20
352.4161468180328
 30
0.0
 11
484.2416581718114
 21
356.2661468180329
 31
0.0
 70
    32
 71
     5
 42
46.99999999999977
  3
ISO-25
100
AcDbAlignedDimension
 13
460.7416581718115
 23
288.3159989310401
 33
0.0
 14
507.7416581718113
 24
288.3159989310401
 34
0.0
100
AcDbRotatedDimension
  0
DIMENSION
  5
B43
330
1F
100
AcDbEntity
  8
寸法
 62
     5
100
AcDbDimension
  2
*D3
 10
439.8789391836291
 20
194.4698125793155
 30
0.0
 11
436.028939183629
 21
239.4698125793156
 31
0.0
 70
    32
 71
     5
 42
90.0
  3
ISO-25
100
AcDbAlignedDimension
 13
463.3292486132098
 23
284.4698125793155
 33
0.0
 14
464.4416581718115
 24
194.4698125793155
 34
0.0
 50
90.0
100
AcDbRotatedDimension
  0
DIMENSION
  5
B74
330
1F
100
AcDbEntity
  8
寸法
 62
     5
100
AcDbDimension
  2
*D4
 10
418.8789391836291
 20
189.4698125793155
 30
0.0
 11
415.028939183629
 21
239.4698125793156
 31
0.0
 70
    32
 71
     5
 42
100.0
  3
ISO-25
100
AcDbAlignedDimension
 13
461.7416581718115
 23
289.4698125793155
 33
0.0
 14
461.7416581718114
 24
189.4698125793155
 34
0.0
 50
90.0
100
AcDbRotatedDimension
  0
LINE
  5
BA5
330
1F
100
AcDbEntity
  8
外形
100
AcDbLine
 10
461.7416581718115
 20
289.4698125793155
 30
0.0
 11
469.4453443406847
 21
289.4698125793155
 31
0.0
  0
ARC
  5
BA7
330
1F
100
AcDbEntity
  8
外形
 48
0.2
100
AcDbCircle
 10
461.7416581718115
 20
288.4698125793155
 30
0.0
 40
1.0
100
AcDbArc
 50
90.0
 51
180.0
  0
ARC
  5
BA8
330
1F
100
AcDbEntity
  8
外形
 48
0.2
100
AcDbCircle
 10
469.4453443406847
 20
288.4698125793155
 30
0.0
 40
1.0
100
AcDbArc
 50
15.02619044568444
 51
90.0
  0
LINE
  5
BA9
330
1F
100
AcDbEntity
  8
外形
100
AcDbLine
 10
506.7416581718113
 20
289.4698125793155
 30
0.0
 11
499.037972002938
 21
289.4698125793155
 31
0.0
  0
LINE
  5
BAA
330
1F
100
AcDbEntity
  8
外形
  6
CENTER
 62
     1
 48
0.2
100
AcDbLine
 10
505.1540677304131
 20
284.4698125793155
 30
0.0
 11
498.3292486132097
 21
284.4698125793155
 31
0.0
  0
CIRCLE
  5
BAB
330
1F
100
AcDbEntity
  8
外形
100
AcDbCircle
 10
501.7416581718114
 20
284.4698125793155
 30
0.0
 40
2.299999999999999
  0
LINE
  5
BAC
330
1F
100
AcDbEntity
  8
外形
100
AcDbLine
 10
507.7416581718113
 20
280.4698125793154
 30
0.0
 11
507.7416581718113
 21
288.4698125793155
 31
0.0
  0
LINE
  5
BAD
330
1F
100
AcDbEntity
  8
外形
  6
CENTER
 62
     1
 48
0.2
100
AcDbLine
 10
501.7416581718114
 20
287.8822221379172
 30
0.0
 11
501.7416581718114
 21
281.0574030207138
 31
0.0
  0
ARC
  5
BAE
330
1F
100
AcDbEntity
  8
外形
100
AcDbCircle
 10
506.7416581718113
 20
280.4698125793154
 30
0.0
 40
1.0
100
AcDbArc
 50
269.9999999999998
 51
0.000000000000007
  0
ARC
  5
BAF
330
1F
100
AcDbEntity
  8
外形
 48
0.2
100
AcDbCircle
 10
506.7416581718113
 20
288.4698125793155
 30
0.0
 40
1.0
100
AcDbArc
 50
0.000000000000007
 51
90.0
  0
LINE
  5
BB0
330
1F
100
AcDbEntity
  8
外形
100
AcDbLine
 10
495.2593350124129
 20
281.1077354398531
 30
0.0
 11
487.7313628127717
 21
281.1077354398532
 31
0.0
  0
LINE
  5
BB1
330
1F
100
AcDbEntity
  8
外形
100
AcDbLine
 10
498.0721645862064
 20
288.7290731312436
 30
0.0
 11
496.2251424291446
 21
281.848474887925
 31
0.0
  0
ARC
  5
BB2
330
1F
100
AcDbEntity
  8
外形
100
AcDbCircle
 10
495.2593350124129
 20
282.1077354398531
 30
0.0
 40
1.0
100
AcDbArc
 50
269.9999999999997
 51
344.9738095543144
  0
ARC
  5
BB3
330
1F
100
AcDbEntity
  8
外形
 48
0.2
100
AcDbCircle
 10
499.037972002938
 20
288.4698125793155
 30
0.0
 40
1.0
100
AcDbArc
 50
90.0
 51
164.9738095543155
  0
LINE
  5
BB4
330
1F
100
AcDbEntity
  8
外形
100
AcDbLine
 10
486.7313628127717
 20
280.1077354398532
 30
0.0
 11
486.7313628127717
 21
279.4698125793155
 31
0.0
  0
ARC
  5
BB5
330
1F
100
AcDbEntity
  8
外形
100
AcDbCircle
 10
487.7313628127717
 20
280.1077354398532
 30
0.0
 40
1.0
100
AcDbArc
 50
89.99999999999955
 51
180.0
  0
LINE
  5
BB6
330
1F
100
AcDbEntity
  8
外形
100
AcDbLine
 10
461.7416581718115
 20
189.4698125793155
 30
0.0
 11
469.4453443406847
 21
189.4698125793155
 31
0.0
  0
LINE
  5
BB9
330
1F
100
AcDbEntity
  8
外形
100
AcDbLine
 10
460.7416581718115
 20
199.4698125793155
 30
0.0
 11
507.7416581718113
 21
199.4698125793155
 31
0.0
  0
LINE
  5
BBA
330
1F
100
AcDbEntity
  8
外形
100
AcDbLine
 10
460.7416581718115
 20
198.4698125793156
 30
0.0
 11
460.7416581718115
 21
190.4698125793155
 31
0.0
  0
ARC
  5
BBC
330
1F
100
AcDbEntity
  8
外形
100
AcDbCircle
 10
461.7416581718115
 20
198.4698125793156
 30
0.0
 40
1.0
100
AcDbArc
 50
89.99999999999985
 51
180.0
  0
ARC
  5
BBD
330
1F
100
AcDbEntity
  8
外形
 48
0.2
100
AcDbCircle
 10
461.7416581718115
 20
190.4698125793155
 30
0.0
 40
1.0
100
AcDbArc
 50
180.0
 51
270.0
  0
ARC
  5
BBE
330
1F
100
AcDbEntity
  8
外形
 48
0.2
100
AcDbCircle
 10
506.7416581718113
 20
190.4698125793155
 30
0.0
 40
1.0
100
AcDbArc
 50
270.0
 51
0.0
  0
ARC
  5
BBF
330
1F
100
AcDbEntity
  8
外形
100
AcDbCircle
 10
506.7416581718113
 20
198.4698125793156
 30
0.0
 40
1.0
100
AcDbArc
 50
0.0
 51
90.00000000000017
  0
LINE
  5
BC0
330
1F
100
AcDbEntity
  8
外形
100
AcDbLine
 10
495.2593350124129
 20
197.8318897187779
 30
0.0
 11
487.7313628127717
 21
197.8318897187778
 31
0.0
  0
LINE
  5
BC1
330
1F
100
AcDbEntity
  8
外形
100
AcDbLine
 10
473.2239813312098
 20
197.8318897187779
 30
0.0
 11
480.7519535308511
 21
197.8318897187778
 31
0.0
  0
LINE
  5
BC2
330
1F
100
AcDbEntity
  8
外形
100
AcDbLine
 10
470.4111517574164
 20
190.2105520273875
 30
0.0
 11
472.2581739144782
 21
197.091150270706
 31
0.0
  0
ARC
  5
BC3
330
1F
100
AcDbEntity
  8
外形
100
AcDbCircle
 10
473.2239813312098
 20
196.8318897187779
 30
0.0
 40
1.0
100
AcDbArc
 50
89.99999999999982
 51
164.9738095543144
  0
ARC
  5
BC4
330
1F
100
AcDbEntity
  8
外形
 48
0.2
100
AcDbCircle
 10
469.4453443406847
 20
190.4698125793155
 30
0.0
 40
1.0
100
AcDbArc
 50
270.0
 51
344.9738095543155
  0
LINE
  5
BC5
330
1F
100
AcDbEntity
  8
外形
100
AcDbLine
 10
481.7519535308511
 20
198.8318897187778
 30
0.0
 11
481.7519535308511
 21
199.4698125793155
 31
0.0
  0
ARC
  5
BC6
330
1F
100
AcDbEntity
  8
外形
100
AcDbCircle
 10
480.7519535308511
 20
198.8318897187778
 30
0.0
 40
1.0
100
AcDbArc
 50
269.9999999999995
 51
0.0
  0
ARC
  5
BC7
330
1F
100
AcDbEntity
  8
外形
100
AcDbCircle
 10
487.7313628127717
 20
198.8318897187778
 30
0.0
 40
1.0
100
AcDbArc
 50
180.0
 51
270.0000000000004
  0
LINE
  5
BC8
330
1F
100
AcDbEntity
  8
外形
100
AcDbLine
 10
486.7313628127717
 20
198.8318897187778
 30
0.0
 11
486.7313628127717
 21
199.4698125793155
 31
0.0
  0
ARC
  5
BC9
330
1F
100
AcDbEntity
  8
外形
 48
0.2
100
AcDbCircle
 10
499.037972002938
 20
190.4698125793155
 30
0.0
 40
1.0
100
AcDbArc
 50
195.0261904456844
 51
270.0
  0
LINE
  5
BCA
330
1F
100
AcDbEntity
  8
外形
100
AcDbLine
 10
498.0721645862064
 20
190.2105520273875
 30
0.0
 11
496.2251424291446
 21
197.091150270706
 31
0.0
  0
ARC
  5
BCB
330
1F
100
AcDbEntity
  8
外形
100
AcDbCircle
 10
495.2593350124129
 20
196.8318897187779
 30
0.0
 40
1.0
100
AcDbArc
 50
15.02619044568552
 51
90.00000000000021
  0
LINE
  5
BCD
330
1F
100
AcDbEntity
  8
外形
100
AcDbLine
 10
507.7416581718113
 20
198.4698125793156
 30
0.0
 11
507.7416581718113
 21
190.4698125793155
 31
0.0
  0
LINE
  5
BD0
330
1F
100
AcDbEntity
  8
外形
100
AcDbLine
 10
506.7416581718113
 20
189.4698125793155
 30
0.0
 11
499.037972002938
 21
189.4698125793155
 31
0.0
  0
DIMENSION
  5
C0D
330
1F
100
AcDbEntity
  8
寸法
 62
     5
100
AcDbDimension
  2
*D5
 10
528.7416581718113
 20
239.4698125793155
 30
0.0
 11
524.8916581718113
 21
254.2198125793156
 31
0.0
 70
    32
 71
     5
 42
29.5
  3
ISO-25
100
AcDbAlignedDimension
 13
495.2416581718114
 23
268.9698125793155
 33
0.0
 14
512.3970820969902
 24
239.4698125793155
 34
0.0
 50
270.0
100
AcDbRotatedDimension
  0
DIMENSION
  5
C51
330
1F
100
AcDbEntity
  8
寸法
 62
     5
100
AcDbDimension
  2
*D6
 10
528.7416581718113
 20
207.9698125793155
 30
0.0
 11
524.8916581718113
 21
223.7198125793156
 31
0.0
 70
    32
 71
     5
 42
31.5
  3
ISO-25
100
AcDbAlignedDimension
 13
512.5970820969903
 23
239.4698125793155
 33
0.0
 14
491.7416581718113
 24
207.9698125793155
 34
0.0
 50
270.0
100
AcDbRotatedDimension
  0
DIMENSION
  5
C84
330
1F
100
AcDbEntity
  8
寸法
 62
     5
100
AcDbDimension
  2
*D7
 10
476.7416581718114
 20
168.5883196239447
 30
0.0
 11
484.2416581718114
 21
172.4383196239447
 31
0.0
 70
    32
 71
     5
 42
15.0
  3
ISO-25
100
AcDbAlignedDimension
 13
491.7416581718113
 23
207.9698125793155
 33
0.0
 14
476.7416581718114
 24
207.9698125793155
 34
0.0
 50
180.0
100
AcDbRotatedDimension
  0
MTEXT
  5
D8C
330
1F
100
AcDbEntity
  8
外形
100
AcDbMText
 10
469.795209446906
 20
398.1772852569488
 30
0.0
 40
17.5
 41
106.1407291572497
 71
     5
 72
     5
  1
{\fMS UI Gothic|b0|i0|c128|p17;外形寸法}
 73
     1
 44
1.0
  0
MTEXT
  5
DD0
330
1F
100
AcDbEntity
  8
寸法
100
AcDbMText
 10
705.3132235306247
 20
247.7521340698659
 30
0.0
 40
5.0
 41
0.0
 71
     1
 72
     1
  1
{\fMS UI Gothic|b0|i0|c128|p49;\U+203B締付トルク\P　 M4端子         1.5N ・ ｍ（ＭＡＸ）\P\fMS UI Gothic|b0|i0|c128|p17;　 M5端子         2.0N ・ ｍ（ＭＡＸ）\P\fMS UI Gothic|b0|i0|c128|p49;　 本体ケース   　1.5N ・ ｍ（ＭＡＸ）}
 73
     2
 44
1.0
  0
LEADER
  5
E29
330
1F
100
AcDbEntity
  8
寸法
 62
     5
100
AcDbLeader
  3
ISO-25
 76
     3
 10
503.3993295745398
 20
286.0642170200319
 30
0.0
 10
516.8007301206938
 20
298.954137487646
 30
0.0
 10
542.7370192145649
 20
298.954137487646
 30
0.0
1001
ACAD
1000
DSTYLE
1002
{
1070
   140
1040
2.0
1002
}
  0
MTEXT
  5
E2A
330
1F
100
AcDbEntity
  8
寸法
 62
     5
100
AcDbMText
 10
530.4087957742011
 20
299.2080720146648
 30
0.0
 40
4.9
 41
0.0
 71
     8
 72
     1
  1
{\fMS UI Gothic|b0|i0|c128|p17;2-φ4.6}
 73
     2
 44
1.0
  0
LEADER
  5
E2B
330
1F
100
AcDbEntity
  8
寸法
 62
     5
100
AcDbLeader
  3
ISO-25
 76
     3
 10
498.3079490704981
 20
271.5384425886067
 30
0.0
 10
516.1467141286181
 20
286.4819651606521
 30
0.0
 10
547.1222246128604
 20
286.4819651606521
 30
0.0
1001
ACAD
1000
DSTYLE
1002
{
1070
   140
1040
2.0
1002
}
  0
MTEXT
  5
E2C
330
1F
100
AcDbEntity
  8
寸法
 62
     5
100
AcDbMText
 10
532.4772886448117
 20
286.735899687671
 30
0.0
 40
4.9
 41
0.0
 71
     8
 72
     1
  1
{\fMS UI Gothic|b0|i0|c128|p17;2-M5X10}
 73
     2
 44
1.0
  0
MTEXT
  5
E2D
330
1F
100
AcDbEntity
  8
外形
100
AcDbMText
 10
473.2793456498781
 20
260.8030200578352
 30
0.0
 40
4.9
 41
1.0
 71
     5
 72
     5
  1
{\fＭＳ ゴシック|b0|i0|c128|p49;1}
 73
     1
 44
1.0
  0
MTEXT
  5
E2E
330
1F
100
AcDbEntity
  8
外形
100
AcDbMText
 10
495.5485683995013
 20
260.8030200578352
 30
0.0
 40
4.9
 41
1.0
 71
     5
 72
     5
  1
{\fＭＳ ゴシック|b0|i0|c128|p49;2}
 73
     1
 44
1.0
  0
MTEXT
  5
E2F
330
1F
100
AcDbEntity
  8
外形
100
AcDbMText
 10
476.4689903519808
 20
216.0112467720663
 30
0.0
 40
4.9
 41
1.0
 71
     5
 72
     5
  1
{\fＭＳ ゴシック|b0|i0|c128|p49;4}
 73
     1
 44
1.0
  0
MTEXT
  5
E30
330
1F
100
AcDbEntity
  8
外形
100
AcDbMText
 10
491.8514778586493
 20
216.0112467720663
 30
0.0
 40
4.9
 41
1.0
 71
     5
 72
     5
  1
{\fＭＳ ゴシック|b0|i0|c128|p49;3}
 73
     1
 44
1.0
  0
MTEXT
  5
E31
330
1F
100
AcDbEntity
  8
寸法
 62
     5
100
AcDbMText
 10
529.3225267562895
 20
194.1025604717177
 30
0.0
 40
4.9
 41
0.0
 71
     8
 72
     1
  1
{\fMS UI Gothic|b0|i0|c128|p17;2-M4X8}
 73
     2
 44
1.0
  0
LEADER
  5
E32
330
1F
100
AcDbEntity
  8
寸法
 62
     5
100
AcDbLeader
  3
ISO-25
 76
     3
 10
494.7710837037702
 20
206.2169346753199
 30
0.0
 10
516.1467141286181
 20
193.8486259446989
 30
0.0
 10
542.6997439764306
 20
193.8486259446989
 30
0.0
1001
ACAD
1000
DSTYLE
1002
{
1070
   140
1040
2.0
1002
}
  0
LEADER
  5
E33
330
1F
100
AcDbEntity
  8
寸法
 62
     5
100
AcDbLeader
  3
ISO-25
 76
     3
 10
503.746705176074
 20
192.8429645368992
 30
0.0
 10
516.1467141286181
 20
185.3671366207622
 30
0.0
 10
546.7023751942276
 20
185.3671366207622
 30
0.0
1001
ACAD
1000
DSTYLE
1002
{
1070
   140
1040
2.0
1002
}
  0
MTEXT
  5
E34
330
1F
100
AcDbEntity
  8
寸法
 62
     5
100
AcDbMText
 10
531.6398397593002
 20
185.621071147781
 30
0.0
 40
4.9
 41
0.0
 71
     8
 72
     1
  1
{\fMS UI Gothic|b0|i0|c128|p17;2-4.6X5.6}
 73
     2
 44
1.0
  0
LINE
  5
11EC
330
1F
100
AcDbEntity
  8
外形
100
AcDbLine
 10
699.4899483683763
 20
189.9698125793153
 30
0.0
 11
699.4899483683761
 21
201.0910049886838
 31
0.0
  0
LINE
  5
11ED
330
1F
100
AcDbEntity
  8
外形
100
AcDbLine
 10
701.4899483683762
 20
203.0910049886838
 30
0.0
 11
701.4899483683762
 21
189.9698125793153
 31
0.0
  0
ARC
  5
11EE
330
1F
100
AcDbEntity
  8
外形
100
AcDbCircle
 10
700.9899483683762
 20
189.9698125793153
 30
0.0
 40
0.5
100
AcDbArc
 50
270.0
 51
0.0
  0
ARC
  5
11EF
330
1F
100
AcDbEntity
  8
外形
100
AcDbCircle
 10
699.9899483683763
 20
189.9698125793153
 30
0.0
 40
0.5
100
AcDbArc
 50
180.0
 51
270.0
  0
LINE
  5
11F0
330
1F
100
AcDbEntity
  8
外形
100
AcDbLine
 10
699.9899483683763
 20
189.4698125793153
 30
0.0
 11
700.9899483683762
 21
189.4698125793153
 31
0.0
  0
ARC
  5
11F1
330
1F
100
AcDbEntity
  8
外形
100
AcDbCircle
 10
681.6597328340021
 20
376.4198112639522
 30
0.0
 40
0.5
100
AcDbArc
 50
231.1279329259456
 51
313.4304017916221
  0
ARC
  5
11F2
330
1F
100
AcDbEntity
  8
外形
100
AcDbCircle
 10
681.6597328340021
 20
330.7510918823761
 30
0.0
 40
0.5
100
AcDbArc
 50
46.56959820837786
 51
128.8720670740543
  0
LWPOLYLINE
  5
11F3
330
1F
100
AcDbEntity
  8
寸法
100
AcDbPolyline
 90
        4
 70
     1
 43
0.0
 10
688.1277216428863
 20
373.6669316944912
 10
663.1277216428863
 20
373.6669316944912
 10
663.1277216428863
 20
365.6667015694868
 10
688.1277216428863
 20
365.6667015694868
  0
LWPOLYLINE
  5
11F4
330
1F
100
AcDbEntity
  8
寸法
100
AcDbPolyline
 90
        4
 70
     1
 43
0.0
 10
688.1277216428863
 20
341.5677069257578
 10
663.1277216428863
 20
341.5677069257578
 10
663.1277216428863
 20
333.5674768007534
 10
688.1277216428863
 20
333.5674768007534
  0
DIMENSION
  5
11F6
330
1F
100
AcDbEntity
  8
寸法
 62
     5
100
AcDbDimension
  2
*D8
 10
701.4899483683762
 20
311.8882188131979
 30
0.0
 11
651.4899483683762
 21
315.7382188131979
 31
0.0
 70
    32
 71
     5
 42
100.0
  3
ISO-25
100
AcDbAlignedDimension
 13
601.4899483683762
 23
280.4698125793155
 33
0.0
 14
701.4899483683762
 24
288.9698125793157
 34
0.0
100
AcDbRotatedDimension
  0
LINE
  5
11F7
330
1F
100
AcDbEntity
  8
外形
100
AcDbLine
 10
628.6189021067222
 20
200.4698125793155
 30
0.0
 11
695.6277216428863
 21
200.4698125793156
 31
0.0
  0
LINE
  5
11F8
330
1F
100
AcDbEntity
  8
外形
100
AcDbLine
 10
628.6189021067221
 20
278.4698125793157
 30
0.0
 11
695.6277216428863
 21
278.4698125793155
 31
0.0
  0
LINE
  5
11F9
330
1F
100
AcDbEntity
  8
外形
100
AcDbLine
 10
670.6277216428863
 20
278.4698125793155
 30
0.0
 11
670.6277216428865
 21
200.4698125793154
 31
0.0
  0
LINE
  5
11FA
330
1F
100
AcDbEntity
  8
外形
100
AcDbLine
 10
673.1277216428862
 20
278.4698125793155
 30
0.0
 11
673.1277216428865
 21
200.4698125793154
 31
0.0
  0
LINE
  5
11FB
330
1F
100
AcDbEntity
  8
外形
100
AcDbLine
 10
675.6277216428863
 20
278.4698125793155
 30
0.0
 11
675.6277216428864
 21
200.4698125793154
 31
0.0
  0
LINE
  5
11FC
330
1F
100
AcDbEntity
  8
外形
100
AcDbLine
 10
678.1277216428862
 20
278.4698125793155
 30
0.0
 11
678.1277216428865
 21
200.4698125793154
 31
0.0
  0
LINE
  5
11FD
330
1F
100
AcDbEntity
  8
外形
100
AcDbLine
 10
680.6277216428862
 20
278.4698125793155
 30
0.0
 11
680.6277216428865
 21
200.4698125793154
 31
0.0
  0
LINE
  5
11FE
330
1F
100
AcDbEntity
  8
外形
100
AcDbLine
 10
649.1540939732074
 20
278.4698125793156
 30
0.0
 11
649.1540939732076
 21
200.4698125793155
 31
0.0
  0
LINE
  5
11FF
330
1F
100
AcDbEntity
  8
外形
100
AcDbLine
 10
646.6540939732074
 20
278.4698125793156
 30
0.0
 11
646.6540939732076
 21
200.4698125793155
 31
0.0
  0
LINE
  5
1200
330
1F
100
AcDbEntity
  8
外形
100
AcDbLine
 10
644.1540939732074
 20
278.4698125793156
 30
0.0
 11
644.1540939732076
 21
200.4698125793155
 31
0.0
  0
LINE
  5
1201
330
1F
100
AcDbEntity
  8
外形
100
AcDbLine
 10
641.6540939732073
 20
278.4698125793156
 30
0.0
 11
641.6540939732076
 21
200.4698125793155
 31
0.0
  0
LINE
  5
1202
330
1F
100
AcDbEntity
  8
外形
100
AcDbLine
 10
639.1540939732074
 20
278.4698125793156
 30
0.0
 11
639.1540939732076
 21
200.4698125793155
 31
0.0
  0
LINE
  5
1203
330
1F
100
AcDbEntity
  8
外形
100
AcDbLine
 10
636.6540939732074
 20
278.4698125793156
 30
0.0
 11
636.6540939732076
 21
200.4698125793155
 31
0.0
  0
LINE
  5
1204
330
1F
100
AcDbEntity
  8
外形
100
AcDbLine
 10
634.1540939732074
 20
278.4698125793156
 30
0.0
 11
634.1540939732076
 21
200.4698125793155
 31
0.0
  0
LINE
  5
1205
330
1F
100
AcDbEntity
  8
外形
100
AcDbLine
 10
631.6540939732074
 20
278.4698125793156
 30
0.0
 11
631.6540939732076
 21
200.4698125793155
 31
0.0
  0
LINE
  5
1206
330
1F
100
AcDbEntity
  8
外形
100
AcDbLine
 10
628.6189021067222
 20
278.4698125793156
 30
0.0
 11
628.6189021067222
 21
200.4698125793155
 31
0.0
  0
LINE
  5
1207
330
1F
100
AcDbEntity
  8
外形
100
AcDbLine
 10
627.4599256027147
 20
279.4698125793155
 30
0.0
 11
627.4599256027147
 21
199.4698125793155
 31
0.0
  0
LINE
  5
1208
330
1F
100
AcDbEntity
  8
外形
100
AcDbLine
 10
622.4899483683763
 20
279.4698125793155
 30
0.0
 11
622.4899483683762
 21
199.4698125793155
 31
0.0
  0
LINE
  5
1209
330
1F
100
AcDbEntity
  8
外形
100
AcDbLine
 10
606.4899483683762
 20
280.4698125793155
 30
0.0
 11
606.4899483683761
 21
198.4698125793156
 31
0.0
  0
LINE
  5
120A
330
1F
100
AcDbEntity
  8
外形
100
AcDbLine
 10
601.4899483683762
 20
280.4698125793155
 30
0.0
 11
601.4899483683762
 21
198.4698125793155
 31
0.0
  0
LINE
  5
120B
330
1F
100
AcDbEntity
  8
外形
100
AcDbLine
 10
606.4899483683761
 20
199.4698125793155
 30
0.0
 11
627.4899483683746
 21
199.4698125793155
 31
0.0
  0
LINE
  5
120C
330
1F
100
AcDbEntity
  8
外形
100
AcDbLine
 10
601.4899483683762
 20
198.4698125793155
 30
0.0
 11
606.4899483683761
 21
198.4698125793156
 31
0.0
  0
LINE
  5
120D
330
1F
100
AcDbEntity
  8
外形
100
AcDbLine
 10
628.6189021067222
 20
200.4698125793155
 30
0.0
 11
627.4899483683746
 21
199.4698125793155
 31
0.0
  0
LINE
  5
120E
330
1F
100
AcDbEntity
  8
外形
100
AcDbLine
 10
606.4899483683762
 20
279.4698125793155
 30
0.0
 11
627.4899483683745
 21
279.4698125793155
 31
0.0
  0
LINE
  5
120F
330
1F
100
AcDbEntity
  8
外形
100
AcDbLine
 10
601.4899483683762
 20
280.4698125793155
 30
0.0
 11
606.4899483683762
 21
280.4698125793155
 31
0.0
  0
LINE
  5
1210
330
1F
100
AcDbEntity
  8
外形
100
AcDbLine
 10
628.6189021067222
 20
278.4698125793156
 30
0.0
 11
627.4899483683746
 21
279.4698125793155
 31
0.0
  0
LINE
  5
1211
330
1F
100
AcDbEntity
  8
外形
100
AcDbLine
 10
604.5248309241936
 20
377.0854515731641
 30
0.0
 11
628.0785818490133
 21
377.0854515731641
 31
0.0
  0
LINE
  5
1212
330
1F
100
AcDbEntity
  8
外形
100
AcDbLine
 10
604.5248309241936
 20
330.0854515731641
 30
0.0
 11
628.0785818490143
 21
330.0854515731641
 31
0.0
  0
ARC
  5
1213
330
1F
100
AcDbEntity
  8
寸法
100
AcDbCircle
 10
618.110380444817
 20
363.5873548445806
 30
0.0
 40
6.912858107314476
100
AcDbArc
 50
138.1520768092417
 51
221.8069719278069
  0
LINE
  5
1214
330
1F
100
AcDbEntity
  8
外形
100
AcDbLine
 10
613.5248309241936
 20
368.1993079916106
 30
0.0
 11
613.5248309241936
 21
363.5848797823873
 31
0.0
  0
ARC
  5
1215
330
1F
100
AcDbEntity
  8
外形
100
AcDbCircle
 10
610.2185495653168
 20
365.7754593927329
 30
0.0
 40
0.5
100
AcDbArc
 50
0.0
 51
90.0
  0
ARC
  5
1216
330
1F
100
AcDbEntity
  8
外形
100
AcDbCircle
 10
609.7105117329924
 20
365.7754593927329
 30
0.0
 40
0.5
100
AcDbArc
 50
90.0
 51
180.0
  0
LINE
  5
1217
330
1F
100
AcDbEntity
  8
外形
100
AcDbLine
 10
603.5248309241937
 20
376.0854515731641
 30
0.0
 11
603.5248309241938
 21
331.085451573164
 31
0.0
  0
LINE
  5
1218
330
1F
100
AcDbEntity
  8
外形
100
AcDbLine
 10
601.5248309241938
 20
376.0854515731641
 30
0.0
 11
601.5248309241936
 21
331.085451573164
 31
0.0
  0
LINE
  5
1219
330
1F
100
AcDbEntity
  8
外形
100
AcDbLine
 10
622.4899483683763
 20
377.0854515731641
 30
0.0
 11
622.4899483683763
 21
330.0854515731641
 31
0.0
  0
LINE
  5
121A
330
1F
100
AcDbEntity
  8
外形
100
AcDbLine
 10
613.5248309241936
 20
339.0415951547179
 30
0.0
 11
613.5248309241936
 21
343.6560233639411
 31
0.0
  0
ARC
  5
121B
330
1F
100
AcDbEntity
  8
外形
100
AcDbCircle
 10
609.7105117329923
 20
343.1560233639411
 30
0.0
 40
0.5
100
AcDbArc
 50
90.0
 51
180.0
  0
LINE
  5
121C
330
1F
100
AcDbEntity
  8
外形
100
AcDbLine
 10
610.7185495653167
 20
343.6560233639411
 30
0.0
 11
610.7185495653168
 21
341.4654437535955
 31
0.0
  0
ARC
  5
121D
330
1F
100
AcDbEntity
  8
寸法
100
AcDbCircle
 10
618.110380444817
 20
343.6535483017478
 30
0.0
 40
6.912858107314476
100
AcDbArc
 50
138.193028072193
 51
221.8479231907582
  0
LINE
  5
121E
330
1F
100
AcDbEntity
  8
外形
100
AcDbLine
 10
603.5248309241938
 20
339.0415951547179
 30
0.0
 11
613.5248309241936
 21
339.0415951547179
 31
0.0
  0
LINE
  5
121F
330
1F
100
AcDbEntity
  8
外形
100
AcDbLine
 10
604.5248309241936
 20
330.0854515731641
 30
0.0
 11
604.5248309241936
 21
330.5854515731641
 31
0.0
  0
LINE
  5
1220
330
1F
100
AcDbEntity
  8
外形
100
AcDbLine
 10
604.0248309241937
 20
331.0854515731641
 30
0.0
 11
604.0248309241937
 21
331.0854515731641
 31
0.0
  0
ARC
  5
1221
330
1F
100
AcDbEntity
  8
外形
100
AcDbCircle
 10
604.0248309241937
 20
330.5854515731641
 30
0.0
 40
0.5
100
AcDbArc
 50
0.0
 51
90.0
  0
ARC
  5
1222
330
1F
100
AcDbEntity
  8
外形
100
AcDbCircle
 10
604.0248309241937
 20
331.5854515731641
 30
0.0
 40
0.5
100
AcDbArc
 50
180.0
 51
270.0
  0
LINE
  5
1223
330
1F
100
AcDbEntity
  8
外形
100
AcDbLine
 10
604.0248309241937
 20
331.085451573164
 30
0.0
 11
601.5248309241936
 21
331.085451573164
 31
0.0
  0
LINE
  5
1224
330
1F
100
AcDbEntity
  8
外形
100
AcDbLine
 10
610.7185495653168
 20
342.0494360993618
 30
0.0
 11
611.3862127450923
 21
342.0494360993618
 31
0.0
  0
ARC
  5
1225
330
1F
100
AcDbEntity
  8
外形
100
AcDbCircle
 10
609.7105117329924
 20
341.4654437535955
 30
0.0
 40
0.5
100
AcDbArc
 50
180.0
 51
270.0
  0
LINE
  5
1226
330
1F
100
AcDbEntity
  8
外形
100
AcDbLine
 10
610.2185495653168
 20
340.9654437535955
 30
0.0
 11
609.7105117329924
 21
340.9654437535955
 31
0.0
  0
LINE
  5
1227
330
1F
100
AcDbEntity
  8
外形
100
AcDbLine
 10
609.2105117329924
 20
341.4654437535955
 30
0.0
 11
609.2105117329923
 21
343.1560233639411
 31
0.0
  0
ARC
  5
1228
330
1F
100
AcDbEntity
  8
外形
100
AcDbCircle
 10
610.2185495653168
 20
341.4654437535955
 30
0.0
 40
0.5
100
AcDbArc
 50
270.0
 51
0.0
  0
LINE
  5
1229
330
1F
100
AcDbEntity
  8
外形
100
AcDbLine
 10
603.5248309241938
 20
348.2704515731643
 30
0.0
 11
613.5248309241936
 21
348.2704515731643
 31
0.0
  0
LINE
  5
122A
330
1F
100
AcDbEntity
  8
外形
100
AcDbLine
 10
603.5248309241938
 20
358.9704515731641
 30
0.0
 11
613.5248309241936
 21
358.9704515731642
 31
0.0
  0
LINE
  5
122B
330
1F
100
AcDbEntity
  8
外形
100
AcDbLine
 10
613.5248309241936
 20
343.6560233639411
 30
0.0
 11
613.5248309241936
 21
343.6560233639411
 31
0.0
  0
LINE
  5
122C
330
1F
100
AcDbEntity
  8
外形
100
AcDbLine
 10
610.7185495653168
 20
345.2626106285204
 30
0.0
 11
611.3873955690029
 21
345.2626106285204
 31
0.0
  0
LINE
  5
122D
330
1F
100
AcDbEntity
  8
外形
100
AcDbLine
 10
610.7185495653167
 20
343.6560233639411
 30
0.0
 11
610.7185495653168
 21
345.8466029742867
 31
0.0
  0
LINE
  5
122E
330
1F
100
AcDbEntity
  8
外形
100
AcDbLine
 10
613.5248309241936
 20
348.2704515731643
 30
0.0
 11
613.5248309241936
 21
343.656023363941
 31
0.0
  0
ARC
  5
122F
330
1F
100
AcDbEntity
  8
外形
100
AcDbCircle
 10
609.7105117329923
 20
344.1560233639411
 30
0.0
 40
0.5
100
AcDbArc
 50
180.0
 51
270.0
  0
LINE
  5
1230
330
1F
100
AcDbEntity
  8
外形
100
AcDbLine
 10
610.2185495653168
 20
346.3466029742867
 30
0.0
 11
609.7105117329924
 21
346.3466029742867
 31
0.0
  0
ARC
  5
1231
330
1F
100
AcDbEntity
  8
外形
100
AcDbCircle
 10
609.7105117329924
 20
345.8466029742867
 30
0.0
 40
0.5
100
AcDbArc
 50
90.0
 51
180.0
  0
LINE
  5
1232
330
1F
100
AcDbEntity
  8
外形
100
AcDbLine
 10
609.2105117329924
 20
345.8466029742867
 30
0.0
 11
609.2105117329923
 21
344.1560233639411
 31
0.0
  0
ARC
  5
1233
330
1F
100
AcDbEntity
  8
外形
100
AcDbCircle
 10
610.2185495653168
 20
345.8466029742867
 30
0.0
 40
0.5
100
AcDbArc
 50
0.0
 51
90.0
  0
LINE
  5
1234
330
1F
100
AcDbEntity
  8
外形
100
AcDbLine
 10
613.5248309241936
 20
358.9704515731642
 30
0.0
 11
613.5248309241936
 21
363.5848797823874
 31
0.0
  0
LINE
  5
1235
330
1F
100
AcDbEntity
  8
外形
100
AcDbLine
 10
610.7185495653167
 20
363.5848797823874
 30
0.0
 11
610.7185495653168
 21
361.3943001720418
 31
0.0
  0
ARC
  5
1236
330
1F
100
AcDbEntity
  8
外形
100
AcDbCircle
 10
609.7105117329923
 20
363.0848797823874
 30
0.0
 40
0.5
100
AcDbArc
 50
90.0
 51
180.0
  0
ARC
  5
1237
330
1F
100
AcDbEntity
  8
外形
100
AcDbCircle
 10
609.7105117329924
 20
361.3943001720418
 30
0.0
 40
0.5
100
AcDbArc
 50
180.0
 51
270.0
  0
ARC
  5
1238
330
1F
100
AcDbEntity
  8
外形
100
AcDbCircle
 10
610.2185495653168
 20
361.3943001720418
 30
0.0
 40
0.5
100
AcDbArc
 50
270.0
 51
0.0
  0
LINE
  5
1239
330
1F
100
AcDbEntity
  8
外形
100
AcDbLine
 10
610.2185495653168
 20
360.8943001720418
 30
0.0
 11
609.7105117329924
 21
360.8943001720418
 31
0.0
  0
LINE
  5
123A
330
1F
100
AcDbEntity
  8
外形
100
AcDbLine
 10
609.2105117329924
 20
361.3943001720418
 30
0.0
 11
609.2105117329923
 21
363.0848797823874
 31
0.0
  0
LINE
  5
123B
330
1F
100
AcDbEntity
  8
外形
100
AcDbLine
 10
610.7185495653168
 20
361.9782925178081
 30
0.0
 11
611.3873955690029
 21
361.9782925178081
 31
0.0
  0
LINE
  5
123C
330
1F
100
AcDbEntity
  8
外形
100
AcDbLine
 10
613.5248309241936
 20
363.5848797823873
 30
0.0
 11
613.5248309241936
 21
363.5848797823873
 31
0.0
  0
LINE
  5
123D
330
1F
100
AcDbEntity
  8
外形
100
AcDbLine
 10
610.7185495653168
 20
365.1914670469667
 30
0.0
 11
611.3862127450923
 21
365.1914670469666
 31
0.0
  0
ARC
  5
123E
330
1F
100
AcDbEntity
  8
外形
100
AcDbCircle
 10
609.7105117329923
 20
364.0848797823873
 30
0.0
 40
0.5
100
AcDbArc
 50
180.0
 51
270.0
  0
LINE
  5
123F
330
1F
100
AcDbEntity
  8
外形
100
AcDbLine
 10
609.2105117329924
 20
365.7754593927329
 30
0.0
 11
609.2105117329923
 21
364.0848797823873
 31
0.0
  0
LINE
  5
1240
330
1F
100
AcDbEntity
  8
外形
100
AcDbLine
 10
610.7185495653167
 20
363.5848797823873
 30
0.0
 11
610.7185495653168
 21
365.7754593927329
 31
0.0
  0
LINE
  5
1241
330
1F
100
AcDbEntity
  8
外形
100
AcDbLine
 10
603.5248309241938
 20
368.1993079916105
 30
0.0
 11
613.5248309241936
 21
368.1993079916106
 31
0.0
  0
LINE
  5
1242
330
1F
100
AcDbEntity
  8
外形
100
AcDbLine
 10
604.0248309241937
 20
376.0854515731641
 30
0.0
 11
604.0248309241937
 21
376.0854515731641
 31
0.0
  0
ARC
  5
1243
330
1F
100
AcDbEntity
  8
外形
100
AcDbCircle
 10
604.0248309241937
 20
375.5854515731641
 30
0.0
 40
0.5
100
AcDbArc
 50
90.0
 51
180.0
  0
LINE
  5
1244
330
1F
100
AcDbEntity
  8
外形
100
AcDbLine
 10
604.5248309241936
 20
377.0854515731641
 30
0.0
 11
604.5248309241936
 21
376.5854515731641
 31
0.0
  0
ARC
  5
1245
330
1F
100
AcDbEntity
  8
外形
100
AcDbCircle
 10
604.0248309241937
 20
376.5854515731641
 30
0.0
 40
0.5
100
AcDbArc
 50
270.0
 51
0.0
  0
LINE
  5
1246
330
1F
100
AcDbEntity
  8
外形
100
AcDbLine
 10
604.0248309241937
 20
376.0854515731641
 30
0.0
 11
601.5248309241939
 21
376.0854515731641
 31
0.0
  0
LINE
  5
1247
330
1F
100
AcDbEntity
  8
外形
100
AcDbLine
 10
610.2185495653168
 20
366.2754593927329
 30
0.0
 11
609.7105117329924
 21
366.2754593927329
 31
0.0
  0
LINE
  5
1248
330
1F
100
AcDbEntity
  8
外形
100
AcDbLine
 10
627.4899483683762
 20
377.0854515731641
 30
0.0
 11
627.4899483683762
 21
330.0854515731641
 31
0.0
  0
LWPOLYLINE
  5
1249
330
1F
100
AcDbEntity
  8
寸法
100
AcDbPolyline
 90
        4
 70
     1
 43
0.0
 10
631.6540939732074
 20
373.6669316944912
 10
656.6540939732074
 20
373.6669316944912
 10
656.6540939732074
 20
365.6667015694868
 10
631.6540939732074
 20
365.6667015694868
  0
LWPOLYLINE
  5
124A
330
1F
100
AcDbEntity
  8
寸法
100
AcDbPolyline
 90
        4
 70
     1
 43
0.0
 10
631.6540939732074
 20
341.5677069257577
 10
656.6540939732074
 20
341.5677069257577
 10
656.6540939732074
 20
333.5674768007533
 10
631.6540939732074
 20
333.5674768007533
  0
LINE
  5
124C
330
1F
100
AcDbEntity
  8
外形
100
AcDbLine
 10
650.5819633219402
 20
331.4591823762869
 30
0.0
 11
669.6677898639133
 21
331.4591823762869
 31
0.0
  0
LINE
  5
124D
330
1F
100
AcDbEntity
  8
外形
100
AcDbLine
 10
637.3723133779484
 20
331.1403664831448
 30
0.0
 11
636.9678857595822
 21
330.3491452079717
 31
0.0
  0
LINE
  5
124E
330
1F
100
AcDbEntity
  8
外形
100
AcDbLine
 10
630.2327634747983
 20
331.1403664831448
 30
0.0
 11
629.241995432241
 21
330.3417146488273
 31
0.0
  0
ARC
  5
124F
330
1F
100
AcDbEntity
  8
外形
100
AcDbCircle
 10
627.7842651086946
 20
334.1906589095254
 30
0.0
 40
4.115744114755782
100
AcDbArc
 50
265.8992804604959
 51
290.7434361133899
  0
ARC
  5
1250
330
1F
100
AcDbEntity
  8
外形
100
AcDbCircle
 10
636.6540939732074
 20
330.7384198087405
 30
0.0
 40
0.5
100
AcDbArc
 50
226.5695982083778
 51
308.8720670740543
  0
ARC
  5
1251
330
1F
100
AcDbEntity
  8
外形
100
AcDbCircle
 10
635.1861051643233
 20
330.7510918823761
 30
0.0
 40
0.5
100
AcDbArc
 50
46.56959820837786
 51
128.8720670740543
  0
LINE
  5
1252
330
1F
100
AcDbEntity
  8
外形
100
AcDbLine
 10
634.8723133779484
 20
331.1403664831448
 30
0.0
 11
634.4678857595822
 21
330.3491452079717
 31
0.0
  0
LINE
  5
1253
330
1F
100
AcDbEntity
  8
外形
100
AcDbLine
 10
633.8103575017883
 20
330.375314812608
 30
0.0
 11
633.0298416357424
 21
331.1141968785086
 31
0.0
  0
LINE
  5
1254
330
1F
100
AcDbEntity
  8
外形
100
AcDbLine
 10
632.3723133779484
 20
331.1403664831448
 30
0.0
 11
631.9678857595822
 21
330.3491452079717
 31
0.0
  0
ARC
  5
1255
330
1F
100
AcDbEntity
  8
外形
100
AcDbCircle
 10
631.6540939732074
 20
330.7384198087405
 30
0.0
 40
0.5
100
AcDbArc
 50
226.5695982083778
 51
308.8720670740543
  0
ARC
  5
1256
330
1F
100
AcDbEntity
  8
外形
100
AcDbCircle
 10
632.6861051643232
 20
330.7510918823761
 30
0.0
 40
0.5
100
AcDbArc
 50
46.56959820837786
 51
128.8720670740543
  0
ARC
  5
1257
330
1F
100
AcDbEntity
  8
外形
100
AcDbCircle
 10
634.1540939732074
 20
330.7384198087405
 30
0.0
 40
0.5
100
AcDbArc
 50
226.5695982083778
 51
308.8720670740543
  0
ARC
  5
1258
330
1F
100
AcDbEntity
  8
外形
100
AcDbCircle
 10
630.5465552611731
 20
330.7510918823761
 30
0.0
 40
0.5
100
AcDbArc
 50
46.56959820837786
 51
128.8720670740543
  0
LINE
  5
1259
330
1F
100
AcDbEntity
  8
外形
100
AcDbLine
 10
631.3103575017882
 20
330.375314812608
 30
0.0
 11
630.8902917325922
 21
331.1141968785086
 31
0.0
  0
LINE
  5
125A
330
1F
100
AcDbEntity
  8
外形
100
AcDbLine
 10
636.3103575017882
 20
330.375314812608
 30
0.0
 11
635.5298416357424
 21
331.1141968785086
 31
0.0
  0
LINE
  5
125B
330
1F
100
AcDbEntity
  8
外形
100
AcDbLine
 10
644.8723133779484
 20
331.1403664831448
 30
0.0
 11
644.4678857595822
 21
330.3491452079717
 31
0.0
  0
LINE
  5
125C
330
1F
100
AcDbEntity
  8
外形
100
AcDbLine
 10
643.8103575017882
 20
330.375314812608
 30
0.0
 11
643.0298416357423
 21
331.1141968785086
 31
0.0
  0
ARC
  5
125D
330
1F
100
AcDbEntity
  8
外形
100
AcDbCircle
 10
644.1540939732074
 20
330.7384198087405
 30
0.0
 40
0.5
100
AcDbArc
 50
226.5695982083778
 51
308.8720670740543
  0
ARC
  5
125E
330
1F
100
AcDbEntity
  8
外形
100
AcDbCircle
 10
642.6861051643233
 20
330.7510918823761
 30
0.0
 40
0.5
100
AcDbArc
 50
46.56959820837786
 51
128.8720670740543
  0
ARC
  5
125F
330
1F
100
AcDbEntity
  8
外形
100
AcDbCircle
 10
641.6540939732073
 20
330.7384198087405
 30
0.0
 40
0.5
100
AcDbArc
 50
226.5695982083778
 51
308.8720670740543
  0
LINE
  5
1260
330
1F
100
AcDbEntity
  8
外形
100
AcDbLine
 10
641.3103575017883
 20
330.375314812608
 30
0.0
 11
640.5298416357424
 21
331.1141968785086
 31
0.0
  0
ARC
  5
1261
330
1F
100
AcDbEntity
  8
外形
100
AcDbCircle
 10
640.1861051643233
 20
330.7510918823761
 30
0.0
 40
0.5
100
AcDbArc
 50
46.56959820837786
 51
128.8720670740543
  0
ARC
  5
1262
330
1F
100
AcDbEntity
  8
外形
100
AcDbCircle
 10
639.1540939732074
 20
330.7384198087405
 30
0.0
 40
0.5
100
AcDbArc
 50
226.5695982083778
 51
308.8720670740543
  0
ARC
  5
1263
330
1F
100
AcDbEntity
  8
外形
100
AcDbCircle
 10
637.6861051643232
 20
330.7510918823761
 30
0.0
 40
0.5
100
AcDbArc
 50
46.56959820837786
 51
128.8720670740543
  0
LINE
  5
1264
330
1F
100
AcDbEntity
  8
外形
100
AcDbLine
 10
638.8103575017883
 20
330.375314812608
 30
0.0
 11
638.0298416357423
 21
331.1141968785086
 31
0.0
  0
LINE
  5
1265
330
1F
100
AcDbEntity
  8
外形
100
AcDbLine
 10
639.8723133779484
 20
331.1403664831448
 30
0.0
 11
639.4678857595822
 21
330.3491452079717
 31
0.0
  0
LINE
  5
1266
330
1F
100
AcDbEntity
  8
外形
100
AcDbLine
 10
642.3723133779484
 20
331.1403664831448
 30
0.0
 11
641.9678857595823
 21
330.3491452079717
 31
0.0
  0
ARC
  5
1267
330
1F
100
AcDbEntity
  8
外形
100
AcDbCircle
 10
647.6861051643233
 20
330.7510918823761
 30
0.0
 40
0.5
100
AcDbArc
 50
46.56959820837786
 51
128.8720670740543
  0
ARC
  5
1268
330
1F
100
AcDbEntity
  8
外形
100
AcDbCircle
 10
649.1540939732074
 20
330.7384198087405
 30
0.0
 40
0.5
100
AcDbArc
 50
226.5695982083778
 51
315.0
  0
LINE
  5
1269
330
1F
100
AcDbEntity
  8
外形
100
AcDbLine
 10
648.8103575017882
 20
330.375314812608
 30
0.0
 11
648.0298416357424
 21
331.1141968785086
 31
0.0
  0
LINE
  5
126A
330
1F
100
AcDbEntity
  8
外形
100
AcDbLine
 10
649.5076473638006
 20
330.3848664181472
 30
0.0
 11
650.5819633219401
 21
331.4591823762869
 31
0.0
  0
ARC
  5
126B
330
1F
100
AcDbEntity
  8
外形
100
AcDbCircle
 10
645.1861051643232
 20
330.7510918823761
 30
0.0
 40
0.5
100
AcDbArc
 50
46.56959820837786
 51
128.8720670740543
  0
LINE
  5
126C
330
1F
100
AcDbEntity
  8
外形
100
AcDbLine
 10
647.0076473638006
 20
330.3848664181472
 30
0.0
 11
647.3723133779484
 21
331.1403664831448
 31
0.0
  0
LINE
  5
126D
330
1F
100
AcDbEntity
  8
外形
100
AcDbLine
 10
646.3103575017883
 20
330.375314812608
 30
0.0
 11
645.5298416357424
 21
331.1141968785086
 31
0.0
  0
ARC
  5
126E
330
1F
100
AcDbEntity
  8
外形
100
AcDbCircle
 10
646.6540939732074
 20
330.7384198087405
 30
0.0
 40
0.5
100
AcDbArc
 50
226.5695982083778
 51
315.0
  0
ARC
  5
126F
330
1F
100
AcDbEntity
  8
外形
100
AcDbCircle
 10
674.1597328340021
 20
330.7510918823761
 30
0.0
 40
0.5
100
AcDbArc
 50
46.56959820837786
 51
128.8720670740543
  0
ARC
  5
1270
330
1F
100
AcDbEntity
  8
外形
100
AcDbCircle
 10
671.6597328340021
 20
330.7510918823761
 30
0.0
 40
0.5
100
AcDbArc
 50
46.56959820837786
 51
128.8720670740543
  0
ARC
  5
1271
330
1F
100
AcDbEntity
  8
外形
100
AcDbCircle
 10
673.1277216428862
 20
330.7384198087405
 30
0.0
 40
0.5
100
AcDbArc
 50
226.5695982083778
 51
308.8720670740543
  0
ARC
  5
1272
330
1F
100
AcDbEntity
  8
外形
100
AcDbCircle
 10
670.6277216428863
 20
330.7384198087405
 30
0.0
 40
0.5
100
AcDbArc
 50
226.5695982083778
 51
308.8720670740543
  0
LINE
  5
1273
330
1F
100
AcDbEntity
  8
外形
100
AcDbLine
 10
670.2839851714672
 20
330.375314812608
 30
0.0
 11
669.6677898639135
 21
331.459182376287
 31
0.0
  0
LINE
  5
1274
330
1F
100
AcDbEntity
  8
外形
100
AcDbLine
 10
672.7839851714671
 20
330.375314812608
 30
0.0
 11
672.0034693054213
 21
331.1141968785086
 31
0.0
  0
LINE
  5
1275
330
1F
100
AcDbEntity
  8
外形
100
AcDbLine
 10
671.3459410476273
 20
331.1403664831448
 30
0.0
 11
670.9415134292611
 21
330.3491452079717
 31
0.0
  0
LINE
  5
1276
330
1F
100
AcDbEntity
  8
外形
100
AcDbLine
 10
673.8459410476273
 20
331.1403664831448
 30
0.0
 11
673.4415134292611
 21
330.3491452079717
 31
0.0
  0
ARC
  5
1277
330
1F
100
AcDbEntity
  8
外形
100
AcDbCircle
 10
679.1597328340022
 20
330.7510918823761
 30
0.0
 40
0.5
100
AcDbArc
 50
46.56959820837786
 51
128.8720670740543
  0
ARC
  5
1278
330
1F
100
AcDbEntity
  8
外形
100
AcDbCircle
 10
676.6597328340021
 20
330.7510918823761
 30
0.0
 40
0.5
100
AcDbArc
 50
46.56959820837786
 51
128.8720670740543
  0
ARC
  5
1279
330
1F
100
AcDbEntity
  8
外形
100
AcDbCircle
 10
680.6277216428862
 20
330.7384198087405
 30
0.0
 40
0.5
100
AcDbArc
 50
226.5695982083778
 51
308.8720670740543
  0
ARC
  5
127A
330
1F
100
AcDbEntity
  8
外形
100
AcDbCircle
 10
675.6277216428863
 20
330.7384198087405
 30
0.0
 40
0.5
100
AcDbArc
 50
226.5695982083778
 51
308.8720670740543
  0
ARC
  5
127B
330
1F
100
AcDbEntity
  8
外形
100
AcDbCircle
 10
678.1277216428862
 20
330.7384198087405
 30
0.0
 40
0.5
100
AcDbArc
 50
226.5695982083778
 51
308.8720670740543
  0
LINE
  5
127C
330
1F
100
AcDbEntity
  8
外形
100
AcDbLine
 10
675.2839851714671
 20
330.375314812608
 30
0.0
 11
674.5034693054212
 21
331.1141968785086
 31
0.0
  0
LINE
  5
127D
330
1F
100
AcDbEntity
  8
外形
100
AcDbLine
 10
677.7839851714672
 20
330.375314812608
 30
0.0
 11
677.0034693054213
 21
331.1141968785086
 31
0.0
  0
LINE
  5
127E
330
1F
100
AcDbEntity
  8
外形
100
AcDbLine
 10
676.3459410476273
 20
331.1403664831448
 30
0.0
 11
675.9415134292611
 21
330.3491452079717
 31
0.0
  0
LINE
  5
127F
330
1F
100
AcDbEntity
  8
外形
100
AcDbLine
 10
680.2839851714671
 20
330.375314812608
 30
0.0
 11
679.5034693054212
 21
331.1141968785086
 31
0.0
  0
LINE
  5
1280
330
1F
100
AcDbEntity
  8
外形
100
AcDbLine
 10
678.8459410476272
 20
331.1403664831448
 30
0.0
 11
678.4415134292611
 21
330.3491452079717
 31
0.0
  0
LINE
  5
1281
330
1F
100
AcDbEntity
  8
外形
100
AcDbLine
 10
681.3459410476273
 20
331.1403664831448
 30
0.0
 11
680.9415134292611
 21
330.3491452079717
 31
0.0
  0
LINE
  5
1282
330
1F
100
AcDbEntity
  8
外形
100
AcDbLine
 10
650.5819633219402
 20
375.7117207700413
 30
0.0
 11
669.6677898639133
 21
375.7117207700413
 31
0.0
  0
LINE
  5
1283
330
1F
100
AcDbEntity
  8
外形
100
AcDbLine
 10
637.3723133779484
 20
376.0305366631834
 30
0.0
 11
636.9678857595822
 21
376.8217579383565
 31
0.0
  0
LINE
  5
1284
330
1F
100
AcDbEntity
  8
外形
100
AcDbLine
 10
630.2327634747983
 20
376.0305366631834
 30
0.0
 11
629.241995432241
 21
376.8291884975009
 31
0.0
  0
ARC
  5
1285
330
1F
100
AcDbEntity
  8
外形
100
AcDbCircle
 10
627.7842651086946
 20
372.9802442368027
 30
0.0
 40
4.115744114755782
100
AcDbArc
 50
69.25656388661007
 51
94.10071953950405
  0
ARC
  5
1286
330
1F
100
AcDbEntity
  8
外形
100
AcDbCircle
 10
632.6861051643232
 20
376.4198112639522
 30
0.0
 40
0.5
100
AcDbArc
 50
231.1279329259456
 51
313.4304017916221
  0
ARC
  5
1287
330
1F
100
AcDbEntity
  8
外形
100
AcDbCircle
 10
635.1861051643233
 20
376.4198112639522
 30
0.0
 40
0.5
100
AcDbArc
 50
231.1279329259456
 51
313.4304017916221
  0
ARC
  5
1288
330
1F
100
AcDbEntity
  8
外形
100
AcDbCircle
 10
630.5465552611731
 20
376.4198112639522
 30
0.0
 40
0.5
100
AcDbArc
 50
231.1279329259456
 51
313.4304017916221
  0
ARC
  5
1289
330
1F
100
AcDbEntity
  8
外形
100
AcDbCircle
 10
634.1540939732074
 20
376.4324833375878
 30
0.0
 40
0.5
100
AcDbArc
 50
51.12793292594567
 51
133.4304017916221
  0
ARC
  5
128A
330
1F
100
AcDbEntity
  8
外形
100
AcDbCircle
 10
636.6540939732074
 20
376.4324833375878
 30
0.0
 40
0.5
100
AcDbArc
 50
51.12793292594567
 51
133.4304017916221
  0
ARC
  5
128B
330
1F
100
AcDbEntity
  8
外形
100
AcDbCircle
 10
631.6540939732074
 20
376.4324833375878
 30
0.0
 40
0.5
100
AcDbArc
 50
51.12793292594567
 51
133.4304017916221
  0
LINE
  5
128C
330
1F
100
AcDbEntity
  8
外形
100
AcDbLine
 10
631.3103575017882
 20
376.7955883337203
 30
0.0
 11
630.8902917325922
 21
376.0567062678197
 31
0.0
  0
LINE
  5
128D
330
1F
100
AcDbEntity
  8
外形
100
AcDbLine
 10
633.8103575017883
 20
376.7955883337203
 30
0.0
 11
633.0298416357424
 21
376.0567062678197
 31
0.0
  0
LINE
  5
128E
330
1F
100
AcDbEntity
  8
外形
100
AcDbLine
 10
632.3723133779484
 20
376.0305366631834
 30
0.0
 11
631.9678857595822
 21
376.8217579383565
 31
0.0
  0
LINE
  5
128F
330
1F
100
AcDbEntity
  8
外形
100
AcDbLine
 10
636.3103575017882
 20
376.7955883337203
 30
0.0
 11
635.5298416357424
 21
376.0567062678197
 31
0.0
  0
LINE
  5
1290
330
1F
100
AcDbEntity
  8
外形
100
AcDbLine
 10
634.8723133779484
 20
376.0305366631834
 30
0.0
 11
634.4678857595822
 21
376.8217579383565
 31
0.0
  0
LINE
  5
1291
330
1F
100
AcDbEntity
  8
外形
100
AcDbLine
 10
644.8723133779484
 20
376.0305366631834
 30
0.0
 11
644.4678857595822
 21
376.8217579383565
 31
0.0
  0
ARC
  5
1292
330
1F
100
AcDbEntity
  8
外形
100
AcDbCircle
 10
640.1861051643233
 20
376.4198112639522
 30
0.0
 40
0.5
100
AcDbArc
 50
231.1279329259456
 51
313.4304017916221
  0
ARC
  5
1293
330
1F
100
AcDbEntity
  8
外形
100
AcDbCircle
 10
642.6861051643233
 20
376.4198112639522
 30
0.0
 40
0.5
100
AcDbArc
 50
231.1279329259456
 51
313.4304017916221
  0
ARC
  5
1294
330
1F
100
AcDbEntity
  8
外形
100
AcDbCircle
 10
637.6861051643232
 20
376.4198112639522
 30
0.0
 40
0.5
100
AcDbArc
 50
231.1279329259456
 51
313.4304017916221
  0
ARC
  5
1295
330
1F
100
AcDbEntity
  8
外形
100
AcDbCircle
 10
641.6540939732073
 20
376.4324833375878
 30
0.0
 40
0.5
100
AcDbArc
 50
51.12793292594567
 51
133.4304017916221
  0
ARC
  5
1296
330
1F
100
AcDbEntity
  8
外形
100
AcDbCircle
 10
644.1540939732074
 20
376.4324833375878
 30
0.0
 40
0.5
100
AcDbArc
 50
51.12793292594567
 51
133.4304017916221
  0
ARC
  5
1297
330
1F
100
AcDbEntity
  8
外形
100
AcDbCircle
 10
639.1540939732074
 20
376.4324833375878
 30
0.0
 40
0.5
100
AcDbArc
 50
51.12793292594567
 51
133.4304017916221
  0
LINE
  5
1298
330
1F
100
AcDbEntity
  8
外形
100
AcDbLine
 10
638.8103575017883
 20
376.7955883337203
 30
0.0
 11
638.0298416357423
 21
376.0567062678197
 31
0.0
  0
LINE
  5
1299
330
1F
100
AcDbEntity
  8
外形
100
AcDbLine
 10
641.3103575017883
 20
376.7955883337203
 30
0.0
 11
640.5298416357424
 21
376.0567062678197
 31
0.0
  0
LINE
  5
129A
330
1F
100
AcDbEntity
  8
外形
100
AcDbLine
 10
639.8723133779484
 20
376.0305366631834
 30
0.0
 11
639.4678857595822
 21
376.8217579383565
 31
0.0
  0
LINE
  5
129B
330
1F
100
AcDbEntity
  8
外形
100
AcDbLine
 10
643.8103575017882
 20
376.7955883337203
 30
0.0
 11
643.0298416357423
 21
376.0567062678197
 31
0.0
  0
LINE
  5
129C
330
1F
100
AcDbEntity
  8
外形
100
AcDbLine
 10
642.3723133779484
 20
376.0305366631834
 30
0.0
 11
641.9678857595823
 21
376.8217579383565
 31
0.0
  0
ARC
  5
129D
330
1F
100
AcDbEntity
  8
外形
100
AcDbCircle
 10
647.6861051643233
 20
376.4198112639522
 30
0.0
 40
0.5
100
AcDbArc
 50
231.1279329259456
 51
313.4304017916221
  0
ARC
  5
129E
330
1F
100
AcDbEntity
  8
外形
100
AcDbCircle
 10
645.1861051643232
 20
376.4198112639522
 30
0.0
 40
0.5
100
AcDbArc
 50
231.1279329259456
 51
313.4304017916221
  0
ARC
  5
129F
330
1F
100
AcDbEntity
  8
外形
100
AcDbCircle
 10
646.6540939732074
 20
376.4324833375878
 30
0.0
 40
0.5
100
AcDbArc
 50
45.0
 51
133.4304017916221
  0
ARC
  5
12A0
330
1F
100
AcDbEntity
  8
外形
100
AcDbCircle
 10
649.1540939732074
 20
376.4324833375878
 30
0.0
 40
0.5
100
AcDbArc
 50
45.0
 51
133.4304017916221
  0
LINE
  5
12A1
330
1F
100
AcDbEntity
  8
外形
100
AcDbLine
 10
646.3103575017883
 20
376.7955883337203
 30
0.0
 11
645.5298416357424
 21
376.0567062678197
 31
0.0
  0
LINE
  5
12A2
330
1F
100
AcDbEntity
  8
外形
100
AcDbLine
 10
649.5076473638006
 20
376.786036728181
 30
0.0
 11
650.5819633219401
 21
375.7117207700413
 31
0.0
  0
LINE
  5
12A3
330
1F
100
AcDbEntity
  8
外形
100
AcDbLine
 10
648.8103575017882
 20
376.7955883337203
 30
0.0
 11
648.0298416357424
 21
376.0567062678197
 31
0.0
  0
LINE
  5
12A4
330
1F
100
AcDbEntity
  8
外形
100
AcDbLine
 10
647.0076473638006
 20
376.786036728181
 30
0.0
 11
647.3723133779484
 21
376.0305366631834
 31
0.0
  0
ARC
  5
12A5
330
1F
100
AcDbEntity
  8
外形
100
AcDbCircle
 10
674.1597328340021
 20
376.4198112639522
 30
0.0
 40
0.5
100
AcDbArc
 50
231.1279329259456
 51
313.4304017916221
  0
ARC
  5
12A6
330
1F
100
AcDbEntity
  8
外形
100
AcDbCircle
 10
671.6597328340021
 20
376.4198112639522
 30
0.0
 40
0.5
100
AcDbArc
 50
231.1279329259456
 51
313.4304017916221
  0
ARC
  5
12A7
330
1F
100
AcDbEntity
  8
外形
100
AcDbCircle
 10
670.6277216428863
 20
376.4324833375878
 30
0.0
 40
0.5
100
AcDbArc
 50
51.12793292594567
 51
133.4304017916221
  0
ARC
  5
12A8
330
1F
100
AcDbEntity
  8
外形
100
AcDbCircle
 10
673.1277216428862
 20
376.4324833375878
 30
0.0
 40
0.5
100
AcDbArc
 50
51.12793292594567
 51
133.4304017916221
  0
LINE
  5
12A9
330
1F
100
AcDbEntity
  8
外形
100
AcDbLine
 10
673.8459410476273
 20
376.0305366631834
 30
0.0
 11
673.4415134292611
 21
376.8217579383565
 31
0.0
  0
LINE
  5
12AA
330
1F
100
AcDbEntity
  8
外形
100
AcDbLine
 10
671.3459410476273
 20
376.0305366631834
 30
0.0
 11
670.9415134292611
 21
376.8217579383565
 31
0.0
  0
LINE
  5
12AB
330
1F
100
AcDbEntity
  8
外形
100
AcDbLine
 10
672.7839851714671
 20
376.7955883337203
 30
0.0
 11
672.0034693054213
 21
376.0567062678197
 31
0.0
  0
LINE
  5
12AC
330
1F
100
AcDbEntity
  8
外形
100
AcDbLine
 10
670.2839851714672
 20
376.7955883337203
 30
0.0
 11
669.6677898639135
 21
375.7117207700412
 31
0.0
  0
ARC
  5
12AD
330
1F
100
AcDbEntity
  8
外形
100
AcDbCircle
 10
676.6597328340021
 20
376.4198112639522
 30
0.0
 40
0.5
100
AcDbArc
 50
231.1279329259456
 51
313.4304017916221
  0
ARC
  5
12AE
330
1F
100
AcDbEntity
  8
外形
100
AcDbCircle
 10
679.1597328340022
 20
376.4198112639522
 30
0.0
 40
0.5
100
AcDbArc
 50
231.1279329259456
 51
313.4304017916221
  0
ARC
  5
12AF
330
1F
100
AcDbEntity
  8
外形
100
AcDbCircle
 10
678.1277216428862
 20
376.4324833375878
 30
0.0
 40
0.5
100
AcDbArc
 50
51.12793292594567
 51
133.4304017916221
  0
ARC
  5
12B0
330
1F
100
AcDbEntity
  8
外形
100
AcDbCircle
 10
680.6277216428862
 20
376.4324833375878
 30
0.0
 40
0.5
100
AcDbArc
 50
51.12793292594567
 51
133.4304017916221
  0
ARC
  5
12B1
330
1F
100
AcDbEntity
  8
外形
100
AcDbCircle
 10
675.6277216428863
 20
376.4324833375878
 30
0.0
 40
0.5
100
AcDbArc
 50
51.12793292594567
 51
133.4304017916221
  0
LINE
  5
12B2
330
1F
100
AcDbEntity
  8
外形
100
AcDbLine
 10
681.3459410476273
 20
376.0305366631834
 30
0.0
 11
680.9415134292611
 21
376.8217579383565
 31
0.0
  0
LINE
  5
12B3
330
1F
100
AcDbEntity
  8
外形
100
AcDbLine
 10
678.8459410476272
 20
376.0305366631834
 30
0.0
 11
678.4415134292611
 21
376.8217579383565
 31
0.0
  0
LINE
  5
12B4
330
1F
100
AcDbEntity
  8
外形
100
AcDbLine
 10
680.2839851714671
 20
376.7955883337203
 30
0.0
 11
679.5034693054212
 21
376.0567062678197
 31
0.0
  0
LINE
  5
12B5
330
1F
100
AcDbEntity
  8
外形
100
AcDbLine
 10
676.3459410476273
 20
376.0305366631834
 30
0.0
 11
675.9415134292611
 21
376.8217579383565
 31
0.0
  0
LINE
  5
12B6
330
1F
100
AcDbEntity
  8
外形
100
AcDbLine
 10
677.7839851714672
 20
376.7955883337203
 30
0.0
 11
677.0034693054213
 21
376.0567062678197
 31
0.0
  0
LINE
  5
12B7
330
1F
100
AcDbEntity
  8
外形
100
AcDbLine
 10
675.2839851714671
 20
376.7955883337203
 30
0.0
 11
674.5034693054212
 21
376.0567062678197
 31
0.0
  0
LINE
  5
12B8
330
1F
100
AcDbEntity
  8
外形
100
AcDbLine
 10
683.1277216428863
 20
278.4698125793155
 30
0.0
 11
683.1277216428865
 21
200.4698125793154
 31
0.0
  0
LINE
  5
12B9
330
1F
100
AcDbEntity
  8
外形
100
AcDbLine
 10
685.6277216428862
 20
278.4698125793155
 30
0.0
 11
685.6277216428865
 21
200.4698125793154
 31
0.0
  0
LINE
  5
12BA
330
1F
100
AcDbEntity
  8
外形
100
AcDbLine
 10
688.1277216428863
 20
278.4698125793155
 30
0.0
 11
688.1277216428864
 21
200.4698125793154
 31
0.0
  0
LINE
  5
12BB
330
1F
100
AcDbEntity
  8
外形
100
AcDbLine
 10
688.1277216428863
 20
278.4698125793155
 30
0.0
 11
688.1277216428863
 21
200.4698125793156
 31
0.0
  0
LINE
  5
12BC
330
1F
100
AcDbEntity
  8
外形
100
AcDbLine
 10
700.0682928190699
 20
263.3308290502256
 30
0.0
 11
700.06829281907
 21
255.2426581231054
 31
0.0
  0
LINE
  5
12BD
330
1F
100
AcDbEntity
  8
外形
100
AcDbLine
 10
695.6277216428863
 20
278.4698125793155
 30
0.0
 11
695.6277216428863
 21
200.4698125793156
 31
0.0
  0
LINE
  5
12BE
330
1F
100
AcDbEntity
  8
外形
100
AcDbLine
 10
701.4899483683762
 20
203.0910049886838
 30
0.0
 11
701.4899483683761
 21
223.6734032244042
 31
0.0
  0
LINE
  5
12BF
330
1F
100
AcDbEntity
  8
外形
100
AcDbLine
 10
695.6277216428863
 20
200.4698125793156
 30
0.0
 11
696.9899483683763
 21
200.4698125793156
 31
0.0
  0
LINE
  5
12C0
330
1F
100
AcDbEntity
  8
外形
100
AcDbLine
 10
695.6277216428861
 20
201.5910049886838
 30
0.0
 11
698.9899483683761
 21
201.5910049886838
 31
0.0
  0
LINE
  5
12C1
330
1F
100
AcDbEntity
  8
外形
100
AcDbLine
 10
695.6277216428861
 20
203.5910049886838
 30
0.0
 11
700.9899483683762
 21
203.5910049886838
 31
0.0
  0
LINE
  5
12C2
330
1F
100
AcDbEntity
  8
外形
100
AcDbLine
 10
687.8198817124857
 20
198.4698125793156
 30
0.0
 11
698.9899483683763
 21
198.4698125793156
 31
0.0
  0
ARC
  5
12C3
330
1F
100
AcDbEntity
  8
外形
100
AcDbCircle
 10
687.8198817124857
 20
198.9698125793156
 30
0.0
 40
0.5
100
AcDbArc
 50
180.0
 51
270.0
  0
LINE
  5
12C4
330
1F
100
AcDbEntity
  8
外形
100
AcDbLine
 10
687.3198817124858
 20
200.4698125793155
 30
0.0
 11
687.3198817124857
 21
198.9698125793156
 31
0.0
  0
LINE
  5
12C5
330
1F
100
AcDbEntity
  8
外形
100
AcDbLine
 10
697.4899483683762
 20
201.0304087839997
 30
0.0
 11
697.4899483683762
 21
201.5910049886838
 31
0.0
  0
ARC
  5
12C6
330
1F
100
AcDbEntity
  8
外形
100
AcDbCircle
 10
696.9899483683763
 20
200.9698125793156
 30
0.0
 40
0.5
100
AcDbArc
 50
270.0
 51
0.0
  0
ARC
  5
12C7
330
1F
100
AcDbEntity
  8
外形
100
AcDbCircle
 10
698.9899483683763
 20
198.9698125793156
 30
0.0
 40
0.5
100
AcDbArc
 50
270.0
 51
0.0
  0
LINE
  5
12C8
330
1F
100
AcDbEntity
  8
外形
100
AcDbLine
 10
697.4899483683762
 20
201.0910049886838
 30
0.0
 11
697.4899483683763
 21
200.9698125793156
 31
0.0
  0
ARC
  5
12C9
330
1F
100
AcDbEntity
  8
外形
100
AcDbCircle
 10
700.9899483683762
 20
203.0910049886838
 30
0.0
 40
0.5
100
AcDbArc
 50
0.0
 51
90.0
  0
ARC
  5
12CA
330
1F
100
AcDbEntity
  8
外形
100
AcDbCircle
 10
698.9899483683761
 20
201.0910049886838
 30
0.0
 40
0.5
100
AcDbArc
 50
0.0
 51
90.0
  0
LINE
  5
12CB
330
1F
100
AcDbEntity
  8
外形
100
AcDbLine
 10
699.4899483683761
 20
201.0910049886838
 30
0.0
 11
699.4899483683763
 21
198.9698125793156
 31
0.0
  0
LINE
  5
12CC
330
1F
100
AcDbEntity
  8
0
 62
   230
370
     0
100
AcDbLine
 10
701.4512455777242
 20
203.365126086313
 30
0.0
 11
701.4512455777242
 21
203.365126086313
 31
0.0
  0
LINE
  5
12CD
330
1F
100
AcDbEntity
  8
外形
100
AcDbLine
 10
695.6277216428861
 20
222.770793595383
 30
0.0
 11
698.789662415802
 21
222.770793595383
 31
0.0
  0
ARC
  5
12CE
330
1F
100
AcDbEntity
  8
外形
100
AcDbCircle
 10
695.6277216428863
 20
226.3616479483022
 30
0.0
 40
1.75
100
AcDbArc
 50
270.0
 51
90.0
  0
ARC
  5
12CF
330
1F
100
AcDbEntity
  8
外形
100
AcDbCircle
 10
698.789662415802
 20
223.270793595383
 30
0.0
 40
0.5
100
AcDbArc
 50
270.0
 51
322.1156735615505
  0
ARC
  5
12D0
330
1F
100
AcDbEntity
  8
外形
100
AcDbCircle
 10
700.3699309087792
 20
223.6734032244042
 30
0.0
 40
0.5
100
AcDbArc
 50
90.0
 51
142.115673561557
  0
LINE
  5
12D1
330
1F
100
AcDbEntity
  8
外形
100
AcDbLine
 10
700.3699309087792
 20
224.1734032244042
 30
0.0
 11
700.9899483683762
 21
224.1734032244042
 31
0.0
  0
ARC
  5
12D2
330
1F
100
AcDbEntity
  8
外形
100
AcDbCircle
 10
700.9899483683762
 20
223.6734032244042
 30
0.0
 40
0.5
100
AcDbArc
 50
0.0
 51
90.0
  0
LINE
  5
12D3
330
1F
100
AcDbEntity
  8
外形
100
AcDbLine
 10
699.1842884639281
 20
222.9637589358732
 30
0.0
 11
699.975304860653
 21
223.9804378839139
 31
0.0
  0
LINE
  5
12D4
330
1F
100
AcDbEntity
  8
外形
100
AcDbLine
 10
695.6277216428863
 20
256.1452677521266
 30
0.0
 11
697.3680068664958
 21
256.1452677521266
 31
0.0
  0
ARC
  5
12D5
330
1F
100
AcDbEntity
  8
外形
100
AcDbCircle
 10
695.6277216428863
 20
252.5779772103288
 30
0.0
 40
1.75
100
AcDbArc
 50
270.0
 51
90.0
  0
ARC
  5
12D6
330
1F
100
AcDbEntity
  8
外形
100
AcDbCircle
 10
697.3680068664958
 20
255.6452677521266
 30
0.0
 40
0.5
100
AcDbArc
 50
37.8843264384495
 51
90.0
  0
ARC
  5
12D7
330
1F
100
AcDbEntity
  8
外形
100
AcDbCircle
 10
698.9482753594731
 20
255.2426581231054
 30
0.0
 40
0.5
100
AcDbArc
 50
217.8843264384429
 51
270.0
  0
ARC
  5
12D8
330
1F
100
AcDbEntity
  8
外形
100
AcDbCircle
 10
699.56829281907
 20
255.2426581231054
 30
0.0
 40
0.5
100
AcDbArc
 50
270.0
 51
0.0
  0
LINE
  5
12D9
330
1F
100
AcDbEntity
  8
外形
100
AcDbLine
 10
697.762632914622
 20
255.9523024116364
 30
0.0
 11
698.5536493113469
 21
254.9356234635957
 31
0.0
  0
LINE
  5
12DA
330
1F
100
AcDbEntity
  8
外形
100
AcDbLine
 10
698.9482753594731
 20
254.7426581231055
 30
0.0
 11
699.56829281907
 21
254.7426581231054
 31
0.0
  0
LINE
  5
12DB
330
1F
100
AcDbEntity
  8
外形
100
AcDbLine
 10
695.6277216428863
 20
265.2013572327199
 30
0.0
 11
699.72951558492
 21
263.8041230600881
 31
0.0
  0
ARC
  5
12DC
330
1F
100
AcDbEntity
  8
外形
100
AcDbCircle
 10
699.5682928190699
 20
263.3308290502256
 30
0.0
 40
0.5
100
AcDbArc
 50
0.0
 51
71.1891150773415
  0
LINE
  5
12DD
330
1F
100
AcDbEntity
  8
外形
100
AcDbLine
 10
695.6277216428861
 20
277.3486201699472
 30
0.0
 11
698.9899483683761
 21
277.3486201699472
 31
0.0
  0
LINE
  5
12DE
330
1F
100
AcDbEntity
  8
外形
100
AcDbLine
 10
695.6277216428861
 20
275.3486201699472
 30
0.0
 11
700.9899483683762
 21
275.3486201699472
 31
0.0
  0
LINE
  5
12DF
330
1F
100
AcDbEntity
  8
外形
100
AcDbLine
 10
699.4899483683761
 20
277.8486201699472
 30
0.0
 11
699.4899483683763
 21
288.9698125793157
 31
0.0
  0
LINE
  5
12E0
330
1F
100
AcDbEntity
  8
外形
100
AcDbLine
 10
701.4899483683762
 20
275.8486201699472
 30
0.0
 11
701.4899483683762
 21
288.9698125793157
 31
0.0
  0
ARC
  5
12E1
330
1F
100
AcDbEntity
  8
外形
100
AcDbCircle
 10
700.9899483683762
 20
275.8486201699472
 30
0.0
 40
0.5
100
AcDbArc
 50
270.0
 51
0.0
  0
ARC
  5
12E2
330
1F
100
AcDbEntity
  8
外形
100
AcDbCircle
 10
698.9899483683761
 20
277.8486201699472
 30
0.0
 40
0.5
100
AcDbArc
 50
270.0
 51
0.0
  0
ARC
  5
12E3
330
1F
100
AcDbEntity
  8
外形
100
AcDbCircle
 10
700.9899483683762
 20
288.9698125793157
 30
0.0
 40
0.5
100
AcDbArc
 50
0.0
 51
90.0
  0
ARC
  5
12E4
330
1F
100
AcDbEntity
  8
外形
100
AcDbCircle
 10
699.9899483683763
 20
288.9698125793157
 30
0.0
 40
0.5
100
AcDbArc
 50
90.0
 51
180.0
  0
LINE
  5
12E5
330
1F
100
AcDbEntity
  8
外形
100
AcDbLine
 10
699.9899483683763
 20
289.4698125793157
 30
0.0
 11
700.9899483683762
 21
289.4698125793157
 31
0.0
  0
LINE
  5
12E6
330
1F
100
AcDbEntity
  8
外形
100
AcDbLine
 10
701.4899483683762
 20
377.0854515731641
 30
0.0
 11
701.4899304927047
 21
357.6758613391378
 31
0.0
  0
LINE
  5
12E7
330
1F
100
AcDbEntity
  8
外形
100
AcDbLine
 10
701.4899304927047
 20
357.6758613391378
 30
0.0
 11
701.4899483683762
 21
377.0854515731641
 31
0.0
  0
LINE
  5
12E8
330
1F
100
AcDbEntity
  8
外形
100
AcDbLine
 10
699.4899483683759
 20
377.0854515731641
 30
0.0
 11
699.4899314336459
 21
358.970451573164
 31
0.0
  0
LINE
  5
12E9
330
1F
100
AcDbEntity
  8
外形
100
AcDbLine
 10
692.1632539931545
 20
373.3032720872637
 30
0.0
 11
692.1631083216285
 21
357.6758613391376
 31
0.0
  0
LINE
  5
12EA
330
1F
100
AcDbEntity
  8
外形
100
AcDbLine
 10
692.1632203580549
 20
333.8464818722954
 30
0.0
 11
692.1631083216285
 21
357.6758613391378
 31
0.0
  0
LINE
  5
12EB
330
1F
100
AcDbEntity
  8
外形
100
AcDbLine
 10
701.4899304927047
 20
357.675861339138
 30
0.0
 11
701.4899483683766
 21
330.0854515731643
 31
0.0
  0
LINE
  5
12EC
330
1F
100
AcDbEntity
  8
外形
100
AcDbLine
 10
701.4899483683766
 20
330.0854515731643
 30
0.0
 11
701.4899304927047
 21
357.675861339138
 31
0.0
  0
LINE
  5
12ED
330
1F
100
AcDbEntity
  8
外形
100
AcDbLine
 10
699.4899483683763
 20
330.0854515731642
 30
0.0
 11
699.4899534690716
 21
348.2704515731646
 31
0.0
  0
LINE
  5
12EE
330
1F
100
AcDbEntity
  8
外形
100
AcDbLine
 10
695.5593288251585
 20
331.3106495589214
 30
0.0
 11
699.4899484628294
 21
331.3106495589217
 31
0.0
  0
LINE
  5
12EF
330
1F
100
AcDbEntity
  8
寸法
100
AcDbLine
 10
692.1632470067463
 20
334.7522594935564
 30
0.0
 11
699.4899487281503
 21
334.7522594935568
 31
0.0
  0
LINE
  5
12F0
330
1F
100
AcDbEntity
  8
外形
100
AcDbLine
 10
688.4812750334795
 20
330.3848664181472
 30
0.0
 11
689.5555909916189
 21
331.4591823762869
 31
0.0
  0
ARC
  5
12F1
330
1F
100
AcDbEntity
  8
外形
100
AcDbCircle
 10
686.6597328340021
 20
330.7510918823761
 30
0.0
 40
0.5
100
AcDbArc
 50
46.56959820837786
 51
128.8720670740543
  0
ARC
  5
12F2
330
1F
100
AcDbEntity
  8
外形
100
AcDbCircle
 10
684.1597328340021
 20
330.7510918823761
 30
0.0
 40
0.5
100
AcDbArc
 50
46.56959820837786
 51
128.8720670740543
  0
ARC
  5
12F3
330
1F
100
AcDbEntity
  8
外形
100
AcDbCircle
 10
685.6277216428862
 20
330.7384198087405
 30
0.0
 40
0.5
100
AcDbArc
 50
226.5695982083778
 51
315.0
  0
ARC
  5
12F4
330
1F
100
AcDbEntity
  8
外形
100
AcDbCircle
 10
688.1277216428863
 20
330.7384198087405
 30
0.0
 40
0.5
100
AcDbArc
 50
226.5695982083778
 51
315.0
  0
ARC
  5
12F5
330
1F
100
AcDbEntity
  8
外形
100
AcDbCircle
 10
683.1277216428863
 20
330.7384198087405
 30
0.0
 40
0.5
100
AcDbArc
 50
226.5695982083778
 51
308.8720670740543
  0
LINE
  5
12F6
330
1F
100
AcDbEntity
  8
外形
100
AcDbLine
 10
682.7839851714672
 20
330.375314812608
 30
0.0
 11
682.0034693054212
 21
331.1141968785086
 31
0.0
  0
LINE
  5
12F7
330
1F
100
AcDbEntity
  8
外形
100
AcDbLine
 10
685.2839851714671
 20
330.375314812608
 30
0.0
 11
684.5034693054213
 21
331.1141968785086
 31
0.0
  0
LINE
  5
12F8
330
1F
100
AcDbEntity
  8
外形
100
AcDbLine
 10
683.8459410476273
 20
331.1403664831448
 30
0.0
 11
683.4415134292611
 21
330.3491452079717
 31
0.0
  0
LINE
  5
12F9
330
1F
100
AcDbEntity
  8
外形
100
AcDbLine
 10
687.7839851714671
 20
330.375314812608
 30
0.0
 11
687.0034693054212
 21
331.1141968785086
 31
0.0
  0
LINE
  5
12FA
330
1F
100
AcDbEntity
  8
外形
100
AcDbLine
 10
685.9812750334794
 20
330.3848664181472
 30
0.0
 11
686.3459410476273
 21
331.1403664831448
 31
0.0
  0
LINE
  5
12FB
330
1F
100
AcDbEntity
  8
外形
100
AcDbLine
 10
690.2131192494127
 20
331.4330127716506
 30
0.0
 11
693.4675282769728
 21
330.3601977337887
 31
0.0
  0
ARC
  5
12FC
330
1F
100
AcDbEntity
  8
外形
100
AcDbCircle
 10
689.8693827779936
 20
331.0699077755181
 30
0.0
 40
0.5
100
AcDbArc
 50
46.56959820837786
 51
128.8720670740543
  0
ARC
  5
12FD
330
1F
100
AcDbEntity
  8
外形
100
AcDbCircle
 10
694.5593288251581
 20
332.4356766169941
 30
0.0
 40
1.0
100
AcDbArc
 50
0.0
 51
134.2799834524933
  0
ARC
  5
12FE
330
1F
100
AcDbEntity
  8
外形
100
AcDbCircle
 10
695.0593288251582
 20
330.8601977337888
 30
0.0
 40
0.5
100
AcDbArc
 50
270.0
 51
0.0
  0
LINE
  5
12FF
330
1F
100
AcDbEntity
  8
外形
100
AcDbLine
 10
695.5593288251582
 20
332.4356766169941
 30
0.0
 11
695.5593288251582
 21
330.8601977337888
 31
0.0
  0
LINE
  5
1300
330
1F
100
AcDbEntity
  8
外形
100
AcDbLine
 10
695.0593288251582
 20
330.3601977337888
 30
0.0
 11
693.4675282769728
 21
330.3601977337887
 31
0.0
  0
ARC
  5
1301
330
1F
100
AcDbEntity
  8
外形
100
AcDbCircle
 10
693.1629984007082
 20
333.8675499863098
 30
0.0
 40
1.0
100
AcDbArc
 50
179.9994460385429
 51
314.2799834524934
  0
LINE
  5
1302
330
1F
100
AcDbEntity
  8
外形
100
AcDbLine
 10
699.4899488614033
 20
336.4807490436128
 30
0.0
 11
701.4899496413793
 21
336.4807490436128
 31
0.0
  0
LINE
  5
1303
330
1F
100
AcDbEntity
  8
寸法
100
AcDbLine
 10
699.4899483683763
 20
330.0854515731642
 30
0.0
 11
701.4899483683766
 21
330.0854515731643
 31
0.0
  0
LINE
  5
1304
330
1F
100
AcDbEntity
  8
寸法
100
AcDbLine
 10
692.1631525421883
 20
348.2704515731643
 30
0.0
 11
701.4899525281305
 21
348.2704515731646
 31
0.0
  0
LINE
  5
1305
330
1F
100
AcDbEntity
  8
寸法
100
AcDbLine
 10
692.1631305067625
 20
358.9704515731641
 30
0.0
 11
701.4899304927047
 21
358.970451573164
 31
0.0
  0
LINE
  5
1306
330
1F
100
AcDbEntity
  8
寸法
100
AcDbLine
 10
692.1632470067461
 20
372.4186436527717
 30
0.0
 11
699.4899487281501
 21
372.4186436527716
 31
0.0
  0
LINE
  5
1307
330
1F
100
AcDbEntity
  8
寸法
100
AcDbLine
 10
696.7657924709812
 20
358.9704515731641
 30
0.0
 11
696.7657924709812
 21
357.6758613391378
 31
0.0
  0
LINE
  5
1308
330
1F
100
AcDbEntity
  8
寸法
100
AcDbLine
 10
696.7658145064071
 20
348.2704515731645
 30
0.0
 11
696.7657924709812
 21
357.6758613391378
 31
0.0
  0
LINE
  5
1309
330
1F
100
AcDbEntity
  8
外形
100
AcDbLine
 10
699.4899488614031
 20
370.6901541027156
 30
0.0
 11
701.489949641379
 21
370.6901541027156
 31
0.0
  0
LINE
  5
130A
330
1F
100
AcDbEntity
  8
外形
100
AcDbLine
 10
695.5593288251582
 20
375.8602535874068
 30
0.0
 11
699.489948462829
 21
375.8602535874067
 31
0.0
  0
LINE
  5
130B
330
1F
100
AcDbEntity
  8
外形
100
AcDbLine
 10
688.4812750334795
 20
376.786036728181
 30
0.0
 11
689.5555909916189
 21
375.7117207700413
 31
0.0
  0
ARC
  5
130C
330
1F
100
AcDbEntity
  8
外形
100
AcDbCircle
 10
684.1597328340021
 20
376.4198112639522
 30
0.0
 40
0.5
100
AcDbArc
 50
231.1279329259456
 51
313.4304017916221
  0
ARC
  5
130D
330
1F
100
AcDbEntity
  8
外形
100
AcDbCircle
 10
686.6597328340021
 20
376.4198112639522
 30
0.0
 40
0.5
100
AcDbArc
 50
231.1279329259456
 51
313.4304017916221
  0
ARC
  5
130E
330
1F
100
AcDbEntity
  8
外形
100
AcDbCircle
 10
688.1277216428863
 20
376.4324833375878
 30
0.0
 40
0.5
100
AcDbArc
 50
45.0
 51
133.4304017916221
  0
ARC
  5
130F
330
1F
100
AcDbEntity
  8
外形
100
AcDbCircle
 10
685.6277216428862
 20
376.4324833375878
 30
0.0
 40
0.5
100
AcDbArc
 50
45.0
 51
133.4304017916221
  0
LINE
  5
1310
330
1F
100
AcDbEntity
  8
外形
100
AcDbLine
 10
685.9812750334794
 20
376.786036728181
 30
0.0
 11
686.3459410476273
 21
376.0305366631834
 31
0.0
  0
LINE
  5
1311
330
1F
100
AcDbEntity
  8
外形
100
AcDbLine
 10
687.7839851714671
 20
376.7955883337203
 30
0.0
 11
687.0034693054212
 21
376.0567062678197
 31
0.0
  0
LINE
  5
1312
330
1F
100
AcDbEntity
  8
外形
100
AcDbLine
 10
683.8459410476273
 20
376.0305366631834
 30
0.0
 11
683.4415134292611
 21
376.8217579383565
 31
0.0
  0
LINE
  5
1313
330
1F
100
AcDbEntity
  8
外形
100
AcDbLine
 10
685.2839851714671
 20
376.7955883337203
 30
0.0
 11
684.5034693054213
 21
376.0567062678197
 31
0.0
  0
LINE
  5
1314
330
1F
100
AcDbEntity
  8
外形
100
AcDbLine
 10
682.7839851714672
 20
376.7955883337203
 30
0.0
 11
682.0034693054212
 21
376.0567062678197
 31
0.0
  0
ARC
  5
1315
330
1F
100
AcDbEntity
  8
外形
100
AcDbCircle
 10
683.1277216428863
 20
376.4324833375878
 30
0.0
 40
0.5
100
AcDbArc
 50
51.12793292594567
 51
133.4304017916221
  0
LINE
  5
1316
330
1F
100
AcDbEntity
  8
外形
100
AcDbLine
 10
690.2131192494127
 20
375.7378903746776
 30
0.0
 11
693.4675282769728
 21
376.8107054125394
 31
0.0
  0
ARC
  5
1317
330
1F
100
AcDbEntity
  8
外形
100
AcDbCircle
 10
689.8693827779936
 20
376.1009953708101
 30
0.0
 40
0.5
100
AcDbArc
 50
231.1279329259456
 51
313.4304017916221
  0
ARC
  5
1318
330
1F
100
AcDbEntity
  8
外形
100
AcDbCircle
 10
695.0593288251582
 20
374.221838524422
 30
0.0
 40
0.5
100
AcDbArc
 50
250.4539623122407
 51
0.0
  0
LINE
  5
1319
330
1F
100
AcDbEntity
  8
外形
100
AcDbLine
 10
695.5593288251582
 20
374.221838524422
 30
0.0
 11
695.5593288251582
 21
376.3107054125395
 31
0.0
  0
ARC
  5
131A
330
1F
100
AcDbEntity
  8
外形
100
AcDbCircle
 10
695.0593288251582
 20
376.3107054125395
 30
0.0
 40
0.5
100
AcDbArc
 50
0.0
 51
90.0
  0
LINE
  5
131B
330
1F
100
AcDbEntity
  8
外形
100
AcDbLine
 10
695.0593288251582
 20
376.8107054125394
 30
0.0
 11
693.4675282769728
 21
376.8107054125394
 31
0.0
  0
LINE
  5
131C
330
1F
100
AcDbEntity
  8
外形
100
AcDbLine
 10
693.4978181656427
 20
374.2456353887431
 30
0.0
 11
694.8920467388907
 21
373.7506520394568
 31
0.0
  0
ARC
  5
131D
330
1F
100
AcDbEntity
  8
外形
100
AcDbCircle
 10
693.1632539931078
 20
373.3032624188124
 30
0.0
 40
1.0
100
AcDbArc
 50
70.45396231223351
 51
179.9994460385429
  0
LINE
  5
131E
330
1F
100
AcDbEntity
  8
寸法
100
AcDbLine
 10
699.4899483683759
 20
377.0854515731642
 30
0.0
 11
701.4899483683762
 21
377.0854515731641
 31
0.0
  0
DIMENSION
  5
131F
330
1F
100
AcDbEntity
  8
寸法
 62
     5
100
AcDbDimension
  2
*D9
 10
580.4899483683762
 20
199.4698125793155
 30
0.0
 11
576.6399483683762
 21
239.4698125793156
 31
0.0
 70
    32
 71
     5
 42
79.99999999999994
  3
ISO-25
100
AcDbAlignedDimension
 13
606.7101254202427
 23
279.4698125793155
 33
0.0
 14
606.7101254202427
 24
199.4698125793155
 34
0.0
 50
90.0
100
AcDbRotatedDimension
  0
CIRCLE
  5
14A8
330
1F
100
AcDbEntity
  8
寸法
100
AcDbCircle
 10
491.7416581718113
 20
207.9698125793155
 30
0.0
 40
3.5
  0
CIRCLE
  5
14BD
330
1F
100
AcDbEntity
  8
寸法
100
AcDbCircle
 10
476.7416581718114
 20
207.9698125793155
 30
0.0
 40
3.5
  0
CIRCLE
  5
14D6
330
1F
100
AcDbEntity
  8
寸法
100
AcDbCircle
 10
495.2416581718114
 20
268.9698125793155
 30
0.0
 40
4.0
  0
CIRCLE
  5
14D7
330
1F
100
AcDbEntity
  8
寸法
100
AcDbCircle
 10
473.2416581718114
 20
268.9698125793155
 30
0.0
 40
4.0
  0
LINE
  5
1978
330
1F
100
AcDbEntity
  8
寸法
100
AcDbLine
 10
504.0416581718114
 20
193.9698125793155
 30
0.0
 11
504.0416581718114
 21
194.9698125793155
 31
0.0
  0
LINE
  5
1979
330
1F
100
AcDbEntity
  8
寸法
100
AcDbLine
 10
499.4416581718114
 20
194.9698125793155
 30
0.0
 11
499.4416581718114
 21
193.9698125793155
 31
0.0
  0
ARC
  5
197A
330
1F
100
AcDbEntity
  8
寸法
100
AcDbCircle
 10
501.7416581718114
 20
193.9698125793155
 30
0.0
 40
2.299999999999999
100
AcDbArc
 50
180.0
 51
0.0
  0
ARC
  5
197B
330
1F
100
AcDbEntity
  8
寸法
100
AcDbCircle
 10
501.7416581718114
 20
194.9698125793155
 30
0.0
 40
2.299999999999999
100
AcDbArc
 50
0.0
 51
180.0
  0
LINE
  5
197C
330
1F
100
AcDbEntity
  8
寸法
100
AcDbLine
 10
469.0416581718113
 20
193.9698125793155
 30
0.0
 11
469.0416581718113
 21
194.9698125793155
 31
0.0
  0
LINE
  5
197D
330
1F
100
AcDbEntity
  8
寸法
100
AcDbLine
 10
464.4416581718115
 20
194.9698125793155
 30
0.0
 11
464.4416581718115
 21
193.9698125793155
 31
0.0
  0
ARC
  5
197E
330
1F
100
AcDbEntity
  8
寸法
100
AcDbCircle
 10
466.7416581718113
 20
193.9698125793155
 30
0.0
 40
2.299999999999999
100
AcDbArc
 50
180.0
 51
0.0
  0
ARC
  5
197F
330
1F
100
AcDbEntity
  8
寸法
100
AcDbCircle
 10
466.7416581718113
 20
194.9698125793155
 30
0.0
 40
2.299999999999999
100
AcDbArc
 50
0.0
 51
180.0
  0
LWPOLYLINE
  5
1A0A
330
1F
100
AcDbEntity
  8
寸法
100
AcDbPolyline
 90
        4
 70
     1
 43
0.0
 10
631.6540939732074
 20
362.9705666356662
 10
656.6540939732074
 20
362.9705666356662
 10
656.6540939732074
 20
354.9703365106618
 10
631.6540939732074
 20
354.9703365106618
  0
LWPOLYLINE
  5
1A0B
330
1F
100
AcDbEntity
  8
寸法
100
AcDbPolyline
 90
        4
 70
     1
 43
0.0
 10
688.1277216428863
 20
362.9705666356663
 10
663.1277216428863
 20
362.9705666356663
 10
663.1277216428863
 20
354.9703365106619
 10
688.1277216428863
 20
354.9703365106619
  0
LWPOLYLINE
  5
1A0C
330
1F
100
AcDbEntity
  8
寸法
100
AcDbPolyline
 90
        4
 70
     1
 43
0.0
 10
631.6540939732074
 20
352.2705666356664
 10
656.6540939732074
 20
352.2705666356664
 10
656.6540939732074
 20
344.270336510662
 10
631.6540939732074
 20
344.270336510662
  0
LWPOLYLINE
  5
1A0D
330
1F
100
AcDbEntity
  8
寸法
100
AcDbPolyline
 90
        4
 70
     1
 43
0.0
 10
688.1277216428863
 20
352.2705666356665
 10
663.1277216428863
 20
352.2705666356665
 10
663.1277216428863
 20
344.2703365106621
 10
688.1277216428863
 20
344.2703365106621
  0
VIEWPORT
  5
2D8
102
{ACAD_XDICTIONARY
360
305
102
}
330
2D1
100
AcDbEntity
 67
     1
  8
0
 62
     5
100
AcDbViewport
 10
100.1722543522882
 20
143.6910295125843
 30
0.0
 40
361.472876048157
 41
290.5747785171664
 68
     2
 69
     1
 12
100.1722543522882
 22
143.6910295125843
 13
0.0
 23
0.0
 14
10.0
 24
10.0
 15
10.0
 25
10.0
 16
0.0
 26
0.0
 36
1.0
 17
0.0
 27
0.0
 37
0.0
 42
50.0
 43
0.0
 44
0.0
 45
290.5747785171664
 50
0.0
 51
0.0
 72
   100
 90
    32800
  1

281
     0
 71
     1
 74
     0
110
0.0
120
0.0
130
0.0
111
1.0
121
0.0
131
0.0
112
0.0
122
1.0
132
0.0
 79
     0
146
0.0
  0
VIEWPORT
  5
ECF
330
2D1
100
AcDbEntity
 67
     1
  8
寸法
100
AcDbViewport
 10
100.1712510585784
 20
143.6899168491363
 30
0.0
 40
200.3425021171569
 41
287.3798336982726
 68
     1
 69
     2
 12
581.5474260389256
 22
292.1139120980981
 13
0.0
 23
0.0
 14
10.0
 24
10.0
 15
10.0
 25
10.0
 16
0.0
 26
0.0
 36
1.0
 17
0.0
 27
0.0
 37
0.0
 42
50.0
 43
0.0
 44
0.0
 45
459.9910740264256
 50
0.0
 51
0.0
 72
   100
 90
    32864
  1

281
     0
 71
     1
 74
     0
110
0.0
120
0.0
130
0.0
111
1.0
121
0.0
131
0.0
112
0.0
122
1.0
132
0.0
 79
     0
146
0.0
  0
ENDSEC
  0
SECTION
  2
OBJECTS
  0
DICTIONARY
  5
C
330
0
100
AcDbDictionary
281
     1
  3
ACAD_COLOR
350
2EC
  3
ACAD_GROUP
350
D
  3
ACAD_LAYOUT
350
1A
  3
ACAD_MATERIAL
350
2EB
  3
ACAD_MLINESTYLE
350
17
  3
ACAD_PLOTSETTINGS
350
19
  3
ACAD_PLOTSTYLENAME
350
E
  3
ACAD_TABLESTYLE
350
2F4
  3
AcDbVariableDictionary
350
309
  0
DICTIONARY
  5
305
330
2D8
100
AcDbDictionary
280
     1
281
     1
  3
ACAD_XREC_ROUNDTRIP
360
306
  0
DICTIONARY
  5
2EC
102
{ACAD_REACTORS
330
C
102
}
330
C
100
AcDbDictionary
281
     1
  0
DICTIONARY
  5
D
102
{ACAD_REACTORS
330
C
102
}
330
C
100
AcDbDictionary
281
     1
  0
DICTIONARY
  5
1A
102
{ACAD_REACTORS
330
C
102
}
330
C
100
AcDbDictionary
281
     1
  3
Model
350
22
  3
ﾚｲｱｳﾄ2
350
2D2
  0
DICTIONARY
  5
2EB
102
{ACAD_REACTORS
330
C
102
}
330
C
100
AcDbDictionary
281
     1
  0
DICTIONARY
  5
17
102
{ACAD_REACTORS
330
C
102
}
330
C
100
AcDbDictionary
281
     1
  3
Standard
350
18
  0
DICTIONARY
  5
19
102
{ACAD_REACTORS
330
C
102
}
330
C
100
AcDbDictionary
281
     1
  0
ACDBDICTIONARYWDFLT
  5
E
102
{ACAD_REACTORS
330
C
102
}
330
C
100
AcDbDictionary
281
     1
  3
Normal
350
F
100
AcDbDictionaryWithDefault
340
F
  0
DICTIONARY
  5
2F4
102
{ACAD_REACTORS
330
C
102
}
330
C
100
AcDbDictionary
281
     1
  3
Standard
350
2F5
  0
DICTIONARY
  5
309
102
{ACAD_REACTORS
330
C
102
}
330
C
100
AcDbDictionary
281
     1
  3
CTABLESTYLE
350
30A
  3
DIMASSOC
350
30B
  3
PROJECTNAME
350
30C
  0
XRECORD
  5
306
102
{ACAD_REACTORS
330
305
102
}
330
305
100
AcDbXrecord
280
     1
102
SHADEPLOT
 70
     0
  0
LAYOUT
  5
22
102
{ACAD_XDICTIONARY
360
301
102
}
102
{ACAD_REACTORS
330
1A
102
}
330
1A
100
AcDbPlotSettings
  1

  2
Canon LBP-1420(RYU)
  4
A4
  6
VIEW1
 40
5.87375
 41
5.873747999999999
 42
5.873749
 43
5.873749
 44
209.973328
 45
296.925995
 46
33.35
 47
40.19
 48
389.4890563751141
 49
162.4102881545986
140
799.0916160641545
141
425.4638793436424
142
1.0
143
2.0
 70
 11428
 72
     1
 73
     1
 74
     4
  7
monochrome.ctb
 75
     0
147
0.5
148
-389.4890563751141
149
-162.4102881545986
100
AcDbLayout
  1
Model
 70
     1
 71
     0
 10
0.0
 20
0.0
 11
12.0
 21
9.0
 12
0.0
 22
0.0
 32
0.0
 14
0.0
 24
0.0
 34
0.0
 15
0.0
 25
0.0
 35
0.0
146
0.0
 13
0.0
 23
0.0
 33
0.0
 16
1.0
 26
0.0
 36
0.0
 17
0.0
 27
1.0
 37
0.0
 76
     0
330
1F
  0
LAYOUT
  5
2D2
102
{ACAD_XDICTIONARY
360
303
102
}
102
{ACAD_REACTORS
330
1A
102
}
330
1A
100
AcDbPlotSettings
  1

  2
none_device
  4
none_user_media
  6

 40
4.773083209991455
 41
4.773089885711669
 42
4.857742309570312
 43
4.7730712890625
 44
209.9733276367187
 45
296.9259948730469
 46
0.0
 47
0.0
 48
0.0
 49
0.0
140
0.0
141
0.0
142
1.0
143
1.0
 70
   688
 72
     1
 73
     0
 74
     5
  7
monochrome.ctb
 75
    16
147
1.0
148
0.0
149
0.0
100
AcDbLayout
  1
ﾚｲｱｳﾄ2
 70
     1
 71
     1
 10
-4.773083209991455
 20
-4.773089885711669
 11
205.2002444267273
 21
292.1529049873352
 12
0.0
 22
0.0
 32
0.0
 14
0.0
 24
0.0
 34
0.0
 15
200.3425021171569
 25
287.3798336982726
 35
0.0
146
0.0
 13
0.0
 23
0.0
 33
0.0
 16
1.0
 26
0.0
 36
0.0
 17
0.0
 27
1.0
 37
0.0
 76
     0
330
2D1
331
ECF
  0
MLINESTYLE
  5
18
102
{ACAD_REACTORS
330
17
102
}
330
17
100
AcDbMlineStyle
  2
STANDARD
 70
     0
  3

 62
   256
 51
90.0
 52
90.0
 71
     2
 49
0.5
 62
   256
  6
BYLAYER
 49
-0.5
 62
   256
  6
BYLAYER
  0
ACDBPLACEHOLDER
  5
F
102
{ACAD_REACTORS
330
E
102
}
330
E
  0
ACAD_PROXY_OBJECT
  5
2F5
102
{ACAD_REACTORS
330
2F4
102
}
330
2F4
100
AcDbProxyObject
 90
      499
 91
      503
 95
   655383
 70
     0
 93
     1841
310
4214DD185B99185C9928000000000000F83F0000000000003E0FC00000000000004901028000000C1008070000C3001FDFF8000000C1003FBFF000000182007F7FE00000030400FEFFC00000060801FDFF8000000C1003FBFF000000182000000000000000C2020B0000001820100E000186003FBFF000000182007F7FE000
310
00030400FEFFC00000060801FDFF8000000C1003FBFF000000182007F7FE0000003040000000000000012404160000003040201C00030C007F7FE00000030400FEFFC00000060801FDFF8000000C1003FBFF000000182007F7FE00000030400FEFFC00000060804D
340
11
340
11
340
11
 94
        0
  0
DICTIONARYVAR
  5
30A
102
{ACAD_REACTORS
330
309
102
}
330
309
100
DictionaryVariables
280
     0
  1
STANDARD
  0
DICTIONARYVAR
  5
30B
102
{ACAD_REACTORS
330
309
102
}
330
309
100
DictionaryVariables
280
     0
  1
1
  0
DICTIONARYVAR
  5
30C
102
{ACAD_REACTORS
330
309
102
}
330
309
100
DictionaryVariables
280
     0
  1

  0
DICTIONARY
  5
301
330
22
100
AcDbDictionary
280
     1
281
     1
  3
ACAD_XREC_ROUNDTRIP
360
302
  0
DICTIONARY
  5
303
330
2D2
100
AcDbDictionary
280
     1
281
     1
  3
ACAD_XREC_ROUNDTRIP
360
304
  0
XRECORD
  5
302
102
{ACAD_REACTORS
330
301
102
}
330
301
100
AcDbXrecord
280
     1
102
SHADEPLOT
 70
     0
102
SHADEPLOTRESLEVEL
 70
     2
102
SHADEPLOTCUSTOMDPI
 70
   300
  0
XRECORD
  5
304
102
{ACAD_REACTORS
330
303
102
}
330
303
100
AcDbXrecord
280
     1
102
SHADEPLOT
 70
     0
102
SHADEPLOTRESLEVEL
 70
     2
102
SHADEPLOTCUSTOMDPI
 70
   300
  0
ENDSEC
  0
EOF
