  0
SECTION
  2
HEADER
  9
$ACADVER
  1
AC1015
  9
$ACADMAINTVER
 70
    10
  9
$DWGCODEPAGE
  3
ANSI_932
  9
$INSBASE
 10
0.0
 20
0.0
 30
0.0
  9
$EXTMIN
 10
438.2477042304743
 20
174.0236873348868
 30
0.0
  9
$EXTMAX
 10
533.3203310362232
 20
343.7143751156602
 30
0.0
  9
$LIMMIN
 10
0.0
 20
0.0
  9
$LIMMAX
 10
420.0
 20
297.0
  9
$ORTHOMODE
 70
     1
  9
$REGENMODE
 70
     1
  9
$FILLMODE
 70
     1
  9
$QTEXTMODE
 70
     0
  9
$MIRRTEXT
 70
     1
  9
$LTSCALE
 40
1.0
  9
$ATTMODE
 70
     1
  9
$TEXTSIZE
 40
2.5
  9
$TRACEWID
 40
1.0
  9
$TEXTSTYLE
  7
Standard
  9
$CLAYER
  8
寸法
  9
$CELTYPE
  6
ByLayer
  9
$CECOLOR
 62
     5
  9
$CELTSCALE
 40
1.0
  9
$DISPSILH
 70
     0
  9
$DIMSCALE
 40
2.0
  9
$DIMASZ
 40
1.0
  9
$DIMEXO
 40
0.2
  9
$DIMDLI
 40
3.75
  9
$DIMRND
 40
0.0
  9
$DIMDLE
 40
0.0
  9
$DIMEXE
 40
0.5
  9
$DIMTP
 40
0.0
  9
$DIMTM
 40
0.0
  9
$DIMTXT
 40
0.7
  9
$DIMCEN
 40
2.5
  9
$DIMTSZ
 40
0.0
  9
$DIMTOL
 70
     0
  9
$DIMLIM
 70
     0
  9
$DIMTIH
 70
     0
  9
$DIMTOH
 70
     0
  9
$DIMSE1
 70
     0
  9
$DIMSE2
 70
     0
  9
$DIMTAD
 70
     1
  9
$DIMZIN
 70
     9
  9
$DIMBLK
  1

  9
$DIMASO
 70
     1
  9
$DIMSHO
 70
     1
  9
$DIMPOST
  1

  9
$DIMAPOST
  1

  9
$DIMALT
 70
     0
  9
$DIMALTD
 70
     3
  9
$DIMALTF
 40
0.03937007874016
  9
$DIMLFAC
 40
1.0
  9
$DIMTOFL
 70
     1
  9
$DIMTVP
 40
0.0
  9
$DIMTIX
 70
     0
  9
$DIMSOXD
 70
     0
  9
$DIMSAH
 70
     0
  9
$DIMBLK1
  1

  9
$DIMBLK2
  1

  9
$DIMSTYLE
  2
ISO-25
  9
$DIMCLRD
 70
     0
  9
$DIMCLRE
 70
     0
  9
$DIMCLRT
 70
     0
  9
$DIMTFAC
 40
1.0
  9
$DIMGAP
 40
0.2
  9
$DIMJUST
 70
     0
  9
$DIMSD1
 70
     0
  9
$DIMSD2
 70
     0
  9
$DIMTOLJ
 70
     0
  9
$DIMTZIN
 70
     8
  9
$DIMALTZ
 70
     0
  9
$DIMALTTZ
 70
     0
  9
$DIMUPT
 70
     0
  9
$DIMDEC
 70
     2
  9
$DIMTDEC
 70
     2
  9
$DIMALTU
 70
     2
  9
$DIMALTTD
 70
     3
  9
$DIMTXSTY
  7
Standard
  9
$DIMAUNIT
 70
     0
  9
$DIMADEC
 70
     1
  9
$DIMALTRND
 40
0.0
  9
$DIMAZIN
 70
     1
  9
$DIMDSEP
 70
    46
  9
$DIMATFIT
 70
     3
  9
$DIMFRAC
 70
     0
  9
$DIMLDRBLK
  1

  9
$DIMLUNIT
 70
     2
  9
$DIMLWD
 70
    -2
  9
$DIMLWE
 70
    -2
  9
$DIMTMOVE
 70
     0
  9
$LUNITS
 70
     2
  9
$LUPREC
 70
     4
  9
$SKETCHINC
 40
1.0
  9
$FILLETRAD
 40
0.2
  9
$AUNITS
 70
     0
  9
$AUPREC
 70
     0
  9
$MENU
  1
.
  9
$ELEVATION
 40
0.0
  9
$PELEVATION
 40
0.0
  9
$THICKNESS
 40
0.0
  9
$LIMCHECK
 70
     0
  9
$CHAMFERA
 40
0.0
  9
$CHAMFERB
 40
0.0
  9
$CHAMFERC
 40
20.0
  9
$CHAMFERD
 40
0.0
  9
$SKPOLY
 70
     0
  9
$TDCREATE
 40
2453483.907673240
  9
$TDUCREATE
 40
2453483.532673240
  9
$TDUPDATE
 40
2453518.747248264
  9
$TDUUPDATE
 40
2453518.372248264
  9
$TDINDWG
 40
0.3951039005
  9
$TDUSRTIMER
 40
0.3951037153
  9
$USRTIMER
 70
     1
  9
$ANGBASE
 50
0.0
  9
$ANGDIR
 70
     0
  9
$PDMODE
 70
     0
  9
$PDSIZE
 40
0.0
  9
$PLINEWID
 40
0.0
  9
$SPLFRAME
 70
     0
  9
$SPLINETYPE
 70
     6
  9
$SPLINESEGS
 70
     8
  9
$HANDSEED
  5
2F17
  9
$SURFTAB1
 70
     6
  9
$SURFTAB2
 70
     6
  9
$SURFTYPE
 70
     6
  9
$SURFU
 70
     6
  9
$SURFV
 70
     6
  9
$UCSBASE
  2

  9
$UCSNAME
  2

  9
$UCSORG
 10
0.0
 20
0.0
 30
0.0
  9
$UCSXDIR
 10
1.0
 20
0.0
 30
0.0
  9
$UCSYDIR
 10
0.0
 20
1.0
 30
0.0
  9
$UCSORTHOREF
  2

  9
$UCSORTHOVIEW
 70
     0
  9
$UCSORGTOP
 10
0.0
 20
0.0
 30
0.0
  9
$UCSORGBOTTOM
 10
0.0
 20
0.0
 30
0.0
  9
$UCSORGLEFT
 10
0.0
 20
0.0
 30
0.0
  9
$UCSORGRIGHT
 10
0.0
 20
0.0
 30
0.0
  9
$UCSORGFRONT
 10
0.0
 20
0.0
 30
0.0
  9
$UCSORGBACK
 10
0.0
 20
0.0
 30
0.0
  9
$PUCSBASE
  2

  9
$PUCSNAME
  2

  9
$PUCSORG
 10
0.0
 20
0.0
 30
0.0
  9
$PUCSXDIR
 10
1.0
 20
0.0
 30
0.0
  9
$PUCSYDIR
 10
0.0
 20
1.0
 30
0.0
  9
$PUCSORTHOREF
  2

  9
$PUCSORTHOVIEW
 70
     0
  9
$PUCSORGTOP
 10
0.0
 20
0.0
 30
0.0
  9
$PUCSORGBOTTOM
 10
0.0
 20
0.0
 30
0.0
  9
$PUCSORGLEFT
 10
0.0
 20
0.0
 30
0.0
  9
$PUCSORGRIGHT
 10
0.0
 20
0.0
 30
0.0
  9
$PUCSORGFRONT
 10
0.0
 20
0.0
 30
0.0
  9
$PUCSORGBACK
 10
0.0
 20
0.0
 30
0.0
  9
$USERI1
 70
     0
  9
$USERI2
 70
     0
  9
$USERI3
 70
     0
  9
$USERI4
 70
     0
  9
$USERI5
 70
     0
  9
$USERR1
 40
0.0
  9
$USERR2
 40
0.0
  9
$USERR3
 40
0.0
  9
$USERR4
 40
0.0
  9
$USERR5
 40
0.0
  9
$WORLDVIEW
 70
     1
  9
$SHADEDGE
 70
     3
  9
$SHADEDIF
 70
    70
  9
$TILEMODE
 70
     1
  9
$MAXACTVP
 70
    64
  9
$PINSBASE
 10
0.0
 20
0.0
 30
0.0
  9
$PLIMCHECK
 70
     0
  9
$PEXTMIN
 10
-0.0056219074012347
 20
-0.0022293163663107
 30
-0.0000000000112498
  9
$PEXTMAX
 10
200.3526856339293
 20
287.3820458006592
 30
0.0000000000002956
  9
$PLIMMIN
 10
-4.773083209991455
 20
-4.773089885711669
  9
$PLIMMAX
 10
205.2002444267273
 20
292.1529049873352
  9
$UNITMODE
 70
     0
  9
$VISRETAIN
 70
     1
  9
$PLINEGEN
 70
     0
  9
$PSLTSCALE
 70
     1
  9
$TREEDEPTH
 70
  3020
  9
$CMLSTYLE
  2
Standard
  9
$CMLJUST
 70
     0
  9
$CMLSCALE
 40
20.0
  9
$PROXYGRAPHICS
 70
     1
  9
$MEASUREMENT
 70
     1
  9
$CELWEIGHT
370
    -1
  9
$ENDCAPS
280
     0
  9
$JOINSTYLE
280
     0
  9
$LWDISPLAY
290
     0
  9
$INSUNITS
 70
     4
  9
$HYPERLINKBASE
  1

  9
$STYLESHEET
  1
monochrome.ctb
  9
$XEDIT
290
     1
  9
$CEPSNTYPE
380
     0
  9
$PSTYLEMODE
290
     1
  9
$FINGERPRINTGUID
  2
{FDEAD578-A652-11D2-9A35-0060089B3A3F}
  9
$VERSIONGUID
  2
{E852D8F2-12CA-4356-850F-DF3EE130AD73}
  9
$EXTNAMES
290
     1
  9
$PSVPSCALE
 40
0.0
  9
$OLESTARTUP
290
     0
  0
ENDSEC
  0
SECTION
  2
CLASSES
  0
CLASS
  1
ACDBDICTIONARYWDFLT
  2
AcDbDictionaryWithDefault
  3
AutoCAD 2000
 90
        0
280
     0
281
     0
  0
CLASS
  1
ACDBPLACEHOLDER
  2
AcDbPlaceHolder
  3
AutoCAD 2000
 90
        0
280
     0
281
     0
  0
CLASS
  1
LAYOUT
  2
AcDbLayout
  3
AutoCAD 2000
 90
        0
280
     0
281
     0
  0
CLASS
  1
TABLESTYLE
  2
AcDbTableStyle
  3
ObjectDBX Classes
 90
     2047
280
     0
281
     0
  0
CLASS
  1
DICTIONARYVAR
  2
AcDbDictionaryVar
  3
AutoCAD 2000
 90
        0
280
     0
281
     0
  0
ENDSEC
  0
SECTION
  2
TABLES
  0
TABLE
  2
VPORT
  5
8
330
0
100
AcDbSymbolTable
 70
     2
  0
VPORT
  5
2F16
330
8
100
AcDbSymbolTableRecord
100
AcDbViewportTableRecord
  2
*Active
 70
     0
 10
0.0
 20
0.0
 11
1.0
 21
1.0
 12
501.8548028693252
 22
255.1723733909018
 13
0.0
 23
0.0
 14
10.0
 24
10.0
 15
10.0
 25
10.0
 16
0.0
 26
0.0
 36
1.0
 17
0.0
 27
0.0
 37
0.0
 40
188.3440266090997
 41
1.561128526645767
 42
50.0
 43
0.0
 44
0.0
 50
0.0
 51
0.0
 71
     0
 72
   100
 73
     1
 74
     3
 75
     0
 76
     0
 77
     0
 78
     0
281
     0
 65
     1
110
0.0
120
0.0
130
0.0
111
1.0
121
0.0
131
0.0
112
0.0
122
1.0
132
0.0
 79
     0
146
0.0
  0
ENDTAB
  0
TABLE
  2
LTYPE
  5
5
330
0
100
AcDbSymbolTable
 70
     2
  0
LTYPE
  5
14
330
5
100
AcDbSymbolTableRecord
100
AcDbLinetypeTableRecord
  2
ByBlock
 70
     0
  3

 72
    65
 73
     0
 40
0.0
  0
LTYPE
  5
15
330
5
100
AcDbSymbolTableRecord
100
AcDbLinetypeTableRecord
  2
ByLayer
 70
     0
  3

 72
    65
 73
     0
 40
0.0
  0
LTYPE
  5
16
330
5
100
AcDbSymbolTableRecord
100
AcDbLinetypeTableRecord
  2
Continuous
 70
     0
  3
Solid line
 72
    65
 73
     0
 40
0.0
  0
LTYPE
  5
2A66
330
5
100
AcDbSymbolTableRecord
100
AcDbLinetypeTableRecord
  2
CENTER
 70
     0
  3
Center ____ _ ____ _ ____ _ ____ _ ____ _ ____
 72
    65
 73
     4
 40
50.8
 49
31.75
 74
     0
 49
-6.349999999999999
 74
     0
 49
6.349999999999999
 74
     0
 49
-6.349999999999999
 74
     0
  0
ENDTAB
  0
TABLE
  2
LAYER
  5
2
330
0
100
AcDbSymbolTable
 70
     4
  0
LAYER
  5
10
330
2
100
AcDbSymbolTableRecord
100
AcDbLayerTableRecord
  2
0
 70
     0
 62
     7
  6
Continuous
370
    -3
390
F
  0
LAYER
  5
64
330
2
100
AcDbSymbolTableRecord
100
AcDbLayerTableRecord
  2
外形
 70
     0
 62
     7
  6
Continuous
370
    -3
390
F
  0
LAYER
  5
65
330
2
100
AcDbSymbolTableRecord
100
AcDbLayerTableRecord
  2
寸法
 70
     0
 62
     7
  6
Continuous
370
    -3
390
F
  0
LAYER
  5
E3
330
2
100
AcDbSymbolTableRecord
100
AcDbLayerTableRecord
  2
Defpoints
 70
     0
 62
     7
  6
Continuous
290
     0
370
    -3
390
F
  0
ENDTAB
  0
TABLE
  2
STYLE
  5
3
330
0
100
AcDbSymbolTable
 70
     2
  0
STYLE
  5
11
330
3
100
AcDbSymbolTableRecord
100
AcDbTextStyleTableRecord
  2
Standard
 70
     0
 40
0.0
 41
1.0
 50
0.0
 71
     0
 42
2.5
  3
txt
  4

  0
STYLE
  5
2A65
330
3
100
AcDbSymbolTableRecord
100
AcDbTextStyleTableRecord
  2

 70
     1
 40
0.0
 41
1.0
 50
0.0
 71
     0
 42
2.5
  3
ltypeshp.shx
  4

  0
ENDTAB
  0
TABLE
  2
VIEW
  5
6
330
0
100
AcDbSymbolTable
 70
     0
  0
ENDTAB
  0
TABLE
  2
UCS
  5
7
330
0
100
AcDbSymbolTable
 70
     0
  0
ENDTAB
  0
TABLE
  2
APPID
  5
9
330
0
100
AcDbSymbolTable
 70
     2
  0
APPID
  5
12
330
9
100
AcDbSymbolTableRecord
100
AcDbRegAppTableRecord
  2
ACAD
 70
     0
  0
APPID
  5
313
330
9
100
AcDbSymbolTableRecord
100
AcDbRegAppTableRecord
  2
QDRX_VIEW
 70
     0
  0
ENDTAB
  0
TABLE
  2
DIMSTYLE
  5
A
330
0
100
AcDbSymbolTable
 70
     1
100
AcDbDimStyleTable
 71
     1
340
27
  0
DIMSTYLE
105
27
102
{ACAD_REACTORS
330
53B
330
1470
330
53A
330
1A51
330
1AA2
330
1ABA
330
1B66
330
1C90
330
1CA6
330
1CF8
330
1D87
330
1DD2
330
1E02
330
20A9
330
2148
330
23AB
330
2466
330
264B
330
26AF
330
26EE
330
2704
330
273E
330
277B
330
154C
330
24AE
330
27DF
330
2B57
330
2B9D
330
2D8D
330
2DB0
330
2EBC
330
2EDB
102
}
330
A
100
AcDbSymbolTableRecord
100
AcDbDimStyleTableRecord
  2
ISO-25
 70
     0
 40
2.0
 41
1.0
 42
0.2
 43
3.75
 44
0.5
 73
     0
 74
     0
 77
     1
 78
     9
 79
     1
140
0.7
141
2.5
143
0.03937007874016
147
0.2
171
     3
172
     1
179
     1
271
     2
272
     2
274
     3
283
     0
284
     8
340
11
  0
ENDTAB
  0
TABLE
  2
BLOCK_RECORD
  5
1
330
0
100
AcDbSymbolTable
 70
    32
  0
BLOCK_RECORD
  5
1F
330
1
100
AcDbSymbolTableRecord
100
AcDbBlockTableRecord
  2
*Model_Space
340
22
  0
BLOCK_RECORD
  5
2D1
330
1
100
AcDbSymbolTableRecord
100
AcDbBlockTableRecord
  2
*Paper_Space
340
2D2
  0
BLOCK_RECORD
  5
549
330
1
100
AcDbSymbolTableRecord
100
AcDbBlockTableRecord
  2
*D0
340
0
  0
BLOCK_RECORD
  5
555
330
1
100
AcDbSymbolTableRecord
100
AcDbBlockTableRecord
  2
*D1
340
0
  0
BLOCK_RECORD
  5
1471
330
1
100
AcDbSymbolTableRecord
100
AcDbBlockTableRecord
  2
*D2
340
0
  0
BLOCK_RECORD
  5
1A52
330
1
100
AcDbSymbolTableRecord
100
AcDbBlockTableRecord
  2
*D3
340
0
  0
BLOCK_RECORD
  5
1AA3
330
1
100
AcDbSymbolTableRecord
100
AcDbBlockTableRecord
  2
*D4
340
0
  0
BLOCK_RECORD
  5
1ABB
330
1
100
AcDbSymbolTableRecord
100
AcDbBlockTableRecord
  2
*D5
340
0
  0
BLOCK_RECORD
  5
1B67
330
1
100
AcDbSymbolTableRecord
100
AcDbBlockTableRecord
  2
*D6
340
0
  0
BLOCK_RECORD
  5
1C91
330
1
100
AcDbSymbolTableRecord
100
AcDbBlockTableRecord
  2
*D7
340
0
  0
BLOCK_RECORD
  5
1CA7
330
1
100
AcDbSymbolTableRecord
100
AcDbBlockTableRecord
  2
*D8
340
0
  0
BLOCK_RECORD
  5
1CF9
330
1
100
AcDbSymbolTableRecord
100
AcDbBlockTableRecord
  2
*D9
340
0
  0
BLOCK_RECORD
  5
1D88
330
1
100
AcDbSymbolTableRecord
100
AcDbBlockTableRecord
  2
*D10
340
0
  0
BLOCK_RECORD
  5
1DD3
330
1
100
AcDbSymbolTableRecord
100
AcDbBlockTableRecord
  2
*D11
340
0
  0
BLOCK_RECORD
  5
1E03
330
1
100
AcDbSymbolTableRecord
100
AcDbBlockTableRecord
  2
*D12
340
0
  0
BLOCK_RECORD
  5
20AA
330
1
100
AcDbSymbolTableRecord
100
AcDbBlockTableRecord
  2
*D13
340
0
  0
BLOCK_RECORD
  5
2149
330
1
100
AcDbSymbolTableRecord
100
AcDbBlockTableRecord
  2
*D14
340
0
  0
BLOCK_RECORD
  5
22BD
330
1
100
AcDbSymbolTableRecord
100
AcDbBlockTableRecord
  2
_None
340
0
  0
BLOCK_RECORD
  5
23F7
330
1
100
AcDbSymbolTableRecord
100
AcDbBlockTableRecord
  2
*D16
340
0
  0
BLOCK_RECORD
  5
2467
330
1
100
AcDbSymbolTableRecord
100
AcDbBlockTableRecord
  2
*D17
340
0
  0
BLOCK_RECORD
  5
265E
330
1
100
AcDbSymbolTableRecord
100
AcDbBlockTableRecord
  2
*D18
340
0
  0
BLOCK_RECORD
  5
26B0
330
1
100
AcDbSymbolTableRecord
100
AcDbBlockTableRecord
  2
*D19
340
0
  0
BLOCK_RECORD
  5
26EF
330
1
100
AcDbSymbolTableRecord
100
AcDbBlockTableRecord
  2
*D20
340
0
  0
BLOCK_RECORD
  5
2705
330
1
100
AcDbSymbolTableRecord
100
AcDbBlockTableRecord
  2
*D21
340
0
  0
BLOCK_RECORD
  5
273F
330
1
100
AcDbSymbolTableRecord
100
AcDbBlockTableRecord
  2
*D22
340
0
  0
BLOCK_RECORD
  5
277D
330
1
100
AcDbSymbolTableRecord
100
AcDbBlockTableRecord
  2
*D23
340
0
  0
BLOCK_RECORD
  5
2B58
330
1
100
AcDbSymbolTableRecord
100
AcDbBlockTableRecord
  2
*D24
340
0
  0
BLOCK_RECORD
  5
2B9E
330
1
100
AcDbSymbolTableRecord
100
AcDbBlockTableRecord
  2
*D25
340
0
  0
BLOCK_RECORD
  5
2C27
330
1
100
AcDbSymbolTableRecord
100
AcDbBlockTableRecord
  2
_DotSmall
340
0
102
{BLKREFS
331
2C39
331
2DD9
102
}
  0
BLOCK_RECORD
  5
2D5D
330
1
100
AcDbSymbolTableRecord
100
AcDbBlockTableRecord
  2
_Open
340
0
  0
BLOCK_RECORD
  5
2D8E
330
1
100
AcDbSymbolTableRecord
100
AcDbBlockTableRecord
  2
*D28
340
0
  0
BLOCK_RECORD
  5
2DB1
330
1
100
AcDbSymbolTableRecord
100
AcDbBlockTableRecord
  2
*D29
340
0
  0
BLOCK_RECORD
  5
2EBD
330
1
100
AcDbSymbolTableRecord
100
AcDbBlockTableRecord
  2
*D30
340
0
  0
BLOCK_RECORD
  5
2EDC
330
1
100
AcDbSymbolTableRecord
100
AcDbBlockTableRecord
  2
*D31
340
0
  0
ENDTAB
  0
ENDSEC
  0
SECTION
  2
BLOCKS
  0
BLOCK
  5
20
330
1F
100
AcDbEntity
  8
0
100
AcDbBlockBegin
  2
*Model_Space
 70
     0
 10
0.0
 20
0.0
 30
0.0
  3
*Model_Space
  1

  0
ENDBLK
  5
21
330
1F
100
AcDbEntity
  8
0
100
AcDbBlockEnd
  0
BLOCK
  5
2D3
330
2D1
100
AcDbEntity
 67
     1
  8
0
 62
     5
100
AcDbBlockBegin
  2
*Paper_Space
 70
     0
 10
0.0
 20
0.0
 30
0.0
  3
*Paper_Space
  1

  0
ENDBLK
  5
2D4
330
2D1
100
AcDbEntity
 67
     1
  8
0
 62
     5
100
AcDbBlockEnd
  0
BLOCK
  5
553
330
549
100
AcDbEntity
  8
0
 62
     5
100
AcDbBlockBegin
  2
*D0
 70
     1
 10
0.0
 20
0.0
 30
0.0
  3
*D0
  1

  0
LINE
  5
2BC7
330
549
100
AcDbEntity
  8
寸法
 62
     0
370
    -2
100
AcDbLine
 10
493.1993647418629
 20
272.347457070988
 30
0.0
 11
493.1993647418629
 21
265.7865357907166
 31
0.0
  0
LINE
  5
2BC8
330
549
100
AcDbEntity
  8
寸法
 62
     0
370
    -2
100
AcDbLine
 10
503.3593647418629
 20
272.347457070988
 30
0.0
 11
503.3593647418629
 21
265.7865357907166
 31
0.0
  0
LINE
  5
2BC9
330
549
100
AcDbEntity
  8
寸法
 62
     0
370
    -2
100
AcDbLine
 10
495.1993647418629
 20
266.7865357907166
 30
0.0
 11
501.359364741863
 21
266.7865357907166
 31
0.0
  0
SOLID
  5
2BCA
330
549
100
AcDbEntity
  8
寸法
 62
     0
100
AcDbTrace
 10
495.1993647418629
 20
267.1198691240499
 30
0.0
 11
495.1993647418629
 21
266.4532024573833
 31
0.0
 12
493.1993647418629
 22
266.7865357907166
 32
0.0
 13
493.1993647418629
 23
266.7865357907166
 33
0.0
  0
SOLID
  5
2BCB
330
549
100
AcDbEntity
  8
寸法
 62
     0
100
AcDbTrace
 10
501.359364741863
 20
267.1198691240499
 30
0.0
 11
501.359364741863
 21
266.4532024573833
 31
0.0
 12
503.3593647418629
 22
266.7865357907166
 32
0.0
 13
503.3593647418629
 23
266.7865357907166
 33
0.0
  0
MTEXT
  5
2BCC
330
549
100
AcDbEntity
  8
寸法
 62
     0
100
AcDbMText
 10
498.2793647418629
 20
267.8865357907166
 30
0.0
 40
1.399999999999999
 41
0.0
 71
     5
 72
     1
  1
10.16
 73
     1
 44
1.0
  0
POINT
  5
2BCD
330
549
100
AcDbEntity
  8
Defpoints
 62
     0
100
AcDbPoint
 10
493.1993647418629
 20
272.7474570709879
 30
0.0
  0
POINT
  5
2BCE
330
549
100
AcDbEntity
  8
Defpoints
 62
     0
100
AcDbPoint
 10
503.3593647418629
 20
272.7474570709879
 30
0.0
  0
POINT
  5
2BCF
330
549
100
AcDbEntity
  8
Defpoints
 62
     0
100
AcDbPoint
 10
503.3593647418629
 20
266.7865357907166
 30
0.0
  0
ENDBLK
  5
554
330
549
100
AcDbEntity
  8
0
 62
     5
100
AcDbBlockEnd
  0
BLOCK
  5
55F
330
555
100
AcDbEntity
  8
0
 62
     5
100
AcDbBlockBegin
  2
*D1
 70
     1
 10
0.0
 20
0.0
 30
0.0
  3
*D1
  1

  0
LINE
  5
2C1D
330
555
100
AcDbEntity
  8
寸法
 62
     0
370
    -2
100
AcDbLine
 10
503.3593647418629
 20
272.347457070988
 30
0.0
 11
503.3593647418629
 21
265.7865357907166
 31
0.0
  0
LINE
  5
2C1E
330
555
100
AcDbEntity
  8
寸法
 62
     0
370
    -2
100
AcDbLine
 10
505.8993647418629
 20
272.347457070988
 30
0.0
 11
505.8993647418629
 21
265.7865357907166
 31
0.0
  0
LINE
  5
2C1F
330
555
100
AcDbEntity
  8
寸法
 62
     0
370
    -2
100
AcDbLine
 10
501.359364741863
 20
266.7865357907166
 30
0.0
 11
499.3593647418629
 21
266.7865357907166
 31
0.0
  0
LINE
  5
2C20
330
555
100
AcDbEntity
  8
寸法
 62
     0
370
    -2
100
AcDbLine
 10
505.8993647418629
 20
266.7865357907166
 30
0.0
 11
507.899364741863
 21
266.7865357907166
 31
0.0
  0
LINE
  5
2C21
330
555
100
AcDbEntity
  8
寸法
 62
     0
370
    -2
100
AcDbLine
 10
503.3593647418629
 20
266.7865357907166
 30
0.0
 11
505.8993647418629
 21
266.7865357907166
 31
0.0
  0
SOLID
  5
2C22
330
555
100
AcDbEntity
  8
寸法
 62
     0
100
AcDbTrace
 10
501.359364741863
 20
267.1198691240499
 30
0.0
 11
501.359364741863
 21
266.4532024573833
 31
0.0
 12
503.3593647418629
 22
266.7865357907166
 32
0.0
 13
503.3593647418629
 23
266.7865357907166
 33
0.0
  0
MTEXT
  5
2C23
330
555
100
AcDbEntity
  8
寸法
 62
     0
100
AcDbMText
 10
504.629364741863
 20
267.8865357907166
 30
0.0
 40
1.399999999999999
 41
0.0
 71
     5
 72
     1
  1
2.54
 73
     1
 44
1.0
  0
POINT
  5
2C24
330
555
100
AcDbEntity
  8
Defpoints
 62
     0
100
AcDbPoint
 10
503.3593647418629
 20
272.7474570709879
 30
0.0
  0
POINT
  5
2C25
330
555
100
AcDbEntity
  8
Defpoints
 62
     0
100
AcDbPoint
 10
505.8993647418629
 20
272.7474570709879
 30
0.0
  0
POINT
  5
2C26
330
555
100
AcDbEntity
  8
Defpoints
 62
     0
100
AcDbPoint
 10
505.8993647418629
 20
266.7865357907166
 30
0.0
  0
ENDBLK
  5
560
330
555
100
AcDbEntity
  8
0
 62
     5
100
AcDbBlockEnd
  0
BLOCK
  5
147B
330
1471
100
AcDbEntity
  8
0
 62
     5
100
AcDbBlockBegin
  2
*D2
 70
     1
 10
0.0
 20
0.0
 30
0.0
  3
*D2
  1

  0
LINE
  5
2B94
330
1471
100
AcDbEntity
  8
寸法
 62
     0
370
    -2
100
AcDbLine
 10
490.799364741863
 20
274.7670593766847
 30
0.0
 11
488.7993647418629
 21
274.7670593766847
 31
0.0
  0
LINE
  5
2B95
330
1471
100
AcDbEntity
  8
寸法
 62
     0
370
    -2
100
AcDbLine
 10
495.5993647418629
 20
274.7670593766847
 30
0.0
 11
500.9660314085295
 21
274.7670593766847
 31
0.0
  0
LINE
  5
2B96
330
1471
100
AcDbEntity
  8
寸法
 62
     0
370
    -2
100
AcDbLine
 10
492.7993647418629
 20
274.7670593766847
 30
0.0
 11
493.5993647418629
 21
274.7670593766847
 31
0.0
  0
SOLID
  5
2B97
330
1471
100
AcDbEntity
  8
寸法
 62
     0
100
AcDbTrace
 10
490.799364741863
 20
275.1003927100181
 30
0.0
 11
490.799364741863
 21
274.4337260433515
 31
0.0
 12
492.7993647418629
 22
274.7670593766847
 32
0.0
 13
492.7993647418629
 23
274.7670593766847
 33
0.0
  0
SOLID
  5
2B98
330
1471
100
AcDbEntity
  8
寸法
 62
     0
100
AcDbTrace
 10
495.5993647418629
 20
275.1003927100181
 30
0.0
 11
495.5993647418629
 21
274.4337260433515
 31
0.0
 12
493.5993647418629
 22
274.7670593766847
 32
0.0
 13
493.5993647418629
 23
274.7670593766847
 33
0.0
  0
MTEXT
  5
2B99
330
1471
100
AcDbEntity
  8
寸法
 62
     0
100
AcDbMText
 10
499.2826980751963
 20
275.8670593766848
 30
0.0
 40
1.399999999999999
 41
0.0
 71
     5
 72
     1
  1
0.8
 73
     1
 44
1.0
  0
POINT
  5
2B9A
330
1471
100
AcDbEntity
  8
Defpoints
 62
     0
100
AcDbPoint
 10
492.7993647418629
 20
275.174416567688
 30
0.0
  0
POINT
  5
2B9B
330
1471
100
AcDbEntity
  8
Defpoints
 62
     0
100
AcDbPoint
 10
493.5993647418629
 20
275.174416567688
 30
0.0
  0
POINT
  5
2B9C
330
1471
100
AcDbEntity
  8
Defpoints
 62
     0
100
AcDbPoint
 10
493.5993647418629
 20
274.7670593766847
 30
0.0
  0
ENDBLK
  5
147C
330
1471
100
AcDbEntity
  8
0
 62
     5
100
AcDbBlockEnd
  0
BLOCK
  5
1A5C
330
1A52
100
AcDbEntity
  8
0
 62
     5
100
AcDbBlockBegin
  2
*D3
 70
     1
 10
0.0
 20
0.0
 30
0.0
  3
*D3
  1

  0
LINE
  5
2BBC
330
1A52
100
AcDbEntity
  8
寸法
 62
     0
370
    -2
100
AcDbLine
 10
485.5793647418629
 20
272.347457070988
 30
0.0
 11
485.5793647418629
 21
265.7865357907166
 31
0.0
  0
LINE
  5
2BBD
330
1A52
100
AcDbEntity
  8
寸法
 62
     0
370
    -2
100
AcDbLine
 10
482.5393647418628
 20
276.8474570709881
 30
0.0
 11
482.5393647418628
 21
265.7865357907166
 31
0.0
  0
LINE
  5
2BBE
330
1A52
100
AcDbEntity
  8
寸法
 62
     0
370
    -2
100
AcDbLine
 10
487.5793647418629
 20
266.7865357907166
 30
0.0
 11
489.5793647418629
 21
266.7865357907166
 31
0.0
  0
LINE
  5
2BBF
330
1A52
100
AcDbEntity
  8
寸法
 62
     0
370
    -2
100
AcDbLine
 10
480.5393647418629
 20
266.7865357907166
 30
0.0
 11
473.7726980751962
 21
266.7865357907166
 31
0.0
  0
LINE
  5
2BC0
330
1A52
100
AcDbEntity
  8
寸法
 62
     0
370
    -2
100
AcDbLine
 10
485.5793647418629
 20
266.7865357907166
 30
0.0
 11
482.5393647418628
 21
266.7865357907166
 31
0.0
  0
SOLID
  5
2BC1
330
1A52
100
AcDbEntity
  8
寸法
 62
     0
100
AcDbTrace
 10
487.5793647418629
 20
267.1198691240499
 30
0.0
 11
487.5793647418629
 21
266.4532024573833
 31
0.0
 12
485.5793647418629
 22
266.7865357907166
 32
0.0
 13
485.5793647418629
 23
266.7865357907166
 33
0.0
  0
SOLID
  5
2BC2
330
1A52
100
AcDbEntity
  8
寸法
 62
     0
100
AcDbTrace
 10
480.5393647418629
 20
267.1198691240499
 30
0.0
 11
480.5393647418629
 21
266.4532024573833
 31
0.0
 12
482.5393647418628
 22
266.7865357907166
 32
0.0
 13
482.5393647418628
 23
266.7865357907166
 33
0.0
  0
MTEXT
  5
2BC3
330
1A52
100
AcDbEntity
  8
寸法
 62
     0
100
AcDbMText
 10
476.1560314085295
 20
267.8865357907166
 30
0.0
 40
1.399999999999999
 41
0.0
 71
     5
 72
     1
  1
3.04
 73
     1
 44
1.0
  0
POINT
  5
2BC4
330
1A52
100
AcDbEntity
  8
Defpoints
 62
     0
100
AcDbPoint
 10
485.5793647418629
 20
272.7474570709879
 30
0.0
  0
POINT
  5
2BC5
330
1A52
100
AcDbEntity
  8
Defpoints
 62
     0
100
AcDbPoint
 10
482.5393647418628
 20
277.2474570709881
 30
0.0
  0
POINT
  5
2BC6
330
1A52
100
AcDbEntity
  8
Defpoints
 62
     0
100
AcDbPoint
 10
482.5393647418628
 20
266.7865357907166
 30
0.0
  0
ENDBLK
  5
1A5D
330
1A52
100
AcDbEntity
  8
0
 62
     5
100
AcDbBlockEnd
  0
BLOCK
  5
1AAE
330
1AA3
100
AcDbEntity
  8
0
 62
     5
100
AcDbBlockBegin
  2
*D4
 70
     1
 10
0.0
 20
0.0
 30
0.0
  3
*D4
  1

  0
LINE
  5
2C35
330
1AA3
100
AcDbEntity
  8
寸法
 62
     0
370
    -2
100
AcDbLine
 10
505.8993647418632
 20
272.347457070988
 30
0.0
 11
505.8993647418632
 21
265.7865357907166
 31
0.0
  0
LINE
  5
2C36
330
1AA3
100
AcDbEntity
  8
寸法
 62
     0
370
    -2
100
AcDbLine
 10
508.9393647418632
 20
276.8474570709881
 30
0.0
 11
508.9393647418632
 21
265.7865357907166
 31
0.0
  0
LINE
  5
2C37
330
1AA3
100
AcDbEntity
  8
寸法
 62
     0
370
    -2
100
AcDbLine
 10
505.8993647418632
 20
266.7865357907166
 30
0.0
 11
508.9393647418632
 21
266.7865357907166
 31
0.0
  0
LINE
  5
2C38
330
1AA3
100
AcDbEntity
  8
寸法
 62
     0
370
    -2
100
AcDbLine
 10
508.9393647418632
 20
266.7865357907166
 30
0.0
 11
517.7060314085299
 21
266.7865357907166
 31
0.0
  0
INSERT
  5
2C39
330
1AA3
100
AcDbEntity
  8
寸法
 62
     0
370
    -2
100
AcDbBlockReference
  2
_DotSmall
 10
505.8993647418632
 20
266.7865357907166
 30
0.0
 41
2.0
 42
2.0
 43
2.0
 50
180.0
  0
MTEXT
  5
2C3A
330
1AA3
100
AcDbEntity
  8
寸法
 62
     0
100
AcDbMText
 10
515.3226980751965
 20
267.8865357907166
 30
0.0
 40
1.399999999999999
 41
0.0
 71
     5
 72
     1
  1
3.04
 73
     1
 44
1.0
  0
POINT
  5
2C3B
330
1AA3
100
AcDbEntity
  8
Defpoints
 62
     0
100
AcDbPoint
 10
505.8993647418632
 20
272.7474570709879
 30
0.0
  0
POINT
  5
2C3C
330
1AA3
100
AcDbEntity
  8
Defpoints
 62
     0
100
AcDbPoint
 10
508.9393647418632
 20
277.2474570709881
 30
0.0
  0
POINT
  5
2C3D
330
1AA3
100
AcDbEntity
  8
Defpoints
 62
     0
100
AcDbPoint
 10
508.9393647418632
 20
266.7865357907166
 30
0.0
  0
ENDBLK
  5
1AAF
330
1AA3
100
AcDbEntity
  8
0
 62
     5
100
AcDbBlockEnd
  0
BLOCK
  5
1AC5
330
1ABB
100
AcDbEntity
  8
0
 62
     5
100
AcDbBlockBegin
  2
*D5
 70
     1
 10
0.0
 20
0.0
 30
0.0
  3
*D5
  1

  0
LINE
  5
2BB3
330
1ABB
100
AcDbEntity
  8
寸法
 62
     0
370
    -2
100
AcDbLine
 10
482.5393647418628
 20
276.8474570709881
 30
0.0
 11
482.5393647418628
 21
259.7865357907166
 31
0.0
  0
LINE
  5
2BB4
330
1ABB
100
AcDbEntity
  8
寸法
 62
     0
370
    -2
100
AcDbLine
 10
508.939364741863
 20
276.847457070988
 30
0.0
 11
508.939364741863
 21
259.7865357907166
 31
0.0
  0
LINE
  5
2BB5
330
1ABB
100
AcDbEntity
  8
寸法
 62
     0
370
    -2
100
AcDbLine
 10
484.5393647418629
 20
260.7865357907166
 30
0.0
 11
506.9393647418629
 21
260.7865357907166
 31
0.0
  0
SOLID
  5
2BB6
330
1ABB
100
AcDbEntity
  8
寸法
 62
     0
100
AcDbTrace
 10
484.5393647418629
 20
261.1198691240499
 30
0.0
 11
484.5393647418629
 21
260.4532024573833
 31
0.0
 12
482.5393647418628
 22
260.7865357907166
 32
0.0
 13
482.5393647418628
 23
260.7865357907166
 33
0.0
  0
SOLID
  5
2BB7
330
1ABB
100
AcDbEntity
  8
寸法
 62
     0
100
AcDbTrace
 10
506.9393647418629
 20
261.1198691240499
 30
0.0
 11
506.9393647418629
 21
260.4532024573833
 31
0.0
 12
508.939364741863
 22
260.7865357907166
 32
0.0
 13
508.939364741863
 23
260.7865357907166
 33
0.0
  0
MTEXT
  5
2BB8
330
1ABB
100
AcDbEntity
  8
寸法
 62
     0
100
AcDbMText
 10
495.7393647418629
 20
261.8865357907166
 30
0.0
 40
1.399999999999999
 41
0.0
 71
     5
 72
     1
  1
26.4
 73
     1
 44
1.0
  0
POINT
  5
2BB9
330
1ABB
100
AcDbEntity
  8
Defpoints
 62
     0
100
AcDbPoint
 10
482.5393647418628
 20
277.2474570709881
 30
0.0
  0
POINT
  5
2BBA
330
1ABB
100
AcDbEntity
  8
Defpoints
 62
     0
100
AcDbPoint
 10
508.939364741863
 20
277.247457070988
 30
0.0
  0
POINT
  5
2BBB
330
1ABB
100
AcDbEntity
  8
Defpoints
 62
     0
100
AcDbPoint
 10
508.939364741863
 20
260.7865357907166
 30
0.0
  0
ENDBLK
  5
1AC6
330
1ABB
100
AcDbEntity
  8
0
 62
     5
100
AcDbBlockEnd
  0
BLOCK
  5
1B71
330
1B67
100
AcDbEntity
  8
0
 62
     5
100
AcDbBlockBegin
  2
*D6
 70
     1
 10
0.0
 20
0.0
 30
0.0
  3
*D6
  1

  0
LINE
  5
2B6F
330
1B67
100
AcDbEntity
  8
寸法
 62
     0
370
    -2
100
AcDbLine
 10
508.5530917272186
 20
307.7474570709881
 30
0.0
 11
515.842356901527
 21
307.7474570709881
 31
0.0
  0
LINE
  5
2B70
330
1B67
100
AcDbEntity
  8
寸法
 62
     0
370
    -2
100
AcDbLine
 10
509.3393647418631
 20
291.247457070988
 30
0.0
 11
515.842356901527
 21
291.247457070988
 31
0.0
  0
LINE
  5
2B71
330
1B67
100
AcDbEntity
  8
寸法
 62
     0
370
    -2
100
AcDbLine
 10
514.842356901527
 20
305.7474570709881
 30
0.0
 11
514.842356901527
 21
293.247457070988
 31
0.0
  0
SOLID
  5
2B72
330
1B67
100
AcDbEntity
  8
寸法
 62
     0
100
AcDbTrace
 10
514.5090235681936
 20
305.7474570709881
 30
0.0
 11
515.1756902348604
 21
305.7474570709881
 31
0.0
 12
514.842356901527
 22
307.7474570709881
 32
0.0
 13
514.842356901527
 23
307.7474570709881
 33
0.0
  0
SOLID
  5
2B73
330
1B67
100
AcDbEntity
  8
寸法
 62
     0
100
AcDbTrace
 10
514.5090235681936
 20
293.247457070988
 30
0.0
 11
515.1756902348604
 21
293.247457070988
 31
0.0
 12
514.842356901527
 22
291.247457070988
 32
0.0
 13
514.842356901527
 23
291.247457070988
 33
0.0
  0
MTEXT
  5
2B74
330
1B67
100
AcDbEntity
  8
寸法
 62
     0
100
AcDbMText
 10
513.7423569015269
 20
299.4974570709881
 30
0.0
 40
1.399999999999999
 41
0.0
 71
     5
 72
     1
  1
16.5
 11
0.0000000000000001
 21
1.0
 31
0.0
 73
     1
 44
1.0
  0
POINT
  5
2B75
330
1B67
100
AcDbEntity
  8
Defpoints
 62
     0
100
AcDbPoint
 10
508.1530917272186
 20
307.7474570709881
 30
0.0
  0
POINT
  5
2B76
330
1B67
100
AcDbEntity
  8
Defpoints
 62
     0
100
AcDbPoint
 10
508.9393647418631
 20
291.247457070988
 30
0.0
  0
POINT
  5
2B77
330
1B67
100
AcDbEntity
  8
Defpoints
 62
     0
100
AcDbPoint
 10
514.842356901527
 20
291.247457070988
 30
0.0
  0
ENDBLK
  5
1B72
330
1B67
100
AcDbEntity
  8
0
 62
     5
100
AcDbBlockEnd
  0
BLOCK
  5
1C9B
330
1C91
100
AcDbEntity
  8
0
 62
     5
100
AcDbBlockBegin
  2
*D7
 70
     1
 10
0.0
 20
0.0
 30
0.0
  3
*D7
  1

  0
LINE
  5
2CF3
330
1C91
100
AcDbEntity
  8
寸法
 62
     0
370
    -2
100
AcDbLine
 10
509.3393647418627
 20
277.247457070988
 30
0.0
 11
515.9347463906247
 21
277.247457070988
 31
0.0
  0
LINE
  5
2CF4
330
1C91
100
AcDbEntity
  8
寸法
 62
     0
370
    -2
100
AcDbLine
 10
506.2993647418629
 20
273.7474570709879
 30
0.0
 11
515.9347463906247
 21
273.7474570709879
 31
0.0
  0
LINE
  5
2CF5
330
1C91
100
AcDbEntity
  8
寸法
 62
     0
370
    -2
100
AcDbLine
 10
514.9347463906248
 20
279.247457070988
 30
0.0
 11
514.9347463906248
 21
281.247457070988
 31
0.0
  0
LINE
  5
2CF6
330
1C91
100
AcDbEntity
  8
寸法
 62
     0
370
    -2
100
AcDbLine
 10
514.9347463906248
 20
271.7474570709879
 30
0.0
 11
514.9347463906248
 21
269.7474570709879
 31
0.0
  0
LINE
  5
2CF7
330
1C91
100
AcDbEntity
  8
寸法
 62
     0
370
    -2
100
AcDbLine
 10
514.9347463906248
 20
277.247457070988
 30
0.0
 11
514.9347463906248
 21
273.7474570709879
 31
0.0
  0
SOLID
  5
2CF8
330
1C91
100
AcDbEntity
  8
寸法
 62
     0
100
AcDbTrace
 10
514.6014130572914
 20
279.247457070988
 30
0.0
 11
515.2680797239582
 21
279.247457070988
 31
0.0
 12
514.9347463906248
 22
277.247457070988
 32
0.0
 13
514.9347463906248
 23
277.247457070988
 33
0.0
  0
SOLID
  5
2CF9
330
1C91
100
AcDbEntity
  8
寸法
 62
     0
100
AcDbTrace
 10
514.6014130572914
 20
271.7474570709879
 30
0.0
 11
515.2680797239582
 21
271.7474570709879
 31
0.0
 12
514.9347463906248
 22
273.7474570709879
 32
0.0
 13
514.9347463906248
 23
273.7474570709879
 33
0.0
  0
MTEXT
  5
2CFA
330
1C91
100
AcDbEntity
  8
寸法
 62
     0
100
AcDbMText
 10
513.8347463906247
 20
275.497457070988
 30
0.0
 40
1.399999999999999
 41
0.0
 71
     5
 72
     1
  1
3.5
 11
0.0000000000000001
 21
1.0
 31
0.0
 73
     1
 44
1.0
  0
POINT
  5
2CFB
330
1C91
100
AcDbEntity
  8
Defpoints
 62
     0
100
AcDbPoint
 10
508.9393647418628
 20
277.247457070988
 30
0.0
  0
POINT
  5
2CFC
330
1C91
100
AcDbEntity
  8
Defpoints
 62
     0
100
AcDbPoint
 10
505.8993647418629
 20
273.7474570709879
 30
0.0
  0
POINT
  5
2CFD
330
1C91
100
AcDbEntity
  8
Defpoints
 62
     0
100
AcDbPoint
 10
514.9347463906248
 20
273.7474570709879
 30
0.0
  0
ENDBLK
  5
1C9C
330
1C91
100
AcDbEntity
  8
0
 62
     5
100
AcDbBlockEnd
  0
BLOCK
  5
1CB1
330
1CA7
100
AcDbEntity
  8
0
 62
     5
100
AcDbBlockBegin
  2
*D8
 70
     1
 10
0.0
 20
0.0
 30
0.0
  3
*D8
  1

  0
LINE
  5
2CFE
330
1CA7
100
AcDbEntity
  8
寸法
 62
     0
370
    -2
100
AcDbLine
 10
508.5530917272186
 20
307.7474570709881
 30
0.0
 11
521.842356901527
 21
307.7474570709881
 31
0.0
  0
LINE
  5
2CFF
330
1CA7
100
AcDbEntity
  8
寸法
 62
     0
370
    -2
100
AcDbLine
 10
506.2993647418629
 20
273.7474570709879
 30
0.0
 11
521.842356901527
 21
273.7474570709879
 31
0.0
  0
LINE
  5
2D00
330
1CA7
100
AcDbEntity
  8
寸法
 62
     0
370
    -2
100
AcDbLine
 10
520.8423569015271
 20
305.7474570709881
 30
0.0
 11
520.8423569015271
 21
275.747457070988
 31
0.0
  0
SOLID
  5
2D01
330
1CA7
100
AcDbEntity
  8
寸法
 62
     0
100
AcDbTrace
 10
520.5090235681937
 20
305.7474570709881
 30
0.0
 11
521.1756902348604
 21
305.7474570709881
 31
0.0
 12
520.8423569015271
 22
307.7474570709881
 32
0.0
 13
520.8423569015271
 23
307.7474570709881
 33
0.0
  0
SOLID
  5
2D02
330
1CA7
100
AcDbEntity
  8
寸法
 62
     0
100
AcDbTrace
 10
520.5090235681937
 20
275.747457070988
 30
0.0
 11
521.1756902348604
 21
275.747457070988
 31
0.0
 12
520.8423569015271
 22
273.7474570709879
 32
0.0
 13
520.8423569015271
 23
273.7474570709879
 33
0.0
  0
MTEXT
  5
2D03
330
1CA7
100
AcDbEntity
  8
寸法
 62
     0
100
AcDbMText
 10
519.7423569015269
 20
290.7474570709881
 30
0.0
 40
1.399999999999999
 41
0.0
 71
     5
 72
     1
  1
34
 11
0.0000000000000001
 21
1.0
 31
0.0
 73
     1
 44
1.0
  0
POINT
  5
2D04
330
1CA7
100
AcDbEntity
  8
Defpoints
 62
     0
100
AcDbPoint
 10
508.1530917272186
 20
307.7474570709881
 30
0.0
  0
POINT
  5
2D05
330
1CA7
100
AcDbEntity
  8
Defpoints
 62
     0
100
AcDbPoint
 10
505.8993647418629
 20
273.7474570709879
 30
0.0
  0
POINT
  5
2D06
330
1CA7
100
AcDbEntity
  8
Defpoints
 62
     0
100
AcDbPoint
 10
520.8423569015271
 20
273.7474570709879
 30
0.0
  0
ENDBLK
  5
1CB2
330
1CA7
100
AcDbEntity
  8
0
 62
     5
100
AcDbBlockEnd
  0
BLOCK
  5
1D03
330
1CF9
100
AcDbEntity
  8
0
 62
     5
100
AcDbBlockBegin
  2
*D9
 70
     1
 10
0.0
 20
0.0
 30
0.0
  3
*D9
  1

  0
LINE
  5
2C49
330
1CF9
100
AcDbEntity
  8
寸法
 62
     0
370
    -2
100
AcDbLine
 10
526.5203310362233
 20
276.847457070988
 30
0.0
 11
526.5203310362233
 21
265.7865357907166
 31
0.0
  0
LINE
  5
2C4A
330
1CF9
100
AcDbEntity
  8
寸法
 62
     0
370
    -2
100
AcDbLine
 10
533.3203310362232
 20
276.847457070988
 30
0.0
 11
533.3203310362232
 21
265.7865357907166
 31
0.0
  0
LINE
  5
2C4B
330
1CF9
100
AcDbEntity
  8
寸法
 62
     0
370
    -2
100
AcDbLine
 10
528.5203310362232
 20
266.7865357907166
 30
0.0
 11
531.3203310362232
 21
266.7865357907166
 31
0.0
  0
SOLID
  5
2C4C
330
1CF9
100
AcDbEntity
  8
寸法
 62
     0
100
AcDbTrace
 10
528.5203310362232
 20
267.1198691240499
 30
0.0
 11
528.5203310362232
 21
266.4532024573833
 31
0.0
 12
526.5203310362233
 22
266.7865357907166
 32
0.0
 13
526.5203310362233
 23
266.7865357907166
 33
0.0
  0
SOLID
  5
2C4D
330
1CF9
100
AcDbEntity
  8
寸法
 62
     0
100
AcDbTrace
 10
531.3203310362232
 20
267.1198691240499
 30
0.0
 11
531.3203310362232
 21
266.4532024573833
 31
0.0
 12
533.3203310362232
 22
266.7865357907166
 32
0.0
 13
533.3203310362232
 23
266.7865357907166
 33
0.0
  0
MTEXT
  5
2C4E
330
1CF9
100
AcDbEntity
  8
寸法
 62
     0
100
AcDbMText
 10
529.9203310362233
 20
267.8865357907166
 30
0.0
 40
1.399999999999999
 41
0.0
 71
     5
 72
     1
  1
6.8
 73
     1
 44
1.0
  0
POINT
  5
2C4F
330
1CF9
100
AcDbEntity
  8
Defpoints
 62
     0
100
AcDbPoint
 10
526.5203310362233
 20
277.247457070988
 30
0.0
  0
POINT
  5
2C50
330
1CF9
100
AcDbEntity
  8
Defpoints
 62
     0
100
AcDbPoint
 10
533.3203310362232
 20
277.247457070988
 30
0.0
  0
POINT
  5
2C51
330
1CF9
100
AcDbEntity
  8
Defpoints
 62
     0
100
AcDbPoint
 10
533.3203310362232
 20
266.7865357907166
 30
0.0
  0
ENDBLK
  5
1D04
330
1CF9
100
AcDbEntity
  8
0
 62
     5
100
AcDbBlockEnd
  0
BLOCK
  5
1D94
330
1D88
100
AcDbEntity
  8
0
 62
     5
100
AcDbBlockBegin
  2
*D10
 70
     1
 10
0.0
 20
0.0
 30
0.0
  3
*D10
  1

  0
LINE
  5
2CE1
330
1D88
100
AcDbEntity
  8
寸法
 62
     0
370
    -2
100
AcDbLine
 10
446.7965828489887
 20
287.4840995773506
 30
0.0
 11
446.7965828489887
 21
295.5473606070011
 31
0.0
  0
LINE
  5
2CE2
330
1D88
100
AcDbEntity
  8
寸法
 62
     0
370
    -2
100
AcDbLine
 10
449.8965828489891
 20
294.5473606070011
 30
0.0
 11
451.896582848989
 21
294.5473606070011
 31
0.0
  0
LINE
  5
2CE3
330
1D88
100
AcDbEntity
  8
寸法
 62
     0
370
    -2
100
AcDbLine
 10
444.7965828489888
 20
294.5473606070011
 30
0.0
 11
440.1299161823221
 21
294.5473606070011
 31
0.0
  0
LINE
  5
2CE4
330
1D88
100
AcDbEntity
  8
寸法
 62
     0
370
    -2
100
AcDbLine
 10
447.896582848989
 20
294.5473606070011
 30
0.0
 11
446.7965828489887
 21
294.5473606070011
 31
0.0
  0
SOLID
  5
2CE5
330
1D88
100
AcDbEntity
  8
寸法
 62
     0
100
AcDbTrace
 10
449.8965828489891
 20
294.8806939403344
 30
0.0
 11
449.8965828489891
 21
294.2140272736678
 31
0.0
 12
447.896582848989
 22
294.5473606070011
 32
0.0
 13
447.896582848989
 23
294.5473606070011
 33
0.0
  0
SOLID
  5
2CE6
330
1D88
100
AcDbEntity
  8
寸法
 62
     0
100
AcDbTrace
 10
444.7965828489888
 20
294.8806939403344
 30
0.0
 11
444.7965828489888
 21
294.2140272736678
 31
0.0
 12
446.7965828489887
 22
294.5473606070011
 32
0.0
 13
446.7965828489887
 23
294.5473606070011
 33
0.0
  0
MTEXT
  5
2CE7
330
1D88
100
AcDbEntity
  8
寸法
 62
     0
100
AcDbMText
 10
441.4632495156554
 20
295.6473606070011
 30
0.0
 40
1.399999999999999
 41
0.0
 71
     5
 72
     1
  1
1.1
 73
     1
 44
1.0
  0
POINT
  5
2CE8
330
1D88
100
AcDbEntity
  8
Defpoints
 62
     0
100
AcDbPoint
 10
446.7965828489887
 20
287.0840995773506
 30
0.0
  0
POINT
  5
2CE9
330
1D88
100
AcDbEntity
  8
Defpoints
 62
     0
100
AcDbPoint
 10
447.896582848989
 20
287.0840995773506
 30
0.0
  0
POINT
  5
2CEA
330
1D88
100
AcDbEntity
  8
Defpoints
 62
     0
100
AcDbPoint
 10
447.896582848989
 20
294.5473606070011
 30
0.0
  0
ENDBLK
  5
1D95
330
1D88
100
AcDbEntity
  8
0
 62
     5
100
AcDbBlockEnd
  0
BLOCK
  5
1DDF
330
1DD3
100
AcDbEntity
  8
0
 62
     5
100
AcDbBlockBegin
  2
*D11
 70
     1
 10
0.0
 20
0.0
 30
0.0
  3
*D11
  1

  0
LINE
  5
2CD6
330
1DD3
100
AcDbEntity
  8
寸法
 62
     0
370
    -2
100
AcDbLine
 10
447.5965828489881
 20
273.3474570709887
 30
0.0
 11
447.5965828489881
 21
266.4638314652861
 31
0.0
  0
LINE
  5
2CD7
330
1DD3
100
AcDbEntity
  8
寸法
 62
     0
370
    -2
100
AcDbLine
 10
447.2965828489883
 20
273.3474570709887
 30
0.0
 11
447.2965828489883
 21
266.4638314652861
 31
0.0
  0
LINE
  5
2CD8
330
1DD3
100
AcDbEntity
  8
寸法
 62
     0
370
    -2
100
AcDbLine
 10
449.5965828489881
 20
267.463831465286
 30
0.0
 11
451.5965828489881
 21
267.463831465286
 31
0.0
  0
LINE
  5
2CD9
330
1DD3
100
AcDbEntity
  8
寸法
 62
     0
370
    -2
100
AcDbLine
 10
445.2965828489882
 20
267.463831465286
 30
0.0
 11
439.9299161823216
 21
267.463831465286
 31
0.0
  0
LINE
  5
2CDA
330
1DD3
100
AcDbEntity
  8
寸法
 62
     0
370
    -2
100
AcDbLine
 10
447.5965828489881
 20
267.463831465286
 30
0.0
 11
447.2965828489883
 21
267.463831465286
 31
0.0
  0
SOLID
  5
2CDB
330
1DD3
100
AcDbEntity
  8
寸法
 62
     0
100
AcDbTrace
 10
449.5965828489881
 20
267.7971647986193
 30
0.0
 11
449.5965828489881
 21
267.1304981319527
 31
0.0
 12
447.5965828489881
 22
267.463831465286
 32
0.0
 13
447.5965828489881
 23
267.463831465286
 33
0.0
  0
SOLID
  5
2CDC
330
1DD3
100
AcDbEntity
  8
寸法
 62
     0
100
AcDbTrace
 10
445.2965828489882
 20
267.7971647986193
 30
0.0
 11
445.2965828489882
 21
267.1304981319527
 31
0.0
 12
447.2965828489883
 22
267.463831465286
 32
0.0
 13
447.2965828489883
 23
267.463831465286
 33
0.0
  0
MTEXT
  5
2CDD
330
1DD3
100
AcDbEntity
  8
寸法
 62
     0
100
AcDbMText
 10
441.6132495156549
 20
268.5638314652861
 30
0.0
 40
1.399999999999999
 41
0.0
 71
     5
 72
     1
  1
0.3
 73
     1
 44
1.0
  0
POINT
  5
2CDE
330
1DD3
100
AcDbEntity
  8
Defpoints
 62
     0
100
AcDbPoint
 10
447.5965828489881
 20
273.7474570709887
 30
0.0
  0
POINT
  5
2CDF
330
1DD3
100
AcDbEntity
  8
Defpoints
 62
     0
100
AcDbPoint
 10
447.2965828489883
 20
273.7474570709887
 30
0.0
  0
POINT
  5
2CE0
330
1DD3
100
AcDbEntity
  8
Defpoints
 62
     0
100
AcDbPoint
 10
447.2965828489883
 20
267.463831465286
 30
0.0
  0
ENDBLK
  5
1DE0
330
1DD3
100
AcDbEntity
  8
0
 62
     5
100
AcDbBlockEnd
  0
BLOCK
  5
1E0F
330
1E03
100
AcDbEntity
  8
0
 62
     5
100
AcDbBlockBegin
  2
*D12
 70
     1
 10
0.0
 20
0.0
 30
0.0
  3
*D12
  1

  0
LINE
  5
2CCB
330
1E03
100
AcDbEntity
  8
寸法
 62
     0
370
    -2
100
AcDbLine
 10
447.8965828489888
 20
272.3474570709878
 30
0.0
 11
447.8965828489888
 21
260.4638314652861
 31
0.0
  0
LINE
  5
2CCC
330
1E03
100
AcDbEntity
  8
寸法
 62
     0
370
    -2
100
AcDbLine
 10
447.5965828489889
 20
273.3474570709886
 30
0.0
 11
447.5965828489889
 21
260.4638314652861
 31
0.0
  0
LINE
  5
2CCD
330
1E03
100
AcDbEntity
  8
寸法
 62
     0
370
    -2
100
AcDbLine
 10
445.5965828489889
 20
261.463831465286
 30
0.0
 11
443.5965828489889
 21
261.463831465286
 31
0.0
  0
LINE
  5
2CCE
330
1E03
100
AcDbEntity
  8
寸法
 62
     0
370
    -2
100
AcDbLine
 10
449.8965828489889
 20
261.463831465286
 30
0.0
 11
455.2632495156555
 21
261.463831465286
 31
0.0
  0
LINE
  5
2CCF
330
1E03
100
AcDbEntity
  8
寸法
 62
     0
370
    -2
100
AcDbLine
 10
447.5965828489889
 20
261.463831465286
 30
0.0
 11
447.8965828489888
 21
261.463831465286
 31
0.0
  0
SOLID
  5
2CD0
330
1E03
100
AcDbEntity
  8
寸法
 62
     0
100
AcDbTrace
 10
445.5965828489889
 20
261.7971647986194
 30
0.0
 11
445.5965828489889
 21
261.1304981319527
 31
0.0
 12
447.5965828489889
 22
261.463831465286
 32
0.0
 13
447.5965828489889
 23
261.463831465286
 33
0.0
  0
SOLID
  5
2CD1
330
1E03
100
AcDbEntity
  8
寸法
 62
     0
100
AcDbTrace
 10
449.8965828489889
 20
261.7971647986194
 30
0.0
 11
449.8965828489889
 21
261.1304981319527
 31
0.0
 12
447.8965828489888
 22
261.463831465286
 32
0.0
 13
447.8965828489888
 23
261.463831465286
 33
0.0
  0
MTEXT
  5
2CD2
330
1E03
100
AcDbEntity
  8
寸法
 62
     0
100
AcDbMText
 10
453.5799161823222
 20
262.5638314652861
 30
0.0
 40
1.399999999999999
 41
0.0
 71
     5
 72
     1
  1
0.3
 73
     1
 44
1.0
  0
POINT
  5
2CD3
330
1E03
100
AcDbEntity
  8
Defpoints
 62
     0
100
AcDbPoint
 10
447.8965828489888
 20
272.7474570709878
 30
0.0
  0
POINT
  5
2CD4
330
1E03
100
AcDbEntity
  8
Defpoints
 62
     0
100
AcDbPoint
 10
447.5965828489889
 20
273.7474570709886
 30
0.0
  0
POINT
  5
2CD5
330
1E03
100
AcDbEntity
  8
Defpoints
 62
     0
100
AcDbPoint
 10
447.5965828489889
 20
261.463831465286
 30
0.0
  0
ENDBLK
  5
1E10
330
1E03
100
AcDbEntity
  8
0
 62
     5
100
AcDbBlockEnd
  0
BLOCK
  5
20B4
330
20AA
100
AcDbEntity
  8
0
 62
     5
100
AcDbBlockBegin
  2
*D13
 70
     1
 10
0.0
 20
0.0
 30
0.0
  3
*D13
  1

  0
LINE
  5
2A5B
330
20AA
100
AcDbEntity
  8
寸法
 62
     0
370
    -2
100
AcDbLine
 10
508.3393647418628
 20
328.421231059875
 30
0.0
 11
515.9393647418628
 21
328.421231059875
 31
0.0
  0
LINE
  5
2A5C
330
20AA
100
AcDbEntity
  8
寸法
 62
     0
370
    -2
100
AcDbLine
 10
508.3393647418628
 20
323.221231059875
 30
0.0
 11
515.9393647418628
 21
323.221231059875
 31
0.0
  0
LINE
  5
2A5D
330
20AA
100
AcDbEntity
  8
寸法
 62
     0
370
    -2
100
AcDbLine
 10
514.9393647418628
 20
326.421231059875
 30
0.0
 11
514.9393647418628
 21
325.221231059875
 31
0.0
  0
SOLID
  5
2A5E
330
20AA
100
AcDbEntity
  8
寸法
 62
     0
100
AcDbTrace
 10
514.6060314085294
 20
326.421231059875
 30
0.0
 11
515.2726980751962
 21
326.421231059875
 31
0.0
 12
514.9393647418628
 22
328.421231059875
 32
0.0
 13
514.9393647418628
 23
328.421231059875
 33
0.0
  0
SOLID
  5
2A5F
330
20AA
100
AcDbEntity
  8
寸法
 62
     0
100
AcDbTrace
 10
514.6060314085294
 20
325.221231059875
 30
0.0
 11
515.2726980751962
 21
325.221231059875
 31
0.0
 12
514.9393647418628
 22
323.221231059875
 32
0.0
 13
514.9393647418628
 23
323.221231059875
 33
0.0
  0
MTEXT
  5
2A60
330
20AA
100
AcDbEntity
  8
寸法
 62
     0
100
AcDbMText
 10
513.8393647418626
 20
325.8212310598751
 30
0.0
 40
1.399999999999999
 41
0.0
 71
     5
 72
     1
  1
5.2
 11
0.0000000000000001
 21
1.0
 31
0.0
 73
     1
 44
1.0
  0
POINT
  5
2A61
330
20AA
100
AcDbEntity
  8
Defpoints
 62
     0
100
AcDbPoint
 10
507.9393647418628
 20
328.421231059875
 30
0.0
  0
POINT
  5
2A62
330
20AA
100
AcDbEntity
  8
Defpoints
 62
     0
100
AcDbPoint
 10
507.9393647418628
 20
323.221231059875
 30
0.0
  0
POINT
  5
2A63
330
20AA
100
AcDbEntity
  8
Defpoints
 62
     0
100
AcDbPoint
 10
514.9393647418628
 20
323.221231059875
 30
0.0
  0
ENDBLK
  5
20B5
330
20AA
100
AcDbEntity
  8
0
 62
     5
100
AcDbBlockEnd
  0
BLOCK
  5
2153
330
2149
100
AcDbEntity
  8
0
 62
     5
100
AcDbBlockBegin
  2
*D14
 70
     1
 10
0.0
 20
0.0
 30
0.0
  3
*D14
  1

  0
LINE
  5
2A49
330
2149
100
AcDbEntity
  8
寸法
 62
     0
370
    -2
100
AcDbLine
 10
507.9393647418628
 20
328.821231059875
 30
0.0
 11
507.9393647418628
 21
336.2212310598749
 31
0.0
  0
LINE
  5
2A4A
330
2149
100
AcDbEntity
  8
寸法
 62
     0
370
    -2
100
AcDbLine
 10
483.5393647418627
 20
328.8212310598751
 30
0.0
 11
483.5393647418627
 21
336.2212310598749
 31
0.0
  0
LINE
  5
2A4B
330
2149
100
AcDbEntity
  8
寸法
 62
     0
370
    -2
100
AcDbLine
 10
505.9393647418628
 20
335.2212310598749
 30
0.0
 11
485.5393647418628
 21
335.2212310598749
 31
0.0
  0
SOLID
  5
2A4C
330
2149
100
AcDbEntity
  8
寸法
 62
     0
100
AcDbTrace
 10
505.9393647418628
 20
335.5545643932082
 30
0.0
 11
505.9393647418628
 21
334.8878977265416
 31
0.0
 12
507.9393647418628
 22
335.2212310598749
 32
0.0
 13
507.9393647418628
 23
335.2212310598749
 33
0.0
  0
SOLID
  5
2A4D
330
2149
100
AcDbEntity
  8
寸法
 62
     0
100
AcDbTrace
 10
485.5393647418628
 20
335.5545643932082
 30
0.0
 11
485.5393647418628
 21
334.8878977265416
 31
0.0
 12
483.5393647418627
 22
335.2212310598749
 32
0.0
 13
483.5393647418627
 23
335.2212310598749
 33
0.0
  0
MTEXT
  5
2A4E
330
2149
100
AcDbEntity
  8
寸法
 62
     0
100
AcDbMText
 10
495.7393647418627
 20
336.3212310598749
 30
0.0
 40
1.399999999999999
 41
0.0
 71
     5
 72
     1
  1
24.4
 73
     1
 44
1.0
  0
POINT
  5
2A4F
330
2149
100
AcDbEntity
  8
Defpoints
 62
     0
100
AcDbPoint
 10
507.9393647418628
 20
328.421231059875
 30
0.0
  0
POINT
  5
2A50
330
2149
100
AcDbEntity
  8
Defpoints
 62
     0
100
AcDbPoint
 10
483.5393647418627
 20
328.4212310598752
 30
0.0
  0
POINT
  5
2A51
330
2149
100
AcDbEntity
  8
Defpoints
 62
     0
100
AcDbPoint
 10
483.5393647418627
 20
335.2212310598749
 30
0.0
  0
ENDBLK
  5
2154
330
2149
100
AcDbEntity
  8
0
 62
     5
100
AcDbBlockEnd
  0
BLOCK
  5
22BE
330
22BD
100
AcDbEntity
  8
0
 62
     5
100
AcDbBlockBegin
  2
_None
 70
     0
 10
0.0
 20
0.0
 30
0.0
  3
_None
  1

  0
ENDBLK
  5
22BF
330
22BD
100
AcDbEntity
  8
0
 62
     5
100
AcDbBlockEnd
  0
BLOCK
  5
2401
330
23F7
100
AcDbEntity
  8
0
 62
     5
100
AcDbBlockBegin
  2
*D16
 70
     1
 10
0.0
 20
0.0
 30
0.0
  3
*D16
  1

  0
LINE
  5
2ED2
330
23F7
100
AcDbEntity
  8
寸法
 62
     0
370
    -2
100
AcDbLine
 10
508.9393647418628
 20
237.1048219356898
 30
0.0
 11
508.9393647418628
 21
243.4319830865522
 31
0.0
  0
LINE
  5
2ED3
330
23F7
100
AcDbEntity
  8
寸法
 62
     0
370
    -2
100
AcDbLine
 10
500.2393647418627
 20
237.1048219356898
 30
0.0
 11
500.2393647418627
 21
243.4319830865522
 31
0.0
  0
LINE
  5
2ED4
330
23F7
100
AcDbEntity
  8
寸法
 62
     0
370
    -2
100
AcDbLine
 10
506.9393647418628
 20
242.4319830865522
 30
0.0
 11
502.2393647418628
 21
242.4319830865522
 31
0.0
  0
SOLID
  5
2ED5
330
23F7
100
AcDbEntity
  8
寸法
 62
     0
100
AcDbTrace
 10
506.9393647418628
 20
242.7653164198855
 30
0.0
 11
506.9393647418628
 21
242.0986497532188
 31
0.0
 12
508.9393647418628
 22
242.4319830865522
 32
0.0
 13
508.9393647418628
 23
242.4319830865522
 33
0.0
  0
SOLID
  5
2ED6
330
23F7
100
AcDbEntity
  8
寸法
 62
     0
100
AcDbTrace
 10
502.2393647418628
 20
242.7653164198855
 30
0.0
 11
502.2393647418628
 21
242.0986497532188
 31
0.0
 12
500.2393647418627
 22
242.4319830865522
 32
0.0
 13
500.2393647418627
 23
242.4319830865522
 33
0.0
  0
MTEXT
  5
2ED7
330
23F7
100
AcDbEntity
  8
寸法
 62
     0
100
AcDbMText
 10
504.5893647418628
 20
243.5319830865522
 30
0.0
 40
1.399999999999999
 41
0.0
 71
     5
 72
     1
  1
8.7
 73
     1
 44
1.0
  0
POINT
  5
2ED8
330
23F7
100
AcDbEntity
  8
Defpoints
 62
     0
100
AcDbPoint
 10
508.9393647418628
 20
236.7048219356898
 30
0.0
  0
POINT
  5
2ED9
330
23F7
100
AcDbEntity
  8
Defpoints
 62
     0
100
AcDbPoint
 10
500.2393647418627
 20
236.7048219356898
 30
0.0
  0
POINT
  5
2EDA
330
23F7
100
AcDbEntity
  8
Defpoints
 62
     0
100
AcDbPoint
 10
500.2393647418627
 20
242.4319830865522
 30
0.0
  0
ENDBLK
  5
2402
330
23F7
100
AcDbEntity
  8
0
 62
     5
100
AcDbBlockEnd
  0
BLOCK
  5
2471
330
2467
100
AcDbEntity
  8
0
 62
     5
100
AcDbBlockBegin
  2
*D17
 70
     1
 10
0.0
 20
0.0
 30
0.0
  3
*D17
  1

  0
LINE
  5
2EC9
330
2467
100
AcDbEntity
  8
寸法
 62
     0
370
    -2
100
AcDbLine
 10
500.2393647418628
 20
237.1048219356898
 30
0.0
 11
500.2393647418628
 21
243.4319830865522
 31
0.0
  0
LINE
  5
2ECA
330
2467
100
AcDbEntity
  8
寸法
 62
     0
370
    -2
100
AcDbLine
 10
489.2393647418629
 20
237.1048219356899
 30
0.0
 11
489.2393647418629
 21
243.4319830865522
 31
0.0
  0
LINE
  5
2ECB
330
2467
100
AcDbEntity
  8
寸法
 62
     0
370
    -2
100
AcDbLine
 10
498.2393647418629
 20
242.4319830865522
 30
0.0
 11
491.2393647418629
 21
242.4319830865522
 31
0.0
  0
SOLID
  5
2ECC
330
2467
100
AcDbEntity
  8
寸法
 62
     0
100
AcDbTrace
 10
498.2393647418629
 20
242.7653164198855
 30
0.0
 11
498.2393647418629
 21
242.0986497532188
 31
0.0
 12
500.2393647418628
 22
242.4319830865522
 32
0.0
 13
500.2393647418628
 23
242.4319830865522
 33
0.0
  0
SOLID
  5
2ECD
330
2467
100
AcDbEntity
  8
寸法
 62
     0
100
AcDbTrace
 10
491.2393647418629
 20
242.7653164198855
 30
0.0
 11
491.2393647418629
 21
242.0986497532188
 31
0.0
 12
489.2393647418629
 22
242.4319830865522
 32
0.0
 13
489.2393647418629
 23
242.4319830865522
 33
0.0
  0
MTEXT
  5
2ECE
330
2467
100
AcDbEntity
  8
寸法
 62
     0
100
AcDbMText
 10
494.7393647418628
 20
243.5319830865522
 30
0.0
 40
1.399999999999999
 41
0.0
 71
     5
 72
     1
  1
11
 73
     1
 44
1.0
  0
POINT
  5
2ECF
330
2467
100
AcDbEntity
  8
Defpoints
 62
     0
100
AcDbPoint
 10
500.2393647418628
 20
236.7048219356898
 30
0.0
  0
POINT
  5
2ED0
330
2467
100
AcDbEntity
  8
Defpoints
 62
     0
100
AcDbPoint
 10
489.2393647418629
 20
236.7048219356899
 30
0.0
  0
POINT
  5
2ED1
330
2467
100
AcDbEntity
  8
Defpoints
 62
     0
100
AcDbPoint
 10
489.2393647418629
 20
242.4319830865522
 30
0.0
  0
ENDBLK
  5
2472
330
2467
100
AcDbEntity
  8
0
 62
     5
100
AcDbBlockEnd
  0
BLOCK
  5
2668
330
265E
100
AcDbEntity
  8
0
 62
     5
100
AcDbBlockBegin
  2
*D18
 70
     1
 10
0.0
 20
0.0
 30
0.0
  3
*D18
  1

  0
LINE
  5
2E6C
330
265E
100
AcDbEntity
  8
寸法
 62
     0
370
    -2
100
AcDbLine
 10
505.899364741863
 20
186.9916574745984
 30
0.0
 11
505.899364741863
 21
201.7916574745982
 31
0.0
  0
LINE
  5
2E6D
330
265E
100
AcDbEntity
  8
寸法
 62
     0
370
    -2
100
AcDbLine
 10
503.3593647418631
 20
186.9916574745982
 30
0.0
 11
503.3593647418631
 21
201.7916574745982
 31
0.0
  0
LINE
  5
2E6E
330
265E
100
AcDbEntity
  8
寸法
 62
     0
370
    -2
100
AcDbLine
 10
507.8993647418631
 20
200.7916574745982
 30
0.0
 11
509.899364741863
 21
200.7916574745982
 31
0.0
  0
LINE
  5
2E6F
330
265E
100
AcDbEntity
  8
寸法
 62
     0
370
    -2
100
AcDbLine
 10
501.359364741863
 20
200.7916574745982
 30
0.0
 11
499.3593647418631
 21
200.7916574745982
 31
0.0
  0
MTEXT
  5
2E70
330
265E
100
AcDbEntity
  8
寸法
 62
     0
100
AcDbMText
 10
504.4284474631343
 20
202.0034103713618
 30
0.0
 40
1.399999999999999
 41
0.0
 71
     5
 72
     1
  1
2.54
 73
     1
 44
1.0
  0
LINE
  5
2E71
330
265E
100
AcDbEntity
  8
寸法
 62
     0
370
    -2
100
AcDbLine
 10
505.899364741863
 20
200.7916574745982
 30
0.0
 11
503.3593647418631
 21
200.7916574745982
 31
0.0
  0
SOLID
  5
2E72
330
265E
100
AcDbEntity
  8
寸法
 62
     0
100
AcDbTrace
 10
507.8993647418631
 20
201.1249908079316
 30
0.0
 11
507.8993647418631
 21
200.4583241412649
 31
0.0
 12
505.899364741863
 22
200.7916574745982
 32
0.0
 13
505.899364741863
 23
200.7916574745982
 33
0.0
  0
SOLID
  5
2E73
330
265E
100
AcDbEntity
  8
寸法
 62
     0
100
AcDbTrace
 10
501.359364741863
 20
201.1249908079316
 30
0.0
 11
501.359364741863
 21
200.4583241412649
 31
0.0
 12
503.3593647418631
 22
200.7916574745982
 32
0.0
 13
503.3593647418631
 23
200.7916574745982
 33
0.0
  0
POINT
  5
2E74
330
265E
100
AcDbEntity
  8
Defpoints
 62
     0
100
AcDbPoint
 10
505.899364741863
 20
186.5916574745984
 30
0.0
  0
POINT
  5
2E75
330
265E
100
AcDbEntity
  8
Defpoints
 62
     0
100
AcDbPoint
 10
503.3593647418631
 20
186.5916574745982
 30
0.0
  0
POINT
  5
2E76
330
265E
100
AcDbEntity
  8
Defpoints
 62
     0
100
AcDbPoint
 10
503.3593647418631
 20
200.7916574745982
 30
0.0
  0
ENDBLK
  5
2669
330
265E
100
AcDbEntity
  8
0
 62
     5
100
AcDbBlockEnd
  0
BLOCK
  5
26BC
330
26B0
100
AcDbEntity
  8
0
 62
     5
100
AcDbBlockBegin
  2
*D19
 70
     1
 10
0.0
 20
0.0
 30
0.0
  3
*D19
  1

  0
LINE
  5
2E1B
330
26B0
100
AcDbEntity
  8
寸法
 62
     0
370
    -2
100
AcDbLine
 10
509.6767233397335
 20
185.3916574745982
 30
0.0
 11
516.2753285542923
 21
185.3916574745982
 31
0.0
  0
LINE
  5
2E1C
330
26B0
100
AcDbEntity
  8
寸法
 62
     0
370
    -2
100
AcDbLine
 10
509.6767233397335
 20
185.8416574745984
 30
0.0
 11
516.2753285542923
 21
185.8416574745984
 31
0.0
  0
LINE
  5
2E1D
330
26B0
100
AcDbEntity
  8
寸法
 62
     0
370
    -2
100
AcDbLine
 10
515.2753285542924
 20
185.3916574745982
 30
0.0
 11
515.2753285542924
 21
183.3916574745982
 31
0.0
  0
LINE
  5
2E1E
330
26B0
100
AcDbEntity
  8
寸法
 62
     0
370
    -2
100
AcDbLine
 10
515.2753285542924
 20
187.8416574745983
 30
0.0
 11
515.2753285542924
 21
194.6083241412651
 31
0.0
  0
LINE
  5
2E1F
330
26B0
100
AcDbEntity
  8
寸法
 62
     0
370
    -2
100
AcDbLine
 10
515.2753285542924
 20
185.3916574745982
 30
0.0
 11
515.2753285542924
 21
185.8416574745984
 31
0.0
  0
SOLID
  5
2E20
330
26B0
100
AcDbEntity
  8
寸法
 62
     0
100
AcDbTrace
 10
514.941995220959
 20
187.8416574745983
 30
0.0
 11
515.6086618876257
 21
187.8416574745983
 31
0.0
 12
515.2753285542924
 22
185.8416574745984
 32
0.0
 13
515.2753285542924
 23
185.8416574745984
 33
0.0
  0
MTEXT
  5
2E21
330
26B0
100
AcDbEntity
  8
寸法
 62
     0
100
AcDbMText
 10
514.1753285542923
 20
192.2249908079318
 30
0.0
 40
1.399999999999999
 41
0.0
 71
     5
 72
     1
  1
0.45
 11
0.0000000000000001
 21
1.0
 31
0.0
 73
     1
 44
1.0
  0
POINT
  5
2E22
330
26B0
100
AcDbEntity
  8
Defpoints
 62
     0
100
AcDbPoint
 10
509.2767233397335
 20
185.3916574745982
 30
0.0
  0
POINT
  5
2E23
330
26B0
100
AcDbEntity
  8
Defpoints
 62
     0
100
AcDbPoint
 10
509.2767233397335
 20
185.8416574745984
 30
0.0
  0
POINT
  5
2E24
330
26B0
100
AcDbEntity
  8
Defpoints
 62
     0
100
AcDbPoint
 10
515.2753285542924
 20
185.8416574745984
 30
0.0
  0
ENDBLK
  5
26BD
330
26B0
100
AcDbEntity
  8
0
 62
     5
100
AcDbBlockEnd
  0
BLOCK
  5
26F9
330
26EF
100
AcDbEntity
  8
0
 62
     5
100
AcDbBlockBegin
  2
*D20
 70
     1
 10
0.0
 20
0.0
 30
0.0
  3
*D20
  1

  0
LINE
  5
2E58
330
26EF
100
AcDbEntity
  8
寸法
 62
     0
370
    -2
100
AcDbLine
 10
503.3593647418631
 20
186.9916574745984
 30
0.0
 11
503.3593647418631
 21
201.7916574745982
 31
0.0
  0
LINE
  5
2E59
330
26EF
100
AcDbEntity
  8
寸法
 62
     0
370
    -2
100
AcDbLine
 10
493.199364741863
 20
186.9916574745984
 30
0.0
 11
493.199364741863
 21
201.7916574745982
 31
0.0
  0
LINE
  5
2E5A
330
26EF
100
AcDbEntity
  8
寸法
 62
     0
370
    -2
100
AcDbLine
 10
501.3593647418631
 20
200.7916574745982
 30
0.0
 11
495.199364741863
 21
200.7916574745982
 31
0.0
  0
SOLID
  5
2E5B
330
26EF
100
AcDbEntity
  8
寸法
 62
     0
100
AcDbTrace
 10
501.3593647418631
 20
201.1249908079316
 30
0.0
 11
501.3593647418631
 21
200.4583241412649
 31
0.0
 12
503.3593647418631
 22
200.7916574745982
 32
0.0
 13
503.3593647418631
 23
200.7916574745982
 33
0.0
  0
SOLID
  5
2E5C
330
26EF
100
AcDbEntity
  8
寸法
 62
     0
100
AcDbTrace
 10
495.199364741863
 20
201.1249908079316
 30
0.0
 11
495.199364741863
 21
200.4583241412649
 31
0.0
 12
493.199364741863
 22
200.7916574745982
 32
0.0
 13
493.199364741863
 23
200.7916574745982
 33
0.0
  0
MTEXT
  5
2E5D
330
26EF
100
AcDbEntity
  8
寸法
 62
     0
100
AcDbMText
 10
498.279364741863
 20
201.8916574745982
 30
0.0
 40
1.399999999999999
 41
0.0
 71
     5
 72
     1
  1
10.16
 73
     1
 44
1.0
  0
POINT
  5
2E5E
330
26EF
100
AcDbEntity
  8
Defpoints
 62
     0
100
AcDbPoint
 10
503.3593647418631
 20
186.5916574745984
 30
0.0
  0
POINT
  5
2E5F
330
26EF
100
AcDbEntity
  8
Defpoints
 62
     0
100
AcDbPoint
 10
493.199364741863
 20
186.5916574745984
 30
0.0
  0
POINT
  5
2E60
330
26EF
100
AcDbEntity
  8
Defpoints
 62
     0
100
AcDbPoint
 10
493.199364741863
 20
200.7916574745982
 30
0.0
  0
ENDBLK
  5
26FA
330
26EF
100
AcDbEntity
  8
0
 62
     5
100
AcDbBlockEnd
  0
BLOCK
  5
270F
330
2705
100
AcDbEntity
  8
0
 62
     5
100
AcDbBlockBegin
  2
*D21
 70
     1
 10
0.0
 20
0.0
 30
0.0
  3
*D21
  1

  0
LINE
  5
2E4F
330
2705
100
AcDbEntity
  8
寸法
 62
     0
370
    -2
100
AcDbLine
 10
493.199364741863
 20
186.9916574745984
 30
0.0
 11
493.199364741863
 21
201.7916574745982
 31
0.0
  0
LINE
  5
2E50
330
2705
100
AcDbEntity
  8
寸法
 62
     0
370
    -2
100
AcDbLine
 10
485.579364741863
 20
186.9916574745982
 30
0.0
 11
485.579364741863
 21
201.7916574745982
 31
0.0
  0
LINE
  5
2E51
330
2705
100
AcDbEntity
  8
寸法
 62
     0
370
    -2
100
AcDbLine
 10
491.199364741863
 20
200.7916574745982
 30
0.0
 11
487.579364741863
 21
200.7916574745982
 31
0.0
  0
SOLID
  5
2E52
330
2705
100
AcDbEntity
  8
寸法
 62
     0
100
AcDbTrace
 10
491.199364741863
 20
201.1249908079316
 30
0.0
 11
491.199364741863
 21
200.4583241412649
 31
0.0
 12
493.199364741863
 22
200.7916574745982
 32
0.0
 13
493.199364741863
 23
200.7916574745982
 33
0.0
  0
SOLID
  5
2E53
330
2705
100
AcDbEntity
  8
寸法
 62
     0
100
AcDbTrace
 10
487.579364741863
 20
201.1249908079316
 30
0.0
 11
487.579364741863
 21
200.4583241412649
 31
0.0
 12
485.579364741863
 22
200.7916574745982
 32
0.0
 13
485.579364741863
 23
200.7916574745982
 33
0.0
  0
MTEXT
  5
2E54
330
2705
100
AcDbEntity
  8
寸法
 62
     0
100
AcDbMText
 10
489.389364741863
 20
201.8916574745982
 30
0.0
 40
1.399999999999999
 41
0.0
 71
     5
 72
     1
  1
7.62
 73
     1
 44
1.0
  0
POINT
  5
2E55
330
2705
100
AcDbEntity
  8
Defpoints
 62
     0
100
AcDbPoint
 10
493.199364741863
 20
186.5916574745984
 30
0.0
  0
POINT
  5
2E56
330
2705
100
AcDbEntity
  8
Defpoints
 62
     0
100
AcDbPoint
 10
485.579364741863
 20
186.5916574745982
 30
0.0
  0
POINT
  5
2E57
330
2705
100
AcDbEntity
  8
Defpoints
 62
     0
100
AcDbPoint
 10
485.579364741863
 20
200.7916574745982
 30
0.0
  0
ENDBLK
  5
2710
330
2705
100
AcDbEntity
  8
0
 62
     5
100
AcDbBlockEnd
  0
BLOCK
  5
2749
330
273F
100
AcDbEntity
  8
0
 62
     5
100
AcDbBlockBegin
  2
*D22
 70
     1
 10
0.0
 20
0.0
 30
0.0
  3
*D22
  1

  0
LINE
  5
2EAE
330
273F
100
AcDbEntity
  8
寸法
 62
     0
370
    -2
100
AcDbLine
 10
495.739364741863
 20
189.1916574745982
 30
0.0
 11
495.739364741863
 21
195.7916574745982
 31
0.0
  0
LINE
  5
2EAF
330
273F
100
AcDbEntity
  8
寸法
 62
     0
370
    -2
100
AcDbLine
 10
493.199364741863
 20
186.9916574745982
 30
0.0
 11
493.199364741863
 21
195.7916574745982
 31
0.0
  0
LINE
  5
2EB0
330
273F
100
AcDbEntity
  8
寸法
 62
     0
370
    -2
100
AcDbLine
 10
497.7393647418629
 20
194.7916574745982
 30
0.0
 11
499.739364741863
 21
194.7916574745982
 31
0.0
  0
LINE
  5
2EB1
330
273F
100
AcDbEntity
  8
寸法
 62
     0
370
    -2
100
AcDbLine
 10
491.199364741863
 20
194.7916574745982
 30
0.0
 11
489.199364741863
 21
194.7916574745982
 31
0.0
  0
MTEXT
  5
2EB2
330
273F
100
AcDbEntity
  8
寸法
 62
     0
100
AcDbMText
 10
496.1422087403273
 20
196.0527714028537
 30
0.0
 40
1.399999999999999
 41
0.0
 71
     5
 72
     1
  1
2.54
 73
     1
 44
1.0
  0
LINE
  5
2EB3
330
273F
100
AcDbEntity
  8
寸法
 62
     0
370
    -2
100
AcDbLine
 10
495.739364741863
 20
194.7916574745982
 30
0.0
 11
493.199364741863
 21
194.7916574745982
 31
0.0
  0
SOLID
  5
2EB4
330
273F
100
AcDbEntity
  8
寸法
 62
     0
100
AcDbTrace
 10
497.7393647418629
 20
195.1249908079315
 30
0.0
 11
497.7393647418629
 21
194.4583241412649
 31
0.0
 12
495.739364741863
 22
194.7916574745982
 32
0.0
 13
495.739364741863
 23
194.7916574745982
 33
0.0
  0
SOLID
  5
2EB5
330
273F
100
AcDbEntity
  8
寸法
 62
     0
100
AcDbTrace
 10
491.199364741863
 20
195.1249908079315
 30
0.0
 11
491.199364741863
 21
194.4583241412649
 31
0.0
 12
493.199364741863
 22
194.7916574745982
 32
0.0
 13
493.199364741863
 23
194.7916574745982
 33
0.0
  0
POINT
  5
2EB6
330
273F
100
AcDbEntity
  8
Defpoints
 62
     0
100
AcDbPoint
 10
495.739364741863
 20
188.7916574745982
 30
0.0
  0
POINT
  5
2EB7
330
273F
100
AcDbEntity
  8
Defpoints
 62
     0
100
AcDbPoint
 10
493.199364741863
 20
186.5916574745982
 30
0.0
  0
POINT
  5
2EB8
330
273F
100
AcDbEntity
  8
Defpoints
 62
     0
100
AcDbPoint
 10
493.199364741863
 20
194.7916574745982
 30
0.0
  0
ENDBLK
  5
274A
330
273F
100
AcDbEntity
  8
0
 62
     5
100
AcDbBlockEnd
  0
BLOCK
  5
2787
330
277D
100
AcDbEntity
  8
0
 62
     5
100
AcDbBlockBegin
  2
*D23
 70
     1
 10
0.0
 20
0.0
 30
0.0
  3
*D23
  1

  0
LINE
  5
2DDF
330
277D
100
AcDbEntity
  8
寸法
 62
     0
370
    -2
100
AcDbLine
 10
500.2393647418628
 20
181.7916574745982
 30
0.0
 11
500.2393647418628
 21
174.9929816379808
 31
0.0
  0
LINE
  5
2DE0
330
277D
100
AcDbEntity
  8
寸法
 62
     0
370
    -2
100
AcDbLine
 10
495.7393647418628
 20
181.5916574745983
 30
0.0
 11
495.7393647418628
 21
174.9929816379808
 31
0.0
  0
LINE
  5
2DE1
330
277D
100
AcDbEntity
  8
寸法
 62
     0
370
    -2
100
AcDbLine
 10
502.2393647418629
 20
175.9929816379808
 30
0.0
 11
504.2393647418628
 21
175.9929816379808
 31
0.0
  0
LINE
  5
2DE2
330
277D
100
AcDbEntity
  8
寸法
 62
     0
370
    -2
100
AcDbLine
 10
493.7393647418629
 20
175.9929816379808
 30
0.0
 11
491.7393647418628
 21
175.9929816379808
 31
0.0
  0
LINE
  5
2DE3
330
277D
100
AcDbEntity
  8
寸法
 62
     0
370
    -2
100
AcDbLine
 10
500.2393647418628
 20
175.9929816379808
 30
0.0
 11
495.7393647418628
 21
175.9929816379808
 31
0.0
  0
SOLID
  5
2DE4
330
277D
100
AcDbEntity
  8
寸法
 62
     0
100
AcDbTrace
 10
502.2393647418629
 20
176.3263149713141
 30
0.0
 11
502.2393647418629
 21
175.6596483046475
 31
0.0
 12
500.2393647418628
 22
175.9929816379808
 32
0.0
 13
500.2393647418628
 23
175.9929816379808
 33
0.0
  0
SOLID
  5
2DE5
330
277D
100
AcDbEntity
  8
寸法
 62
     0
100
AcDbTrace
 10
493.7393647418629
 20
176.3263149713141
 30
0.0
 11
493.7393647418629
 21
175.6596483046475
 31
0.0
 12
495.7393647418628
 22
175.9929816379808
 32
0.0
 13
495.7393647418628
 23
175.9929816379808
 33
0.0
  0
MTEXT
  5
2DE6
330
277D
100
AcDbEntity
  8
寸法
 62
     0
100
AcDbMText
 10
497.9893647418628
 20
177.0929816379808
 30
0.0
 40
1.399999999999999
 41
0.0
 71
     5
 72
     1
  1
4.5
 73
     1
 44
1.0
  0
POINT
  5
2DE7
330
277D
100
AcDbEntity
  8
Defpoints
 62
     0
100
AcDbPoint
 10
500.2393647418628
 20
182.1916574745982
 30
0.0
  0
POINT
  5
2DE8
330
277D
100
AcDbEntity
  8
Defpoints
 62
     0
100
AcDbPoint
 10
495.7393647418628
 20
181.9916574745983
 30
0.0
  0
POINT
  5
2DE9
330
277D
100
AcDbEntity
  8
Defpoints
 62
     0
100
AcDbPoint
 10
495.7393647418628
 20
175.9929816379808
 30
0.0
  0
ENDBLK
  5
2788
330
277D
100
AcDbEntity
  8
0
 62
     5
100
AcDbBlockEnd
  0
BLOCK
  5
2B62
330
2B58
100
AcDbEntity
  8
0
 62
     5
100
AcDbBlockBegin
  2
*D24
 70
     1
 10
0.0
 20
0.0
 30
0.0
  3
*D24
  1

  0
LINE
  5
2B59
330
2B58
100
AcDbEntity
  8
寸法
 62
     0
370
    -2
100
AcDbLine
 10
509.3393647418627
 20
291.2474570709879
 30
0.0
 11
515.9347463906247
 21
291.2474570709879
 31
0.0
  0
LINE
  5
2B5A
330
2B58
100
AcDbEntity
  8
寸法
 62
     0
370
    -2
100
AcDbLine
 10
509.3393647418629
 20
277.247457070988
 30
0.0
 11
515.9347463906247
 21
277.247457070988
 31
0.0
  0
LINE
  5
2B5B
330
2B58
100
AcDbEntity
  8
寸法
 62
     0
370
    -2
100
AcDbLine
 10
514.9347463906248
 20
289.2474570709879
 30
0.0
 11
514.9347463906248
 21
279.247457070988
 31
0.0
  0
SOLID
  5
2B5C
330
2B58
100
AcDbEntity
  8
寸法
 62
     0
100
AcDbTrace
 10
514.6014130572914
 20
289.2474570709879
 30
0.0
 11
515.2680797239582
 21
289.2474570709879
 31
0.0
 12
514.9347463906248
 22
291.2474570709879
 32
0.0
 13
514.9347463906248
 23
291.2474570709879
 33
0.0
  0
SOLID
  5
2B5D
330
2B58
100
AcDbEntity
  8
寸法
 62
     0
100
AcDbTrace
 10
514.6014130572914
 20
279.247457070988
 30
0.0
 11
515.2680797239582
 21
279.247457070988
 31
0.0
 12
514.9347463906248
 22
277.247457070988
 32
0.0
 13
514.9347463906248
 23
277.247457070988
 33
0.0
  0
MTEXT
  5
2B5E
330
2B58
100
AcDbEntity
  8
寸法
 62
     0
100
AcDbMText
 10
513.8347463906247
 20
284.247457070988
 30
0.0
 40
1.399999999999999
 41
0.0
 71
     5
 72
     1
  1
14
 11
0.0000000000000001
 21
1.0
 31
0.0
 73
     1
 44
1.0
  0
POINT
  5
2B5F
330
2B58
100
AcDbEntity
  8
Defpoints
 62
     0
100
AcDbPoint
 10
508.9393647418628
 20
291.2474570709879
 30
0.0
  0
POINT
  5
2B60
330
2B58
100
AcDbEntity
  8
Defpoints
 62
     0
100
AcDbPoint
 10
508.939364741863
 20
277.247457070988
 30
0.0
  0
POINT
  5
2B61
330
2B58
100
AcDbEntity
  8
Defpoints
 62
     0
100
AcDbPoint
 10
514.9347463906248
 20
277.247457070988
 30
0.0
  0
ENDBLK
  5
2B63
330
2B58
100
AcDbEntity
  8
0
 62
     5
100
AcDbBlockEnd
  0
BLOCK
  5
2BA8
330
2B9E
100
AcDbEntity
  8
0
 62
     5
100
AcDbBlockBegin
  2
*D25
 70
     1
 10
0.0
 20
0.0
 30
0.0
  3
*D25
  1

  0
LINE
  5
2B9F
330
2B9E
100
AcDbEntity
  8
寸法
 62
     0
370
    -2
100
AcDbLine
 10
485.5793647418629
 20
272.347457070988
 30
0.0
 11
485.5793647418629
 21
265.7865357907166
 31
0.0
  0
LINE
  5
2BA0
330
2B9E
100
AcDbEntity
  8
寸法
 62
     0
370
    -2
100
AcDbLine
 10
493.1993647418629
 20
272.347457070988
 30
0.0
 11
493.1993647418629
 21
265.7865357907166
 31
0.0
  0
LINE
  5
2BA1
330
2B9E
100
AcDbEntity
  8
寸法
 62
     0
370
    -2
100
AcDbLine
 10
487.5793647418629
 20
266.7865357907166
 30
0.0
 11
491.1993647418629
 21
266.7865357907166
 31
0.0
  0
SOLID
  5
2BA2
330
2B9E
100
AcDbEntity
  8
寸法
 62
     0
100
AcDbTrace
 10
487.5793647418629
 20
267.1198691240499
 30
0.0
 11
487.5793647418629
 21
266.4532024573833
 31
0.0
 12
485.5793647418629
 22
266.7865357907166
 32
0.0
 13
485.5793647418629
 23
266.7865357907166
 33
0.0
  0
SOLID
  5
2BA3
330
2B9E
100
AcDbEntity
  8
寸法
 62
     0
100
AcDbTrace
 10
491.1993647418629
 20
267.1198691240499
 30
0.0
 11
491.1993647418629
 21
266.4532024573833
 31
0.0
 12
493.1993647418629
 22
266.7865357907166
 32
0.0
 13
493.1993647418629
 23
266.7865357907166
 33
0.0
  0
MTEXT
  5
2BA4
330
2B9E
100
AcDbEntity
  8
寸法
 62
     0
100
AcDbMText
 10
489.3893647418629
 20
267.8865357907166
 30
0.0
 40
1.399999999999999
 41
0.0
 71
     5
 72
     1
  1
7.62
 73
     1
 44
1.0
  0
POINT
  5
2BA5
330
2B9E
100
AcDbEntity
  8
Defpoints
 62
     0
100
AcDbPoint
 10
485.5793647418629
 20
272.7474570709879
 30
0.0
  0
POINT
  5
2BA6
330
2B9E
100
AcDbEntity
  8
Defpoints
 62
     0
100
AcDbPoint
 10
493.1993647418629
 20
272.7474570709879
 30
0.0
  0
POINT
  5
2BA7
330
2B9E
100
AcDbEntity
  8
Defpoints
 62
     0
100
AcDbPoint
 10
493.1993647418629
 20
266.7865357907166
 30
0.0
  0
ENDBLK
  5
2BA9
330
2B9E
100
AcDbEntity
  8
0
 62
     5
100
AcDbBlockEnd
  0
BLOCK
  5
2C29
330
2C27
100
AcDbEntity
  8
0
 62
     5
100
AcDbBlockBegin
  2
_DotSmall
 70
     0
 10
0.0
 20
0.0
 30
0.0
  3
_DotSmall
  1

  0
LWPOLYLINE
  5
2C28
330
2C27
100
AcDbEntity
  8
0
  6
ByBlock
 62
     0
100
AcDbPolyline
 90
        2
 70
     1
 43
0.5
 10
-0.0625
 20
0.0
 42
1.0
 10
0.0625
 20
0.0
 42
1.0
  0
ENDBLK
  5
2C2A
330
2C27
100
AcDbEntity
  8
0
 62
     5
100
AcDbBlockEnd
  0
BLOCK
  5
2D61
330
2D5D
100
AcDbEntity
  8
0
 62
     5
100
AcDbBlockBegin
  2
_Open
 70
     0
 10
0.0
 20
0.0
 30
0.0
  3
_Open
  1

  0
LINE
  5
2D5E
330
2D5D
100
AcDbEntity
  8
0
  6
ByBlock
 62
     0
370
    -2
100
AcDbLine
 10
-1.0
 20
0.1666666666666666
 30
0.0
 11
0.0
 21
0.0
 31
0.0
  0
LINE
  5
2D5F
330
2D5D
100
AcDbEntity
  8
0
  6
ByBlock
 62
     0
370
    -2
100
AcDbLine
 10
-1.0
 20
-0.1666666666666666
 30
0.0
 11
0.0
 21
0.0
 31
0.0
  0
LINE
  5
2D60
330
2D5D
100
AcDbEntity
  8
0
  6
ByBlock
 62
     0
370
    -2
100
AcDbLine
 10
0.0
 20
0.0
 30
0.0
 11
-1.0
 21
0.0
 31
0.0
  0
ENDBLK
  5
2D62
330
2D5D
100
AcDbEntity
  8
0
 62
     5
100
AcDbBlockEnd
  0
BLOCK
  5
2D98
330
2D8E
100
AcDbEntity
  8
0
 62
     5
100
AcDbBlockBegin
  2
*D28
 70
     1
 10
0.0
 20
0.0
 30
0.0
  3
*D28
  1

  0
LINE
  5
2DEA
330
2D8E
100
AcDbEntity
  8
寸法
 62
     0
370
    -2
100
AcDbLine
 10
489.2393647418628
 20
181.7916574745984
 30
0.0
 11
489.2393647418628
 21
174.9929816379808
 31
0.0
  0
LINE
  5
2DEB
330
2D8E
100
AcDbEntity
  8
寸法
 62
     0
370
    -2
100
AcDbLine
 10
495.7393647418628
 20
181.5916574745983
 30
0.0
 11
495.7393647418628
 21
174.9929816379808
 31
0.0
  0
LINE
  5
2DEC
330
2D8E
100
AcDbEntity
  8
寸法
 62
     0
370
    -2
100
AcDbLine
 10
491.2393647418628
 20
175.9929816379808
 30
0.0
 11
493.7393647418629
 21
175.9929816379808
 31
0.0
  0
SOLID
  5
2DED
330
2D8E
100
AcDbEntity
  8
寸法
 62
     0
100
AcDbTrace
 10
491.2393647418628
 20
176.3263149713141
 30
0.0
 11
491.2393647418628
 21
175.6596483046475
 31
0.0
 12
489.2393647418628
 22
175.9929816379808
 32
0.0
 13
489.2393647418628
 23
175.9929816379808
 33
0.0
  0
SOLID
  5
2DEE
330
2D8E
100
AcDbEntity
  8
寸法
 62
     0
100
AcDbTrace
 10
493.7393647418629
 20
176.3263149713141
 30
0.0
 11
493.7393647418629
 21
175.6596483046475
 31
0.0
 12
495.7393647418628
 22
175.9929816379808
 32
0.0
 13
495.7393647418628
 23
175.9929816379808
 33
0.0
  0
MTEXT
  5
2DEF
330
2D8E
100
AcDbEntity
  8
寸法
 62
     0
100
AcDbMText
 10
492.4893647418628
 20
177.0929816379808
 30
0.0
 40
1.399999999999999
 41
0.0
 71
     5
 72
     1
  1
6.5
 73
     1
 44
1.0
  0
POINT
  5
2DF0
330
2D8E
100
AcDbEntity
  8
Defpoints
 62
     0
100
AcDbPoint
 10
489.2393647418628
 20
182.1916574745984
 30
0.0
  0
POINT
  5
2DF1
330
2D8E
100
AcDbEntity
  8
Defpoints
 62
     0
100
AcDbPoint
 10
495.7393647418628
 20
181.9916574745983
 30
0.0
  0
POINT
  5
2DF2
330
2D8E
100
AcDbEntity
  8
Defpoints
 62
     0
100
AcDbPoint
 10
495.7393647418628
 20
175.9929816379808
 30
0.0
  0
ENDBLK
  5
2D99
330
2D8E
100
AcDbEntity
  8
0
 62
     5
100
AcDbBlockEnd
  0
BLOCK
  5
2DBD
330
2DB1
100
AcDbEntity
  8
0
 62
     5
100
AcDbBlockBegin
  2
*D29
 70
     1
 10
0.0
 20
0.0
 30
0.0
  3
*D29
  1

  0
LINE
  5
2DD4
330
2DB1
100
AcDbEntity
  8
寸法
 62
     0
370
    -2
100
AcDbLine
 10
509.6767233397335
 20
185.3916574745982
 30
0.0
 11
516.2753285542923
 21
185.3916574745982
 31
0.0
  0
LINE
  5
2DD5
330
2DB1
100
AcDbEntity
  8
寸法
 62
     0
370
    -2
100
AcDbLine
 10
509.6767233397335
 20
183.8916574745982
 30
0.0
 11
516.2753285542923
 21
183.8916574745982
 31
0.0
  0
LINE
  5
2DD6
330
2DB1
100
AcDbEntity
  8
寸法
 62
     0
370
    -2
100
AcDbLine
 10
515.2753285542924
 20
185.3916574745982
 30
0.0
 11
515.2753285542924
 21
187.3916574745982
 31
0.0
  0
LINE
  5
2DD7
330
2DB1
100
AcDbEntity
  8
寸法
 62
     0
370
    -2
100
AcDbLine
 10
515.2753285542924
 20
181.8916574745982
 30
0.0
 11
515.2753285542924
 21
176.7583241412648
 31
0.0
  0
LINE
  5
2DD8
330
2DB1
100
AcDbEntity
  8
寸法
 62
     0
370
    -2
100
AcDbLine
 10
515.2753285542924
 20
185.3916574745982
 30
0.0
 11
515.2753285542924
 21
183.8916574745982
 31
0.0
  0
INSERT
  5
2DD9
330
2DB1
100
AcDbEntity
  8
寸法
 62
     0
370
    -2
100
AcDbBlockReference
  2
_DotSmall
 10
515.2753285542924
 20
185.3916574745982
 30
0.0
 41
2.0
 42
2.0
 43
2.0
 50
270.0
  0
SOLID
  5
2DDA
330
2DB1
100
AcDbEntity
  8
寸法
 62
     0
100
AcDbTrace
 10
514.941995220959
 20
181.8916574745982
 30
0.0
 11
515.6086618876257
 21
181.8916574745982
 31
0.0
 12
515.2753285542924
 22
183.8916574745982
 32
0.0
 13
515.2753285542924
 23
183.8916574745982
 33
0.0
  0
MTEXT
  5
2DDB
330
2DB1
100
AcDbEntity
  8
寸法
 62
     0
100
AcDbMText
 10
514.1753285542923
 20
178.3249908079316
 30
0.0
 40
1.399999999999999
 41
0.0
 71
     5
 72
     1
  1
1.5
 11
0.0000000000000001
 21
1.0
 31
0.0
 73
     1
 44
1.0
  0
POINT
  5
2DDC
330
2DB1
100
AcDbEntity
  8
Defpoints
 62
     0
100
AcDbPoint
 10
509.2767233397335
 20
185.3916574745982
 30
0.0
  0
POINT
  5
2DDD
330
2DB1
100
AcDbEntity
  8
Defpoints
 62
     0
100
AcDbPoint
 10
509.2767233397335
 20
183.8916574745982
 30
0.0
  0
POINT
  5
2DDE
330
2DB1
100
AcDbEntity
  8
Defpoints
 62
     0
100
AcDbPoint
 10
515.2753285542924
 20
183.8916574745982
 30
0.0
  0
ENDBLK
  5
2DBE
330
2DB1
100
AcDbEntity
  8
0
 62
     5
100
AcDbBlockEnd
  0
BLOCK
  5
2EC7
330
2EBD
100
AcDbEntity
  8
0
 62
     5
100
AcDbBlockBegin
  2
*D30
 70
     1
 10
0.0
 20
0.0
 30
0.0
  3
*D30
  1

  0
LINE
  5
2EBE
330
2EBD
100
AcDbEntity
  8
寸法
 62
     0
370
    -2
100
AcDbLine
 10
482.5393647418628
 20
237.1048219356897
 30
0.0
 11
482.5393647418628
 21
243.4319830865522
 31
0.0
  0
LINE
  5
2EBF
330
2EBD
100
AcDbEntity
  8
寸法
 62
     0
370
    -2
100
AcDbLine
 10
489.2393647418628
 20
236.9048219356896
 30
0.0
 11
489.2393647418628
 21
243.4319830865522
 31
0.0
  0
LINE
  5
2EC0
330
2EBD
100
AcDbEntity
  8
寸法
 62
     0
370
    -2
100
AcDbLine
 10
484.5393647418628
 20
242.4319830865522
 30
0.0
 11
487.2393647418628
 21
242.4319830865522
 31
0.0
  0
SOLID
  5
2EC1
330
2EBD
100
AcDbEntity
  8
寸法
 62
     0
100
AcDbTrace
 10
484.5393647418628
 20
242.7653164198855
 30
0.0
 11
484.5393647418628
 21
242.0986497532188
 31
0.0
 12
482.5393647418628
 22
242.4319830865522
 32
0.0
 13
482.5393647418628
 23
242.4319830865522
 33
0.0
  0
SOLID
  5
2EC2
330
2EBD
100
AcDbEntity
  8
寸法
 62
     0
100
AcDbTrace
 10
487.2393647418628
 20
242.7653164198855
 30
0.0
 11
487.2393647418628
 21
242.0986497532188
 31
0.0
 12
489.2393647418628
 22
242.4319830865522
 32
0.0
 13
489.2393647418628
 23
242.4319830865522
 33
0.0
  0
MTEXT
  5
2EC3
330
2EBD
100
AcDbEntity
  8
寸法
 62
     0
100
AcDbMText
 10
485.8893647418629
 20
243.5319830865522
 30
0.0
 40
1.399999999999999
 41
0.0
 71
     5
 72
     1
  1
6.7
 73
     1
 44
1.0
  0
POINT
  5
2EC4
330
2EBD
100
AcDbEntity
  8
Defpoints
 62
     0
100
AcDbPoint
 10
482.5393647418628
 20
236.7048219356897
 30
0.0
  0
POINT
  5
2EC5
330
2EBD
100
AcDbEntity
  8
Defpoints
 62
     0
100
AcDbPoint
 10
489.2393647418628
 20
236.5048219356896
 30
0.0
  0
POINT
  5
2EC6
330
2EBD
100
AcDbEntity
  8
Defpoints
 62
     0
100
AcDbPoint
 10
489.2393647418628
 20
242.4319830865522
 30
0.0
  0
ENDBLK
  5
2EC8
330
2EBD
100
AcDbEntity
  8
0
 62
     5
100
AcDbBlockEnd
  0
BLOCK
  5
2EE8
330
2EDC
100
AcDbEntity
  8
0
 62
     5
100
AcDbBlockBegin
  2
*D31
 70
     1
 10
0.0
 20
0.0
 30
0.0
  3
*D31
  1

  0
LINE
  5
2EDD
330
2EDC
100
AcDbEntity
  8
寸法
 62
     0
370
    -2
100
AcDbLine
 10
509.6767233397335
 20
234.8048219356897
 30
0.0
 11
517.3122088835309
 21
234.8048219356897
 31
0.0
  0
LINE
  5
2EDE
330
2EDC
100
AcDbEntity
  8
寸法
 62
     0
370
    -2
100
AcDbLine
 10
510.7905090014845
 20
233.3048219356897
 30
0.0
 11
517.3122088835309
 21
233.3048219356897
 31
0.0
  0
LINE
  5
2EDF
330
2EDC
100
AcDbEntity
  8
寸法
 62
     0
370
    -2
100
AcDbLine
 10
516.3122088835309
 20
236.8048219356897
 30
0.0
 11
516.3122088835309
 21
238.8048219356897
 31
0.0
  0
LINE
  5
2EE0
330
2EDC
100
AcDbEntity
  8
寸法
 62
     0
370
    -2
100
AcDbLine
 10
516.3122088835309
 20
231.3048219356897
 30
0.0
 11
516.3122088835309
 21
226.1714886023564
 31
0.0
  0
LINE
  5
2EE1
330
2EDC
100
AcDbEntity
  8
寸法
 62
     0
370
    -2
100
AcDbLine
 10
516.3122088835309
 20
234.8048219356897
 30
0.0
 11
516.3122088835309
 21
233.3048219356897
 31
0.0
  0
SOLID
  5
2EE2
330
2EDC
100
AcDbEntity
  8
寸法
 62
     0
100
AcDbTrace
 10
515.9788755501976
 20
236.8048219356897
 30
0.0
 11
516.6455422168643
 21
236.8048219356897
 31
0.0
 12
516.3122088835309
 22
234.8048219356897
 32
0.0
 13
516.3122088835309
 23
234.8048219356897
 33
0.0
  0
SOLID
  5
2EE3
330
2EDC
100
AcDbEntity
  8
寸法
 62
     0
100
AcDbTrace
 10
515.9788755501976
 20
231.3048219356897
 30
0.0
 11
516.6455422168643
 21
231.3048219356897
 31
0.0
 12
516.3122088835309
 22
233.3048219356897
 32
0.0
 13
516.3122088835309
 23
233.3048219356897
 33
0.0
  0
MTEXT
  5
2EE4
330
2EDC
100
AcDbEntity
  8
寸法
 62
     0
100
AcDbMText
 10
515.2122088835309
 20
227.7381552690231
 30
0.0
 40
1.399999999999999
 41
0.0
 71
     5
 72
     1
  1
1.5
 11
0.0000000000000001
 21
1.0
 31
0.0
 73
     1
 44
1.0
  0
POINT
  5
2EE5
330
2EDC
100
AcDbEntity
  8
Defpoints
 62
     0
100
AcDbPoint
 10
509.2767233397335
 20
234.8048219356897
 30
0.0
  0
POINT
  5
2EE6
330
2EDC
100
AcDbEntity
  8
Defpoints
 62
     0
100
AcDbPoint
 10
510.3905090014846
 20
233.3048219356897
 30
0.0
  0
POINT
  5
2EE7
330
2EDC
100
AcDbEntity
  8
Defpoints
 62
     0
100
AcDbPoint
 10
516.3122088835309
 20
233.3048219356897
 30
0.0
  0
ENDBLK
  5
2EE9
330
2EDC
100
AcDbEntity
  8
0
 62
     5
100
AcDbBlockEnd
  0
ENDSEC
  0
SECTION
  2
ENTITIES
  0
MTEXT
  5
F7
330
1F
100
AcDbEntity
  8
外形
100
AcDbMText
 10
454.6419551817544
 20
340.0069887520238
 30
0.0
 40
5.0
 41
32.68417787005924
 71
     5
 72
     5
  1
{\fMS UI Gothic|b0|i0|c128|p17;外形寸法}
 73
     1
 44
1.0
  0
LINE
  5
44F
330
1F
100
AcDbEntity
  8
外形
100
AcDbLine
 10
482.5393647418628
 20
291.2474570709879
 30
0.0
 11
482.5393647418628
 21
277.2474570709881
 31
0.0
  0
LINE
  5
450
330
1F
100
AcDbEntity
  8
外形
100
AcDbLine
 10
508.9393647418628
 20
291.2474570709879
 30
0.0
 11
508.939364741863
 21
277.247457070988
 31
0.0
  0
LINE
  5
4EC
102
{ACAD_REACTORS
330
201A
102
}
330
1F
100
AcDbEntity
  8
外形
100
AcDbLine
 10
484.0393647418629
 20
277.2474570709881
 30
0.0
 11
482.539364741863
 21
277.2474570709881
 31
0.0
  0
DIMENSION
  5
53A
330
1F
100
AcDbEntity
  8
寸法
 62
     5
100
AcDbDimension
  2
*D0
 10
503.3593647418629
 20
266.7865357907166
 30
0.0
 11
498.2793647418629
 21
267.8865357907166
 31
0.0
 70
    32
 71
     5
 42
10.16000000000002
  3
ISO-25
100
AcDbAlignedDimension
 13
493.1993647418629
 23
272.7474570709879
 33
0.0
 14
503.3593647418629
 24
272.7474570709879
 34
0.0
100
AcDbRotatedDimension
  0
DIMENSION
  5
53B
330
1F
100
AcDbEntity
  8
寸法
 62
     5
100
AcDbDimension
  2
*D1
 10
505.8993647418629
 20
266.7865357907166
 30
0.0
 11
504.629364741863
 21
266.7865357907166
 31
0.0
 70
   160
 71
     5
 42
2.54000000000002
  3
ISO-25
100
AcDbAlignedDimension
 13
503.3593647418629
 23
272.7474570709879
 33
0.0
 14
505.8993647418629
 24
272.7474570709879
 34
0.0
100
AcDbRotatedDimension
1001
ACAD
1000
DSTYLE
1002
{
1070
   344
1005
22BD
1070
   173
1070
     1
1070
   343
1005
0
1002
}
  0
LINE
  5
584
330
1F
100
AcDbEntity
  8
外形
100
AcDbLine
 10
507.4393647418629
 20
277.247457070988
 30
0.0
 11
507.4393647418629
 21
277.547457070988
 31
0.0
  0
LINE
  5
585
330
1F
100
AcDbEntity
  8
外形
100
AcDbLine
 10
507.4393647418629
 20
277.247457070988
 30
0.0
 11
508.9393647418628
 21
277.247457070988
 31
0.0
  0
MTEXT
  5
65D
330
1F
100
AcDbEntity
  8
寸法
 62
     5
100
AcDbMText
 10
514.8640762879828
 20
197.2535041737929
 30
0.0
 40
1.399999999999999
 41
0.0
 71
     8
 72
     1
  1
{\fMS UI Gothic|b0|i0|c128|p17;4-φ1}
 73
     2
 44
1.0
  0
MTEXT
  5
1255
330
1F
100
AcDbEntity
  8
外形
100
AcDbMText
 10
475.3357724122925
 20
216.827189250876
 30
0.0
 40
5.0
 41
75.1995195893545
 71
     5
 72
     5
  1
{\fMS UI Gothic|b0|i0|c128|p17;部品面からの基板穴加工}
 73
     1
 44
1.0
  0
LINE
  5
1327
330
1F
100
AcDbEntity
  8
外形
  6
CENTER
 62
     1
 48
0.08
100
AcDbLine
 10
495.7393647418631
 20
270.2194496632121
 30
0.0
 11
495.7393647418628
 21
310.3474570709881
 31
0.0
  0
LINE
  5
136E
330
1F
100
AcDbEntity
  8
外形
  6
CENTER
 62
     1
 48
0.08
100
AcDbLine
 10
493.1993647418629
 20
272.7474570709879
 30
0.0
 11
493.1993647418629
 21
278.2692029545883
 31
0.0
  0
LINE
  5
1394
102
{ACAD_REACTORS
330
201A
102
}
330
1F
100
AcDbEntity
  8
外形
100
AcDbLine
 10
484.0393647418633
 20
278.727457070988
 30
0.0
 11
484.0393647418629
 21
277.2474570709881
 31
0.0
  0
LINE
  5
139C
330
1F
100
AcDbEntity
  8
外形
  6
CENTER
 62
     1
 48
0.08
100
AcDbLine
 10
485.5793647418629
 20
272.7474570709879
 30
0.0
 11
485.5793647418629
 21
292.8812577256733
 31
0.0
  0
LINE
  5
13DE
330
1F
100
AcDbEntity
  8
外形
  6
CENTER
 62
     1
 48
0.08
100
AcDbLine
 10
503.3593647418629
 20
272.7474570709879
 30
0.0
 11
503.3593647418629
 21
278.2692029545883
 31
0.0
  0
LINE
  5
13DF
330
1F
100
AcDbEntity
  8
外形
100
AcDbLine
 10
502.959364741863
 20
277.0267463928695
 30
0.0
 11
502.959364741863
 21
274.047457070988
 31
0.0
  0
LINE
  5
13E0
330
1F
100
AcDbEntity
  8
外形
100
AcDbLine
 10
503.7593647418631
 20
277.0267463928695
 30
0.0
 11
503.759364741863
 21
274.047457070988
 31
0.0
  0
LINE
  5
13E1
330
1F
100
AcDbEntity
  8
外形
100
AcDbLine
 10
503.4593647418629
 20
273.7474570709879
 30
0.0
 11
503.2593647418631
 21
273.7474570709879
 31
0.0
  0
DIMENSION
  5
1470
330
1F
100
AcDbEntity
  8
寸法
 62
     5
100
AcDbDimension
  2
*D2
 10
493.5993647418629
 20
274.7670593766847
 30
0.0
 11
499.2826980751963
 21
274.7670593766847
 31
0.0
 70
   160
 71
     5
 42
0.7999999999999546
  3
ISO-25
100
AcDbAlignedDimension
 13
492.7993647418629
 23
275.174416567688
 33
0.0
 14
493.5993647418629
 24
275.174416567688
 34
0.0
100
AcDbRotatedDimension
1001
ACAD
1000
DSTYLE
1002
{
1070
    76
1070
     1
1070
    75
1070
     1
1002
}
  0
MTEXT
  5
14AB
330
1F
100
AcDbEntity
  8
外形
100
AcDbMText
 10
487.3762792824603
 20
273.2692029545883
 30
0.0
 40
1.399999999999999
 41
0.5
 71
     5
 72
     5
  1
{\fＭＳ ゴシック|b0|i0|c128|p49;1}
 73
     1
 44
1.0
  0
MTEXT
  5
14AD
330
1F
100
AcDbEntity
  8
外形
100
AcDbMText
 10
501.7511521252465
 20
273.2692029545883
 30
0.0
 40
1.399999999999999
 41
0.5
 71
     5
 72
     5
  1
{\fＭＳ ゴシック|b0|i0|c128|p49;3}
 73
     1
 44
1.0
  0
MTEXT
  5
14AF
330
1F
100
AcDbEntity
  8
外形
100
AcDbMText
 10
504.6837699692117
 20
273.2692029545883
 30
0.0
 40
1.399999999999999
 41
0.5
 71
     5
 72
     5
  1
{\fＭＳ ゴシック|b0|i0|c128|p49;4}
 73
     1
 44
1.0
  0
LEADER
  5
154C
330
1F
100
AcDbEntity
  8
寸法
 62
     5
100
AcDbLeader
  3
ISO-25
 76
     3
 10
506.1276356506373
 20
186.2865084521262
 30
0.0
 10
511.7552417622844
 20
197.2535041737929
 30
0.0
 10
517.4938500218202
 20
197.2535041737929
 30
0.0
1001
ACAD
1000
DSTYLE
1002
{
1070
   147
1040
0.2
1070
    77
1070
     0
1002
}
  0
LINE
  5
1A13
330
1F
100
AcDbEntity
  8
外形
100
AcDbLine
 10
505.4993647418632
 20
277.0267463928695
 30
0.0
 11
505.4993647418631
 21
274.047457070988
 31
0.0
  0
LINE
  5
1A14
330
1F
100
AcDbEntity
  8
外形
100
AcDbLine
 10
506.299364741863
 20
277.0267463928695
 30
0.0
 11
506.299364741863
 21
274.047457070988
 31
0.0
  0
LINE
  5
1A15
330
1F
100
AcDbEntity
  8
外形
  6
CENTER
 62
     1
 48
0.08
100
AcDbLine
 10
505.8993647418629
 20
272.7474570709879
 30
0.0
 11
505.8993647418629
 21
278.2692029545883
 31
0.0
  0
LINE
  5
1A16
330
1F
100
AcDbEntity
  8
外形
100
AcDbLine
 10
505.999364741863
 20
273.7474570709879
 30
0.0
 11
505.7993647418631
 21
273.7474570709879
 31
0.0
  0
DIMENSION
  5
1A51
330
1F
100
AcDbEntity
  8
寸法
 62
     5
100
AcDbDimension
  2
*D3
 10
482.5393647418628
 20
266.7865357907166
 30
0.0
 11
476.1560314085295
 21
266.7865357907166
 31
0.0
 70
   160
 71
     5
 42
3.04000000000002
  3
ISO-25
100
AcDbAlignedDimension
 13
485.5793647418629
 23
272.7474570709879
 33
0.0
 14
482.5393647418628
 24
277.2474570709881
 34
0.0
100
AcDbRotatedDimension
  0
DIMENSION
  5
1AA2
330
1F
100
AcDbEntity
  8
寸法
 62
     5
100
AcDbDimension
  2
*D4
 10
508.9393647418632
 20
266.7865357907166
 30
0.0
 11
515.3226980751965
 21
266.7865357907166
 31
0.0
 70
   160
 71
     5
 42
3.04000000000002
  3
ISO-25
100
AcDbAlignedDimension
 13
505.8993647418632
 23
272.7474570709879
 33
0.0
 14
508.9393647418632
 24
277.2474570709881
 34
0.0
 50
180.0
100
AcDbRotatedDimension
1001
ACAD
1000
DSTYLE
1002
{
1070
   343
1005
2C27
1070
   173
1070
     1
1070
   344
1005
22BD
1002
}
  0
DIMENSION
  5
1ABA
330
1F
100
AcDbEntity
  8
寸法
 62
     5
100
AcDbDimension
  2
*D5
 10
508.939364741863
 20
260.7865357907166
 30
0.0
 11
495.7393647418629
 21
261.8865357907166
 31
0.0
 70
    32
 71
     5
 42
26.40000000000003
  3
ISO-25
100
AcDbAlignedDimension
 13
482.5393647418628
 23
277.2474570709881
 33
0.0
 14
508.939364741863
 24
277.247457070988
 34
0.0
100
AcDbRotatedDimension
  0
LINE
  5
1B0C
330
1F
100
AcDbEntity
  8
外形
100
AcDbLine
 10
492.7993647418629
 20
277.0267463928694
 30
0.0
 11
492.799364741863
 21
274.047457070988
 31
0.0
  0
LINE
  5
1B0D
330
1F
100
AcDbEntity
  8
外形
100
AcDbLine
 10
493.599364741863
 20
277.0267463928694
 30
0.0
 11
493.599364741863
 21
274.047457070988
 31
0.0
  0
LINE
  5
1B0E
330
1F
100
AcDbEntity
  8
外形
100
AcDbLine
 10
493.299364741863
 20
273.7474570709879
 30
0.0
 11
493.099364741863
 21
273.7474570709879
 31
0.0
  0
LINE
  5
1B25
330
1F
100
AcDbEntity
  8
外形
100
AcDbLine
 10
485.9793647418629
 20
277.0267463928693
 30
0.0
 11
485.9793647418629
 21
274.047457070988
 31
0.0
  0
LINE
  5
1B26
330
1F
100
AcDbEntity
  8
外形
100
AcDbLine
 10
485.179364741863
 20
277.0267463928693
 30
0.0
 11
485.1793647418629
 21
274.047457070988
 31
0.0
  0
LINE
  5
1B27
330
1F
100
AcDbEntity
  8
外形
100
AcDbLine
 10
485.6793647418629
 20
273.7474570709879
 30
0.0
 11
485.4793647418629
 21
273.7474570709879
 31
0.0
  0
LINE
  5
1B33
102
{ACAD_REACTORS
330
201A
102
}
330
1F
100
AcDbEntity
  8
外形
100
AcDbLine
 10
483.5393647418631
 20
277.2474570709881
 30
0.0
 11
483.5393647418631
 21
284.447457070988
 31
0.0
  0
LINE
  5
1B34
330
1F
100
AcDbEntity
  8
外形
100
AcDbLine
 10
507.9393647418628
 20
291.2474570709879
 30
0.0
 11
507.9393647418628
 21
306.6477913188647
 31
0.0
  0
LINE
  5
1B35
102
{ACAD_REACTORS
330
201A
102
}
330
1F
100
AcDbEntity
  8
外形
100
AcDbLine
 10
482.5393647418628
 20
291.2474570709879
 30
0.0
 11
484.8293647418629
 21
291.2474570709878
 31
0.0
  0
LINE
  5
1B39
330
1F
100
AcDbEntity
  8
外形
100
AcDbLine
 10
508.7393647418629
 20
291.2474570709879
 30
0.0
 11
507.9542242197941
 21
307.4409803386557
 31
0.0
  0
LINE
  5
1B3A
330
1F
100
AcDbEntity
  8
外形
100
AcDbLine
 10
482.7393647418629
 20
291.2474570709879
 30
0.0
 11
483.5245052639315
 21
307.4409803386557
 31
0.0
  0
LINE
  5
1B3B
330
1F
100
AcDbEntity
  8
外形
100
AcDbLine
 10
508.9393647418628
 20
291.2474570709884
 30
0.0
 11
508.1530917272186
 21
307.4643379980234
 31
0.0
  0
LINE
  5
1B3C
330
1F
100
AcDbEntity
  8
外形
100
AcDbLine
 10
482.5395994062637
 20
291.2571426630169
 30
0.0
 11
483.3247399283324
 21
307.4506659306848
 31
0.0
  0
LINE
  5
1B3D
330
1F
100
AcDbEntity
  8
外形
100
AcDbLine
 10
483.5393647418629
 20
306.6477913188647
 30
0.0
 11
507.9393647418628
 21
306.6477913188647
 31
0.0
  0
LINE
  5
1B3F
330
1F
100
AcDbEntity
  8
外形
100
AcDbLine
 10
495.7311954179183
 20
306.6477913188646
 30
0.0
 11
483.7406092474197
 21
307.6306262508732
 31
0.0
  0
LINE
  5
1B40
330
1F
100
AcDbEntity
  8
外形
100
AcDbLine
 10
495.7475340658073
 20
306.8471228231111
 30
0.0
 11
483.7569478953088
 21
307.8299577551196
 31
0.0
  0
ARC
  5
1B57
330
1F
100
AcDbEntity
  8
外形
100
AcDbCircle
 10
483.7242705995307
 20
307.4312947466267
 30
0.0
 40
0.2
100
AcDbArc
 50
85.31410016049518
 51
177.2241965512173
  0
ARC
  5
1B58
330
1F
100
AcDbEntity
  8
外形
100
AcDbCircle
 10
483.7242705995307
 20
307.4312947466267
 30
0.0
 40
0.4
100
AcDbArc
 50
85.31410016049518
 51
177.2241965512173
  0
LINE
  5
1B59
330
1F
100
AcDbEntity
  8
外形
100
AcDbLine
 10
495.7311954179183
 20
306.8471228231111
 30
0.0
 11
507.7217815884169
 21
307.8299577551196
 31
0.0
  0
LINE
  5
1B5A
330
1F
100
AcDbEntity
  8
外形
100
AcDbLine
 10
495.7475340658073
 20
306.6477913188646
 30
0.0
 11
507.7381202363059
 21
307.6306262508732
 31
0.0
  0
ARC
  5
1B5B
330
1F
100
AcDbEntity
  8
外形
100
AcDbCircle
 10
507.7544588841949
 20
307.4312947466267
 30
0.0
 40
0.4
100
AcDbArc
 50
4.738496904757042
 51
94.68589983950483
  0
ARC
  5
1B5C
330
1F
100
AcDbEntity
  8
外形
100
AcDbCircle
 10
507.7544588841949
 20
307.4312947466267
 30
0.0
 40
0.2
100
AcDbArc
 50
2.775803448782633
 51
94.68589983950483
  0
DIMENSION
  5
1B66
330
1F
100
AcDbEntity
  8
寸法
 62
     5
100
AcDbDimension
  2
*D6
 10
514.842356901527
 20
291.247457070988
 30
0.0
 11
513.7423569015269
 21
299.4974570709881
 31
0.0
 70
    32
 71
     5
 42
16.50000000000011
  3
ISO-25
100
AcDbAlignedDimension
 13
508.1530917272186
 23
307.7474570709881
 33
0.0
 14
508.9393647418631
 24
291.247457070988
 34
0.0
 50
90.0
100
AcDbRotatedDimension
  0
LINE
  5
1B86
102
{ACAD_REACTORS
330
201A
102
}
330
1F
100
AcDbEntity
  8
外形
100
AcDbLine
 10
483.3393647418629
 20
286.2474570709878
 30
0.0
 11
484.5793647418624
 21
286.2474570709878
 31
0.0
  0
LINE
  5
1B8A
330
1F
100
AcDbEntity
  8
外形
100
AcDbLine
 10
484.8293647418629
 20
291.2474570709881
 30
0.0
 11
484.8293647418629
 21
291.0174570709881
 31
0.0
  0
LINE
  5
1B8B
330
1F
100
AcDbEntity
  8
外形
100
AcDbLine
 10
486.3293647418628
 20
291.0174570709879
 30
0.0
 11
484.8293647418629
 21
291.0174570709879
 31
0.0
  0
LINE
  5
1B8F
330
1F
100
AcDbEntity
  8
外形
100
AcDbLine
 10
486.3293647418628
 20
291.2474570709881
 30
0.0
 11
486.3293647418628
 21
291.0174570709881
 31
0.0
  0
LINE
  5
1B90
330
1F
100
AcDbEntity
  8
外形
100
AcDbLine
 10
486.3293647418628
 20
291.2474570709879
 30
0.0
 11
508.9393647418628
 21
291.2474570709879
 31
0.0
  0
LINE
  5
1B92
102
{ACAD_REACTORS
330
201A
102
}
330
1F
100
AcDbEntity
  8
外形
100
AcDbLine
 10
482.7393647418628
 20
291.2474570709879
 30
0.0
 11
482.7393647418627
 21
284.247457070988
 31
0.0
  0
ARC
  5
1B9D
330
1F
100
AcDbEntity
  8
外形
100
AcDbCircle
 10
483.0393647418628
 20
284.247457070988
 30
0.0
 40
0.5000000000001421
100
AcDbArc
 50
180.0
 51
0.0
  0
ARC
  5
1B9E
102
{ACAD_REACTORS
330
201A
102
}
330
1F
100
AcDbEntity
  8
外形
100
AcDbCircle
 10
483.0393647418628
 20
284.247457070988
 30
0.0
 40
0.3000000000001421
100
AcDbArc
 50
180.0
 51
0.0
  0
LINE
  5
1BA2
102
{ACAD_REACTORS
330
201A
102
}
330
1F
100
AcDbEntity
  8
外形
100
AcDbLine
 10
483.3393647418629
 20
286.2474570709878
 30
0.0
 11
483.339364741863
 21
290.9974570709879
 31
0.0
  0
ARC
  5
1BA5
102
{ACAD_REACTORS
330
201A
102
}
330
1F
100
AcDbEntity
  8
外形
100
AcDbCircle
 10
483.0893647418632
 20
290.9974570709879
 30
0.0
 40
0.25
100
AcDbArc
 50
0.0
 51
90.0
  0
LINE
  5
1BA6
330
1F
100
AcDbEntity
  8
外形
100
AcDbLine
 10
483.5393647418631
 20
291.2474570709879
 30
0.0
 11
483.5393647418629
 21
306.6477913188647
 31
0.0
  0
LINE
  5
1BA7
102
{ACAD_REACTORS
330
201A
102
}
330
1F
100
AcDbEntity
  8
外形
100
AcDbLine
 10
483.3393647418629
 20
284.247457070988
 30
0.0
 11
483.5393647418631
 21
284.447457070988
 31
0.0
  0
LINE
  5
1BAA
102
{ACAD_REACTORS
330
201A
102
}
330
1F
100
AcDbEntity
  8
外形
100
AcDbLine
 10
484.679364741863
 20
286.1474570709879
 30
0.0
 11
484.6793647418629
 21
277.5681677491068
 31
0.0
  0
LINE
  5
1BAB
330
1F
100
AcDbEntity
  8
外形
100
AcDbLine
 10
486.4793647418633
 20
286.1474570709879
 30
0.0
 11
486.4793647418631
 21
277.5681677491068
 31
0.0
  0
LINE
  5
1BB8
330
1F
100
AcDbEntity
  8
外形
100
AcDbLine
 10
485.7793647418631
 20
278.627457070988
 30
0.0
 11
485.3793647418631
 21
278.627457070988
 31
0.0
  0
LINE
  5
1BBA
330
1F
100
AcDbEntity
  8
外形
100
AcDbLine
 10
485.7793647418631
 20
278.6274570709881
 30
0.0
 11
485.7793647418629
 21
277.7474570709882
 31
0.0
  0
LINE
  5
1BBB
330
1F
100
AcDbEntity
  8
外形
100
AcDbLine
 10
485.3793647418631
 20
278.6274570709881
 30
0.0
 11
485.3793647418629
 21
277.747457070988
 31
0.0
  0
LINE
  5
1BC0
102
{ACAD_REACTORS
330
201A
102
}
330
1F
100
AcDbEntity
  8
外形
100
AcDbLine
 10
484.679364741863
 20
278.727457070988
 30
0.0
 11
484.0393647418629
 21
278.727457070988
 31
0.0
  0
LINE
  5
1BC8
330
1F
100
AcDbEntity
  8
外形
100
AcDbLine
 10
485.9793647418634
 20
281.3724570709883
 30
0.0
 11
484.679364741863
 21
281.3724570709881
 31
0.0
  0
LINE
  5
1BC9
330
1F
100
AcDbEntity
  8
外形
100
AcDbLine
 10
485.9793647418633
 20
280.1224570709881
 30
0.0
 11
484.679364741863
 21
280.1224570709881
 31
0.0
  0
LINE
  5
1BCD
330
1F
100
AcDbEntity
  8
外形
100
AcDbLine
 10
486.4793647418633
 20
279.9474570709881
 30
0.0
 11
485.9793647418634
 21
280.1224570709881
 31
0.0
  0
LINE
  5
1BCE
330
1F
100
AcDbEntity
  8
外形
100
AcDbLine
 10
486.4793647418633
 20
281.5474570709881
 30
0.0
 11
485.9793647418634
 21
281.3724570709882
 31
0.0
  0
LINE
  5
1BFF
330
1F
100
AcDbEntity
  8
外形
100
AcDbLine
 10
487.6193647418628
 20
278.727457070988
 30
0.0
 11
487.6193647418627
 21
284.9474570709879
 31
0.0
  0
ARC
  5
1C02
330
1F
100
AcDbEntity
  8
外形
100
AcDbCircle
 10
486.5793647418634
 20
286.1474570709879
 30
0.0
 40
0.1
100
AcDbArc
 50
90.0
 51
180.0
  0
ARC
  5
1C03
330
1F
100
AcDbEntity
  8
外形
100
AcDbCircle
 10
486.3793647418633
 20
286.1474570709879
 30
0.0
 40
0.1
100
AcDbArc
 50
0.000000000000007
 51
90.0
  0
ARC
  5
1C04
330
1F
100
AcDbEntity
  8
外形
100
AcDbCircle
 10
484.7793647418624
 20
286.1474570709879
 30
0.0
 40
0.1
100
AcDbArc
 50
90.0
 51
180.0
  0
ARC
  5
1C05
102
{ACAD_REACTORS
330
201A
102
}
330
1F
100
AcDbEntity
  8
外形
100
AcDbCircle
 10
484.5793647418624
 20
286.1474570709879
 30
0.0
 40
0.1
100
AcDbArc
 50
0.000000000000007
 51
90.0
  0
LINE
  5
1C06
330
1F
100
AcDbEntity
  8
外形
100
AcDbLine
 10
484.7793647418624
 20
286.2474570709878
 30
0.0
 11
486.3793647418633
 21
286.2474570709878
 31
0.0
  0
LINE
  5
1C07
330
1F
100
AcDbEntity
  8
外形
100
AcDbLine
 10
486.5793647418634
 20
286.2474570709878
 30
0.0
 11
489.8104917865611
 21
286.2474570709878
 31
0.0
  0
LINE
  5
1C17
330
1F
100
AcDbEntity
  8
外形
100
AcDbLine
 10
507.4393647418629
 20
277.547457070988
 30
0.0
 11
486.4748737279191
 21
277.5474570709881
 31
0.0
  0
LINE
  5
1C1B
330
1F
100
AcDbEntity
  8
外形
100
AcDbLine
 10
484.6940094028036
 20
277.5328124100474
 30
0.0
 11
485.1647200809223
 21
277.0621017319287
 31
0.0
  0
ARC
  5
1C1C
330
1F
100
AcDbEntity
  8
外形
100
AcDbCircle
 10
485.1293647418629
 20
277.0267463928693
 30
0.0
 40
0.05
100
AcDbArc
 50
0.0
 51
45.0
  0
ARC
  5
1C1D
330
1F
100
AcDbEntity
  8
外形
100
AcDbCircle
 10
484.729364741863
 20
277.5681677491068
 30
0.0
 40
0.05
100
AcDbArc
 50
179.9999999999992
 51
225.0000000000033
  0
ARC
  5
1C1E
330
1F
100
AcDbEntity
  8
外形
100
AcDbCircle
 10
486.4293647418628
 20
277.5681677491068
 30
0.0
 40
0.05
100
AcDbArc
 50
314.9999999999966
 51
0.0000000000007703
  0
ARC
  5
1C1F
330
1F
100
AcDbEntity
  8
外形
100
AcDbCircle
 10
486.0293647418628
 20
277.0267463928693
 30
0.0
 40
0.05
100
AcDbArc
 50
135.0
 51
180.0
  0
LINE
  5
1C20
330
1F
100
AcDbEntity
  8
外形
100
AcDbLine
 10
486.4647200809222
 20
277.5328124100474
 30
0.0
 11
485.9940094028035
 21
277.0621017319287
 31
0.0
  0
LINE
  5
1C22
330
1F
100
AcDbEntity
  8
外形
100
AcDbLine
 10
485.3793647418629
 20
277.7474570709881
 30
0.0
 11
485.5793647418629
 21
277.6474570709881
 31
0.0
  0
LINE
  5
1C23
330
1F
100
AcDbEntity
  8
外形
100
AcDbLine
 10
485.779364741863
 20
277.7474570709881
 30
0.0
 11
485.5793647418629
 21
277.6474570709881
 31
0.0
  0
ARC
  5
1C24
330
1F
100
AcDbEntity
  8
外形
100
AcDbCircle
 10
492.349364741863
 20
277.5681677491068
 30
0.0
 40
0.05
100
AcDbArc
 50
204.4698005209056
 51
225.0000000000033
  0
ARC
  5
1C25
330
1F
100
AcDbEntity
  8
外形
100
AcDbCircle
 10
492.7493647418629
 20
277.0267463928694
 30
0.0
 40
0.05
100
AcDbArc
 50
0.0
 51
45.0
  0
LINE
  5
1C26
330
1F
100
AcDbEntity
  8
外形
100
AcDbLine
 10
492.3140094028036
 20
277.5328124100475
 30
0.0
 11
492.7847200809223
 21
277.0621017319287
 31
0.0
  0
LINE
  5
1C27
330
1F
100
AcDbEntity
  8
外形
100
AcDbLine
 10
494.0847200809222
 20
277.5328124100475
 30
0.0
 11
493.6140094028035
 21
277.0621017319287
 31
0.0
  0
ARC
  5
1C28
330
1F
100
AcDbEntity
  8
外形
100
AcDbCircle
 10
493.6493647418628
 20
277.0267463928694
 30
0.0
 40
0.05
100
AcDbArc
 50
135.0
 51
180.0
  0
ARC
  5
1C29
330
1F
100
AcDbEntity
  8
外形
100
AcDbCircle
 10
494.0493647418628
 20
277.5681677491068
 30
0.0
 40
0.05
100
AcDbArc
 50
314.9999999999966
 51
335.5301994790944
  0
ARC
  5
1C2A
330
1F
100
AcDbEntity
  8
外形
100
AcDbCircle
 10
502.5093647418629
 20
277.5681677491069
 30
0.0
 40
0.05
100
AcDbArc
 50
204.4698005211104
 51
225.0000000000033
  0
ARC
  5
1C2B
330
1F
100
AcDbEntity
  8
外形
100
AcDbCircle
 10
502.909364741863
 20
277.0267463928695
 30
0.0
 40
0.05
100
AcDbArc
 50
0.0
 51
45.0
  0
LINE
  5
1C2C
330
1F
100
AcDbEntity
  8
外形
100
AcDbLine
 10
502.4740094028037
 20
277.5328124100476
 30
0.0
 11
502.9447200809223
 21
277.0621017319288
 31
0.0
  0
LINE
  5
1C2D
330
1F
100
AcDbEntity
  8
外形
100
AcDbLine
 10
504.2447200809222
 20
277.5328124100476
 30
0.0
 11
503.7740094028036
 21
277.0621017319288
 31
0.0
  0
ARC
  5
1C2E
330
1F
100
AcDbEntity
  8
外形
100
AcDbCircle
 10
503.8093647418628
 20
277.0267463928695
 30
0.0
 40
0.05
100
AcDbArc
 50
135.0
 51
180.0
  0
ARC
  5
1C2F
330
1F
100
AcDbEntity
  8
外形
100
AcDbCircle
 10
504.2093647418629
 20
277.5681677491069
 30
0.0
 40
0.05
100
AcDbArc
 50
314.9999999999966
 51
335.5301994788895
  0
ARC
  5
1C30
330
1F
100
AcDbEntity
  8
外形
100
AcDbCircle
 10
505.049364741863
 20
277.568167749107
 30
0.0
 40
0.05
100
AcDbArc
 50
204.4698005211104
 51
225.0000000000033
  0
ARC
  5
1C31
330
1F
100
AcDbEntity
  8
外形
100
AcDbCircle
 10
505.449364741863
 20
277.0267463928695
 30
0.0
 40
0.05
100
AcDbArc
 50
0.0
 51
45.0
  0
LINE
  5
1C32
330
1F
100
AcDbEntity
  8
外形
100
AcDbLine
 10
505.0140094028036
 20
277.5328124100477
 30
0.0
 11
505.4847200809224
 21
277.0621017319289
 31
0.0
  0
LINE
  5
1C33
330
1F
100
AcDbEntity
  8
外形
100
AcDbLine
 10
506.7847200809223
 20
277.5328124100477
 30
0.0
 11
506.3140094028035
 21
277.0621017319289
 31
0.0
  0
ARC
  5
1C34
330
1F
100
AcDbEntity
  8
外形
100
AcDbCircle
 10
506.3493647418629
 20
277.0267463928695
 30
0.0
 40
0.05
100
AcDbArc
 50
135.0
 51
180.0
  0
ARC
  5
1C35
330
1F
100
AcDbEntity
  8
外形
100
AcDbCircle
 10
506.7493647418629
 20
277.568167749107
 30
0.0
 40
0.05
100
AcDbArc
 50
314.9999999999966
 51
335.5301994788895
  0
LINE
  5
1C36
330
1F
100
AcDbEntity
  8
外形
100
AcDbLine
 10
487.6693647418628
 20
284.9974570709879
 30
0.0
 11
489.3653317370337
 21
284.9974570709879
 31
0.0
  0
ARC
  5
1C37
330
1F
100
AcDbEntity
  8
外形
100
AcDbCircle
 10
487.6693647418628
 20
284.9474570709879
 30
0.0
 40
0.05
100
AcDbArc
 50
90.0000000000003
 51
180.0000000000005
  0
LINE
  5
1C38
330
1F
100
AcDbEntity
  8
外形
100
AcDbLine
 10
485.1793647418631
 20
285.2974570709879
 30
0.0
 11
485.9793647418633
 21
285.2974570709879
 31
0.0
  0
LINE
  5
1C40
330
1F
100
AcDbEntity
  8
外形
100
AcDbLine
 10
485.1793647418631
 20
285.1974570709879
 30
0.0
 11
485.9793647418634
 21
285.1974570709879
 31
0.0
  0
LINE
  5
1C47
330
1F
100
AcDbEntity
  8
外形
100
AcDbLine
 10
484.6838557558068
 20
277.5474570709881
 30
0.0
 11
484.0393647418629
 21
277.5474570709881
 31
0.0
  0
LINE
  5
1C4A
330
1F
100
AcDbEntity
  8
外形
  6
CENTER
 62
     1
 48
0.08
100
AcDbLine
 10
447.8965828489888
 20
272.7474570709878
 30
0.0
 11
447.8965828489894
 21
310.347457070988
 31
0.0
  0
LINE
  5
1C52
330
1F
100
AcDbEntity
  8
外形
100
AcDbLine
 10
450.2965828489886
 20
306.6477913188646
 30
0.0
 11
445.4965828489888
 21
306.6477913188647
 31
0.0
  0
LINE
  5
1C57
330
1F
100
AcDbEntity
  8
外形
100
AcDbLine
 10
532.0203310362232
 20
277.247457070988
 30
0.0
 11
532.0203310362233
 21
307.8312947466266
 31
0.0
  0
LINE
  5
1C58
330
1F
100
AcDbEntity
  8
外形
100
AcDbLine
 10
527.8203310362232
 20
277.247457070988
 30
0.0
 11
527.8203310362232
 21
307.8312947466266
 31
0.0
  0
LINE
  5
1C59
330
1F
100
AcDbEntity
  8
外形
  6
CENTER
 62
     1
 48
0.08
100
AcDbLine
 10
529.9203310362234
 20
272.7474570709878
 30
0.0
 11
529.9203310362234
 21
310.3474570709884
 31
0.0
  0
LINE
  5
1C5A
330
1F
100
AcDbEntity
  8
外形
100
AcDbLine
 10
533.3203310362231
 20
291.2474570709879
 30
0.0
 11
533.3203310362232
 21
277.247457070988
 31
0.0
  0
LINE
  5
1C5B
330
1F
100
AcDbEntity
  8
外形
100
AcDbLine
 10
526.5203310362233
 20
291.2474570709879
 30
0.0
 11
526.5203310362233
 21
277.247457070988
 31
0.0
  0
LINE
  5
1C5D
330
1F
100
AcDbEntity
  8
外形
100
AcDbLine
 10
533.3203310362232
 20
277.247457070988
 30
0.0
 11
526.5203310362233
 21
277.247457070988
 31
0.0
  0
LINE
  5
1C5E
330
1F
100
AcDbEntity
  8
外形
100
AcDbLine
 10
533.3203310362232
 20
277.5474570709881
 30
0.0
 11
526.5203310362233
 21
277.5474570709881
 31
0.0
  0
LINE
  5
1C60
330
1F
100
AcDbEntity
  8
外形
100
AcDbLine
 10
533.3203310362231
 20
291.2474570709879
 30
0.0
 11
526.5203310362233
 21
291.2474570709879
 31
0.0
  0
LINE
  5
1C66
330
1F
100
AcDbEntity
  8
外形
100
AcDbLine
 10
527.8203310362232
 20
307.8312947466266
 30
0.0
 11
532.0203310362233
 21
307.8312947466266
 31
0.0
  0
LINE
  5
1C6C
330
1F
100
AcDbEntity
  8
外形
100
AcDbLine
 10
530.2203310362233
 20
273.7474570709878
 30
0.0
 11
530.2203310362233
 21
277.247457070988
 31
0.0
  0
LINE
  5
1C6D
330
1F
100
AcDbEntity
  8
外形
100
AcDbLine
 10
530.5203310362233
 20
273.7474570709878
 30
0.0
 11
530.5203310362233
 21
277.247457070988
 31
0.0
  0
ARC
  5
1C72
330
1F
100
AcDbEntity
  8
外形
100
AcDbCircle
 10
485.4793647418629
 20
274.047457070988
 30
0.0
 40
0.3
100
AcDbArc
 50
180.0
 51
270.0
  0
ARC
  5
1C73
330
1F
100
AcDbEntity
  8
外形
100
AcDbCircle
 10
485.6793647418629
 20
274.047457070988
 30
0.0
 40
0.3
100
AcDbArc
 50
270.0
 51
0.0
  0
ARC
  5
1C74
330
1F
100
AcDbEntity
  8
外形
100
AcDbCircle
 10
493.299364741863
 20
274.047457070988
 30
0.0
 40
0.3
100
AcDbArc
 50
270.0
 51
359.9999999999989
  0
ARC
  5
1C75
330
1F
100
AcDbEntity
  8
外形
100
AcDbCircle
 10
493.099364741863
 20
274.047457070988
 30
0.0
 40
0.3
100
AcDbArc
 50
180.0000000000009
 51
270.0
  0
ARC
  5
1C8C
330
1F
100
AcDbEntity
  8
外形
100
AcDbCircle
 10
503.2593647418631
 20
274.047457070988
 30
0.0
 40
0.3
100
AcDbArc
 50
180.0
 51
270.0
  0
ARC
  5
1C8D
330
1F
100
AcDbEntity
  8
外形
100
AcDbCircle
 10
503.4593647418629
 20
274.047457070988
 30
0.0
 40
0.3
100
AcDbArc
 50
270.0
 51
359.999999999997
  0
ARC
  5
1C8E
330
1F
100
AcDbEntity
  8
外形
100
AcDbCircle
 10
505.7993647418631
 20
274.047457070988
 30
0.0
 40
0.3
100
AcDbArc
 50
179.999999999997
 51
270.0
  0
ARC
  5
1C8F
330
1F
100
AcDbEntity
  8
外形
100
AcDbCircle
 10
505.999364741863
 20
274.047457070988
 30
0.0
 40
0.3
100
AcDbArc
 50
270.0
 51
0.0
  0
DIMENSION
  5
1C90
330
1F
100
AcDbEntity
  8
寸法
 62
     5
100
AcDbDimension
  2
*D7
 10
514.9347463906248
 20
273.7474570709879
 30
0.0
 11
514.9347463906247
 21
275.497457070988
 31
0.0
 70
   160
 71
     5
 42
3.5
  3
ISO-25
100
AcDbAlignedDimension
 13
508.9393647418628
 23
277.247457070988
 33
0.0
 14
505.8993647418629
 24
273.7474570709879
 34
0.0
 50
90.0
100
AcDbRotatedDimension
  0
DIMENSION
  5
1CA6
330
1F
100
AcDbEntity
  8
寸法
 62
     5
100
AcDbDimension
  2
*D8
 10
520.8423569015271
 20
273.7474570709879
 30
0.0
 11
519.7423569015269
 21
290.7474570709881
 31
0.0
 70
    32
 71
     5
 42
34.00000000000017
  3
ISO-25
100
AcDbAlignedDimension
 13
508.1530917272186
 23
307.7474570709881
 33
0.0
 14
505.8993647418629
 24
273.7474570709879
 34
0.0
 50
90.0
100
AcDbRotatedDimension
  0
LINE
  5
1CEA
330
1F
100
AcDbEntity
  8
外形
100
AcDbLine
 10
527.8203310362232
 20
283.9474570709878
 30
0.0
 11
532.0203310362232
 21
283.9474570709878
 31
0.0
  0
LINE
  5
1CEB
330
1F
100
AcDbEntity
  8
外形
100
AcDbLine
 10
527.8203310362232
 20
283.7474570709878
 30
0.0
 11
532.0203310362233
 21
283.7474570709878
 31
0.0
  0
LINE
  5
1CEC
330
1F
100
AcDbEntity
  8
外形
100
AcDbLine
 10
530.2203310362233
 20
273.7474570709878
 30
0.0
 11
530.5203310362234
 21
273.7474570709878
 31
0.0
  0
LINE
  5
1CF3
330
1F
100
AcDbEntity
  8
外形
100
AcDbLine
 10
532.3203310362231
 20
291.2474570709881
 30
0.0
 11
532.3203310362232
 21
306.6477913188648
 31
0.0
  0
LINE
  5
1CF4
330
1F
100
AcDbEntity
  8
外形
100
AcDbLine
 10
527.5203310362236
 20
291.2474570709881
 30
0.0
 11
527.5203310362235
 21
306.6477913188648
 31
0.0
  0
LINE
  5
1CF5
330
1F
100
AcDbEntity
  8
外形
100
AcDbLine
 10
532.3203310362232
 20
306.6477913188648
 30
0.0
 11
527.5203310362235
 21
306.6477913188649
 31
0.0
  0
DIMENSION
  5
1CF8
330
1F
100
AcDbEntity
  8
寸法
 62
     5
100
AcDbDimension
  2
*D9
 10
533.3203310362232
 20
266.7865357907166
 30
0.0
 11
529.9203310362233
 21
267.8865357907166
 31
0.0
 70
    32
 71
     5
 42
6.799999999999954
  3
ISO-25
100
AcDbAlignedDimension
 13
526.5203310362233
 23
277.247457070988
 33
0.0
 14
533.3203310362232
 24
277.247457070988
 34
0.0
100
AcDbRotatedDimension
  0
LINE
  5
1D81
330
1F
100
AcDbEntity
  8
外形
100
AcDbLine
 10
485.179364741863
 20
285.922899380529
 30
0.0
 11
485.9793647418634
 21
285.9228993805291
 31
0.0
  0
LINE
  5
1D82
330
1F
100
AcDbEntity
  8
外形
100
AcDbLine
 10
485.1793647418631
 20
286.071976303606
 30
0.0
 11
485.9793647418633
 21
286.0719763036059
 31
0.0
  0
DIMENSION
  5
1D87
330
1F
100
AcDbEntity
  8
寸法
 62
     5
100
AcDbDimension
  2
*D10
 10
447.896582848989
 20
294.5473606070011
 30
0.0
 11
441.4632495156554
 21
294.5473606070011
 31
0.0
 70
   160
 71
     5
 42
1.10000000000025
  3
ISO-25
100
AcDbAlignedDimension
 13
446.7965828489887
 23
287.0840995773506
 33
0.0
 14
447.896582848989
 24
287.0840995773506
 34
0.0
100
AcDbRotatedDimension
1001
ACAD
1000
DSTYLE
1002
{
1070
    76
1070
     1
1070
    75
1070
     0
1070
   281
1070
     0
1070
   174
1070
     1
1002
}
  0
LINE
  5
1DBA
330
1F
100
AcDbEntity
  8
外形
  6
CENTER
 62
     1
 48
0.08
100
AcDbLine
 10
449.3965828489892
 20
276.4903718295069
 30
0.0
 11
449.3965828489892
 21
287.0840995773506
 31
0.0
  0
DIMENSION
  5
1DD2
330
1F
100
AcDbEntity
  8
寸法
 62
     5
100
AcDbDimension
  2
*D11
 10
447.2965828489883
 20
267.463831465286
 30
0.0
 11
441.6132495156549
 21
267.463831465286
 31
0.0
 70
   160
 71
     5
 42
0.2999999999998408
  3
ISO-25
100
AcDbAlignedDimension
 13
447.5965828489881
 23
273.7474570709887
 33
0.0
 14
447.2965828489883
 24
273.7474570709887
 34
0.0
 50
180.0
100
AcDbRotatedDimension
  0
DIMENSION
  5
1E02
330
1F
100
AcDbEntity
  8
寸法
 62
     5
100
AcDbDimension
  2
*D12
 10
447.5965828489889
 20
261.463831465286
 30
0.0
 11
453.5799161823222
 21
261.463831465286
 31
0.0
 70
   160
 71
     5
 42
0.2999999999999545
  3
ISO-25
100
AcDbAlignedDimension
 13
447.8965828489888
 23
272.7474570709878
 33
0.0
 14
447.5965828489889
 24
273.7474570709886
 34
0.0
 50
180.0
100
AcDbRotatedDimension
  0
LWPOLYLINE
  5
1F17
330
1F
100
AcDbEntity
  8
外形
100
AcDbPolyline
 90
        2
 70
     0
 43
0.0
 10
445.4965828489889
 20
291.2474570709878
 10
445.4965828489887
 20
306.6477913188646
  0
LWPOLYLINE
  5
1F18
330
1F
100
AcDbEntity
  8
外形
100
AcDbPolyline
 90
        2
 70
     0
 43
0.0
 10
450.2965828489884
 20
291.2474570709879
 10
450.2965828489886
 20
306.6477913188646
  0
LWPOLYLINE
  5
1F27
330
1F
100
AcDbEntity
  8
外形
  6
CENTER
 62
     1
 48
0.08
100
AcDbPolyline
 90
        2
 70
     0
 43
0.0
 10
446.7965828489888
 20
276.4903718295069
 10
446.7965828489887
 20
287.0840995773506
  0
LWPOLYLINE
  5
1F28
330
1F
100
AcDbEntity
  8
外形
100
AcDbPolyline
 90
        4
 70
     1
 43
0.0
 10
444.4965828489887
 20
291.2474570709879
 10
444.4965828489888
 20
277.247457070988
 10
451.2965828489888
 20
277.247457070988
 10
451.2965828489886
 20
291.2474570709879
  0
LWPOLYLINE
  5
1F29
330
1F
100
AcDbEntity
  8
外形
100
AcDbPolyline
 90
        6
 70
     0
 43
0.0
 10
447.2965828489889
 20
280.1224570709881
 10
445.996582848989
 20
280.1224570709881
 10
445.9965828489892
 20
284.6974570709872
 42
0.2679491924281543
 10
445.8465828489856
 20
284.9572646921108
 42
-0.2679491924281404
 10
445.6965828489885
 20
285.2170723132445
 10
445.6965828489884
 20
286.2474570709878
  0
LWPOLYLINE
  5
1F2A
330
1F
100
AcDbEntity
  8
外形
100
AcDbPolyline
 90
       12
 70
     0
 43
0.0
 10
446.2965828489886
 20
280.1224570709881
 10
446.2965828489887
 20
281.3724570709882
 10
446.7965828489887
 20
285.2974570709879
 10
447.2965828489889
 20
281.3724570709883
 10
447.2965828489886
 20
273.7474570709887
 10
447.4465828489887
 20
273.7474570709886
 42
0.4142135623731011
 10
447.5965828489886
 20
273.8974570709886
 10
447.5965828489885
 20
284.6572646921215
 42
-0.2679491924283952
 10
447.7465828489917
 20
284.9170723132452
 42
0.2679491924284265
 10
447.896582848989
 20
285.176879934379
 10
447.8965828489891
 20
285.9474570709878
 42
-0.4142135623730735
 10
448.1965828489891
 20
286.2474570709878
  0
LWPOLYLINE
  5
1F2E
330
1F
100
AcDbEntity
  8
外形
100
AcDbPolyline
 90
        2
 70
     0
 43
0.0
 10
451.2965828489888
 20
277.5474570709881
 10
444.4965828489888
 20
277.5474570709881
  0
LWPOLYLINE
  5
1F30
330
1F
100
AcDbEntity
  8
外形
100
AcDbPolyline
 90
        2
 70
     0
 43
0.0
 10
447.583109807157
 20
273.8353250366319
 10
447.2965828489886
 20
273.835325036632
  0
LWPOLYLINE
  5
1F33
330
1F
100
AcDbEntity
  8
外形
100
AcDbPolyline
 90
        3
 70
     0
 43
0.0
 10
445.996582848989
 20
277.5474570709881
 10
445.996582848989
 20
278.7274570709881
 10
447.2965828489888
 20
278.727457070988
  0
LWPOLYLINE
  5
1F36
330
1F
100
AcDbEntity
  8
外形
100
AcDbPolyline
 90
        2
 70
     0
 43
0.0
 10
447.6278140819871
 20
277.5474570709881
 10
447.2592855326052
 20
278.727457070988
  0
LWPOLYLINE
  5
1F37
330
1F
100
AcDbEntity
  8
外形
100
AcDbPolyline
 90
        3
 70
     0
 43
0.0
 10
447.3135235965577
 20
277.5474570709881
 10
447.004157476435
 20
278.538023534175
 10
447.004157476435
 20
278.727457070988
  0
LWPOLYLINE
  5
1F3A
330
1F
100
AcDbEntity
  8
外形
100
AcDbPolyline
 90
        6
 70
     0
 43
0.0
 10
450.7465828489886
 20
291.2474570709878
 42
0.4142135623730951
 10
450.4965828489886
 20
290.9974570709879
 10
450.4965828489888
 20
286.2474570709878
 10
445.2965828489888
 20
286.2474570709877
 10
445.296582848989
 20
290.9974570709879
 42
0.4142135623730951
 10
445.046582848989
 20
291.2474570709878
  0
LWPOLYLINE
  5
1F41
330
1F
100
AcDbEntity
  8
外形
100
AcDbPolyline
 90
        9
 70
     1
 43
0.0
 10
445.9965828489891
 20
281.3724570709882
 10
446.496582848989
 20
285.297457070987
 10
445.8369765720307
 20
285.9228993805291
 10
446.0035919566461
 20
286.071976303606
 10
446.7965828489887
 20
285.2974570709871
 10
447.5895737413314
 20
286.0719763036059
 10
447.7561891259467
 20
285.9228993805291
 10
447.0965828489886
 20
285.297457070987
 10
447.5965828489885
 20
281.3724570709881
  0
LWPOLYLINE
  5
1F4D
330
1F
100
AcDbEntity
  8
外形
100
AcDbPolyline
 90
        2
 70
     0
 43
0.0
 10
446.496582848989
 20
285.297457070987
 10
447.0965828489886
 20
285.297457070987
  0
LWPOLYLINE
  5
1F4E
330
1F
100
AcDbEntity
  8
外形
100
AcDbPolyline
 90
        2
 70
     0
 43
0.0
 10
446.483843995486
 20
285.1974570709879
 10
446.7838439954856
 20
285.1974570709879
  0
LWPOLYLINE
  5
1F4F
330
1F
100
AcDbEntity
  8
外形
100
AcDbPolyline
 90
        2
 70
     0
 43
0.0
 10
446.8093217024919
 20
285.1974570709879
 10
447.1093217024916
 20
285.1974570709879
  0
LINE
  5
1F7B
330
1F
100
AcDbEntity
  8
外形
100
AcDbLine
 10
482.5393647418629
 20
329.2212310598747
 30
0.0
 11
508.9393647418628
 21
329.2212310598749
 31
0.0
  0
LINE
  5
1F7C
330
1F
100
AcDbEntity
  8
外形
100
AcDbLine
 10
482.5393647418629
 20
322.421231059875
 30
0.0
 11
508.9393647418628
 21
322.4212310598749
 31
0.0
  0
LINE
  5
1F7E
330
1F
100
AcDbEntity
  8
外形
100
AcDbLine
 10
508.9393647418628
 20
329.2212310598749
 30
0.0
 11
508.9393647418629
 21
328.0212310598749
 31
0.0
  0
LINE
  5
1F84
330
1F
100
AcDbEntity
  8
外形
  6
CENTER
 62
     1
 48
0.08
100
AcDbLine
 10
510.3905090014846
 20
325.821231059875
 30
0.0
 11
480.6911370139427
 21
325.8212310598752
 31
0.0
  0
LINE
  5
1F85
330
1F
100
AcDbEntity
  8
外形
  6
CENTER
 62
     1
 48
0.08
100
AcDbLine
 10
495.7393647418627
 20
321.2285422321586
 30
0.0
 11
495.7393647418627
 21
330.6379539083525
 31
0.0
  0
LINE
  5
1F88
330
1F
100
AcDbEntity
  8
外形
100
AcDbLine
 10
483.5393647418627
 20
323.2212310598752
 30
0.0
 11
483.5393647418627
 21
328.4212310598752
 31
0.0
  0
LINE
  5
1F89
330
1F
100
AcDbEntity
  8
外形
100
AcDbLine
 10
507.9393647418628
 20
323.221231059875
 30
0.0
 11
507.9393647418628
 21
328.421231059875
 31
0.0
  0
LINE
  5
1F8A
330
1F
100
AcDbEntity
  8
外形
100
AcDbLine
 10
482.5393647418628
 20
329.2212310598747
 30
0.0
 11
482.5393647418628
 21
328.0212310598749
 31
0.0
  0
LINE
  5
1F8C
330
1F
100
AcDbEntity
  8
外形
100
AcDbLine
 10
482.8393647418629
 20
328.0212310598749
 30
0.0
 11
482.8393647418628
 21
323.6212310598748
 31
0.0
  0
LINE
  5
1F8D
330
1F
100
AcDbEntity
  8
外形
100
AcDbLine
 10
508.6393647418629
 20
328.0212310598749
 30
0.0
 11
508.6393647418628
 21
323.6212310598749
 31
0.0
  0
LINE
  5
1F8E
330
1F
100
AcDbEntity
  8
外形
100
AcDbLine
 10
507.9393647418628
 20
328.421231059875
 30
0.0
 11
483.5393647418627
 21
328.4212310598752
 31
0.0
  0
LINE
  5
1F8F
330
1F
100
AcDbEntity
  8
外形
100
AcDbLine
 10
507.9393647418628
 20
323.221231059875
 30
0.0
 11
483.5393647418627
 21
323.2212310598752
 31
0.0
  0
HATCH
  5
201A
330
1F
100
AcDbEntity
  8
寸法
 62
     5
100
AcDbHatch
 10
0.0
 20
0.0
 30
0.0
210
0.0
220
0.0
230
1.0
  2
ANSI31
 70
     0
 71
     1
 91
        1
 92
        7
 72
     1
 73
     1
 93
       13
 10
484.679364741863
 20
286.1474570709879
 42
0.4142135623729287
 10
484.579364741863
 20
286.2474570709878
 42
0.0
 10
483.3393647418628
 20
286.2474570709878
 42
0.0
 10
483.339364741863
 20
290.9974570709879
 42
0.4142135623730284
 10
483.0893647418631
 20
291.2474570709879
 42
0.0
 10
482.7393647418628
 20
291.2474570709879
 42
0.0
 10
482.7393647418627
 20
284.247457070988
 42
1.0
 10
483.3393647418629
 20
284.247457070988
 42
0.0
 10
483.5393647418631
 20
284.447457070988
 42
0.0
 10
483.5393647418631
 20
277.2474570709882
 42
0.0
 10
484.0393647418629
 20
277.2474570709881
 42
0.0
 10
484.0393647418633
 20
278.727457070988
 42
0.0
 10
484.6793647418628
 20
278.727457070988
 42
0.0
 97
       13
330
1C05
330
1B86
330
1BA2
330
1BA5
330
1B35
330
1B92
330
1B9E
330
1BA7
330
1B33
330
4EC
330
1394
330
1BC0
330
1BAA
 75
     0
 76
     1
 52
0.0
 41
0.25
 77
     0
 78
     1
 53
45.0
 43
19.52123266665921
 44
0.0
 45
-0.5612660075668221
 46
0.5612660075668221
 79
     0
 47
0.0544405003604092
 98
        1
 10
484.1933374924387
 20
281.9161243260197
  0
HATCH
  5
208A
330
1F
100
AcDbEntity
  8
寸法
 62
     5
100
AcDbHatch
 10
0.0
 20
0.0
 30
0.0
210
0.0
220
0.0
230
1.0
  2
ANSI31
 70
     0
 71
     0
 91
        5
 92
        7
 72
     1
 73
     1
 93
        7
 10
451.2965828489887
 20
291.2474570709879
 42
0.0
 10
450.7465828489886
 20
291.2474570709879
 42
0.4142135623730951
 10
450.4965828489886
 20
290.9974570709879
 42
0.0
 10
450.4965828489888
 20
286.2474570709879
 42
0.0
 10
449.3965828489892
 20
286.2474570709878
 42
0.0
 10
449.3965828489892
 20
277.5474570709881
 42
0.0
 10
451.2965828489887
 20
277.5474570709881
 42
0.0
 97
        0
 92
        7
 72
     1
 73
     1
 93
        6
 10
447.896582848989
 20
277.5474570709881
 42
0.0
 10
449.3965828489892
 20
277.5474570709881
 42
0.0
 10
449.3965828489892
 20
286.2474570709878
 42
0.0
 10
448.1965828489891
 20
286.2474570709878
 42
0.4142135623731289
 10
447.8965828489891
 20
285.9474570709878
 42
0.0
 10
447.896582848989
 20
285.176879934379
 42
0.0
 97
        0
 92
        7
 72
     1
 73
     1
 93
        6
 10
447.8965828489889
 20
285.176879934379
 42
-0.2679491924329389
 10
447.7465828489873
 20
284.9170723132426
 42
0.2679491924328398
 10
447.5965828489885
 20
284.6572646921114
 42
0.0
 10
447.5965828489886
 20
277.6474570709885
 42
0.0
 10
447.6278140819871
 20
277.5474570709881
 42
0.0
 10
447.8965828489889
 20
277.5474570709881
 42
0.0
 97
        0
 92
        7
 72
     1
 73
     1
 93
       14
 10
445.9965828489892
 20
284.6974570709765
 42
0.2679491924329092
 10
445.8465828489902
 20
284.9572646921081
 42
-0.2679491924328795
 10
445.6965828489885
 20
285.2170723132444
 42
0.0
 10
445.6965828489884
 20
286.2474570709878
 42
0.0
 10
445.2965828489888
 20
286.2474570709877
 42
0.0
 10
445.296582848989
 20
290.9974570709879
 42
0.4142135623731617
 10
445.046582848989
 20
291.2474570709879
 42
0.0
 10
444.4965828489887
 20
291.2474570709879
 42
0.0
 10
444.4965828489887
 20
277.5474570709881
 42
0.0
 10
445.9965828489889
 20
277.5474570709881
 42
0.0
 10
445.996582848989
 20
278.7274570709882
 42
0.0
 10
446.7965828489887
 20
278.727457070988
 42
0.0
 10
446.7965828489887
 20
280.122457070988
 42
0.0
 10
445.996582848989
 20
280.1224570709881
 42
0.0
 97
        0
 92
        7
 72
     0
 73
     1
 93
        4
 10
446.7965828489887
 20
278.727457070988
 10
447.2965828489887
 20
278.727457070988
 10
447.2965828489888
 20
280.1224570709881
 10
446.7965828489887
 20
280.1224570709881
 97
        0
 75
     0
 76
     1
 52
0.0
 41
0.25
 77
     0
 78
     1
 53
45.0
 43
-1.799375912448454
 44
0.0
 45
-0.5612660075668221
 46
0.5612660075668221
 79
     0
 47
0.0391416676875364
 98
        5
 10
450.5358760537472
 20
282.1393411895133
 10
448.3819829897483
 20
282.961316259634
 10
447.833719420471
 20
283.5484411532411
 10
445.3273715968015
 20
282.1393411895133
 10
447.011324066555
 20
279.55599100043
  0
SPLINE
  5
208B
330
1F
100
AcDbEntity
  8
寸法
 62
     5
100
AcDbSpline
210
0.0
220
0.0
230
1.0
 70
     8
 71
     3
 72
    10
 73
     6
 74
     4
 42
0.0000000001
 43
0.0000000001
 44
0.0000000001
 40
0.0
 40
0.0
 40
0.0
 40
0.0
 40
3.842183920003157
 40
11.14788906844283
 40
14.28728509692004
 40
14.28728509692004
 40
14.28728509692004
 40
14.28728509692004
 10
488.9214742256064
 20
291.2474570709879
 30
0.0
 10
489.4768038767288
 20
290.0209366624916
 30
0.0
 10
491.0880628575652
 20
286.4622539604705
 30
0.0
 10
486.9958806129793
 20
281.8669357850465
 30
0.0
 10
488.4764668875694
 20
278.5456945555982
 30
0.0
 10
488.9214742256064
 20
277.5474570709881
 30
0.0
 11
488.9214742256064
 21
291.2474570709879
 31
0.0
 11
490.0167777906307
 21
287.5647016656459
 31
0.0
 11
487.9904662090561
 21
280.5456284297895
 31
0.0
 11
488.9214742256064
 21
277.5474570709881
 31
0.0
  0
LINE
  5
208E
330
1F
100
AcDbEntity
  8
外形
100
AcDbLine
 10
488.4202353486907
 20
278.727457070988
 30
0.0
 11
486.4793647418632
 21
278.727457070988
 31
0.0
  0
HATCH
  5
20A1
330
1F
100
AcDbEntity
  8
寸法
 62
     5
100
AcDbHatch
 10
0.0
 20
0.0
 30
0.0
210
0.0
220
0.0
230
1.0
  2
ANSI31
 70
     0
 71
     0
 91
        1
 92
        5
 93
        8
 72
     2
 10
487.6693647418628
 20
284.9474570709879
 40
0.0500000000000113
 50
180.0
 51
269.9999999999348
 73
     0
 72
     1
 10
487.6693647418627
 20
284.9974570709879
 11
489.365331737009
 21
284.9974570709879
 72
     4
 94
        3
 73
     0
 74
     0
 95
        8
 96
        4
 40
5.213010921163299
 40
5.213010921163299
 40
5.213010921163299
 40
5.213010921163299
 40
6.51264696255826
 40
6.51264696255826
 40
6.51264696255826
 40
6.51264696255826
 10
489.365331737009
 20
284.9974570709879
 10
489.5378151842887
 20
285.4141957579798
 10
489.694179440104
 20
285.83091924618
 10
489.8104917865599
 20
286.2474570709835
 72
     1
 10
489.8104917865613
 20
286.2474570709878
 11
486.5793647418634
 21
286.2474570709878
 72
     2
 10
486.5793647418634
 20
286.1474570709878
 40
0.1000000000000227
 50
90.0
 51
180.0
 73
     1
 72
     1
 10
486.4793647418633
 20
286.1474570709878
 11
486.4793647418631
 21
278.727457070988
 72
     1
 10
486.4793647418631
 20
278.727457070988
 11
487.6193647418627
 21
278.727457070988
 72
     1
 10
487.6193647418627
 20
278.727457070988
 11
487.6193647418627
 21
284.9474570709879
 97
        0
 75
     0
 76
     1
 52
0.0
 41
0.25
 77
     0
 78
     1
 53
45.0
 43
19.52123266665921
 44
0.0
 45
-0.5612660075668221
 46
0.5612660075668221
 79
     0
 47
0.0547371759368151
 98
        1
 10
487.1677262019993
 20
284.116900782439
  0
LINE
  5
20A2
330
1F
100
AcDbEntity
  8
外形
100
AcDbLine
 10
485.8793647418633
 20
280.0349570709881
 30
0.0
 11
486.5793647418632
 21
280.0349570709881
 31
0.0
  0
LINE
  5
20A3
330
1F
100
AcDbEntity
  8
外形
100
AcDbLine
 10
485.8793647418633
 20
281.4599570709881
 30
0.0
 11
486.5793647418633
 21
281.4599570709881
 31
0.0
  0
LINE
  5
20A7
330
1F
100
AcDbEntity
  8
外形
100
AcDbLine
 10
508.6393647418628
 20
328.0212310598749
 30
0.0
 11
508.9393647418628
 21
328.0212310598749
 31
0.0
  0
LINE
  5
20A8
330
1F
100
AcDbEntity
  8
外形
100
AcDbLine
 10
508.6393647418628
 20
323.6212310598748
 30
0.0
 11
508.9393647418628
 21
323.6212310598749
 31
0.0
  0
DIMENSION
  5
20A9
330
1F
100
AcDbEntity
  8
寸法
 62
     5
100
AcDbDimension
  2
*D13
 10
514.9393647418628
 20
323.221231059875
 30
0.0
 11
513.8393647418626
 21
325.8212310598751
 31
0.0
 70
    32
 71
     5
 42
5.200000000000045
  3
ISO-25
100
AcDbAlignedDimension
 13
507.9393647418628
 23
328.421231059875
 33
0.0
 14
507.9393647418628
 24
323.221231059875
 34
0.0
 50
90.0
100
AcDbRotatedDimension
  0
LINE
  5
20B6
330
1F
100
AcDbEntity
  8
外形
100
AcDbLine
 10
508.9393647418628
 20
323.6212310598749
 30
0.0
 11
508.9393647418628
 21
322.4212310598749
 31
0.0
  0
LINE
  5
20B7
330
1F
100
AcDbEntity
  8
外形
100
AcDbLine
 10
482.8393647418627
 20
328.0212310598749
 30
0.0
 11
482.5393647418626
 21
328.0212310598749
 31
0.0
  0
LINE
  5
20B8
330
1F
100
AcDbEntity
  8
外形
100
AcDbLine
 10
482.8393647418627
 20
323.6212310598748
 30
0.0
 11
482.5393647418626
 21
323.6212310598749
 31
0.0
  0
LINE
  5
20BA
330
1F
100
AcDbEntity
  8
外形
100
AcDbLine
 10
482.5393647418628
 20
323.6212310598749
 30
0.0
 11
482.5393647418628
 21
322.421231059875
 31
0.0
  0
LINE
  5
2109
330
1F
100
AcDbEntity
  8
外形
100
AcDbLine
 10
486.4793647418633
 20
325.8212310598748
 30
0.0
 11
486.4793647418633
 21
328.0212310598755
 31
0.0
  0
LINE
  5
210A
330
1F
100
AcDbEntity
  8
外形
100
AcDbLine
 10
484.6793647418629
 20
325.8212310598748
 30
0.0
 11
484.679364741863
 21
328.0212310598755
 31
0.0
  0
LINE
  5
210B
330
1F
100
AcDbEntity
  8
外形
100
AcDbLine
 10
486.4793647418632
 20
325.8212310598748
 30
0.0
 11
484.6793647418628
 21
325.8212310598748
 31
0.0
  0
LINE
  5
210C
330
1F
100
AcDbEntity
  8
外形
100
AcDbLine
 10
486.4793647418633
 20
328.0212310598755
 30
0.0
 11
484.6793647418629
 21
328.0212310598755
 31
0.0
  0
LINE
  5
210D
330
1F
100
AcDbEntity
  8
外形
100
AcDbLine
 10
486.4793647418632
 20
327.7142219522179
 30
0.0
 11
484.679364741863
 21
327.7142219522178
 31
0.0
  0
LINE
  5
210E
330
1F
100
AcDbEntity
  8
外形
  6
CENTER
 62
     1
 48
0.08
100
AcDbLine
 10
485.579364741863
 20
325.5195194914904
 30
0.0
 11
485.579364741863
 21
328.3229426282598
 31
0.0
  0
LINE
  5
210F
330
1F
100
AcDbEntity
  8
外形
100
AcDbLine
 10
486.4793647418633
 20
326.1282401675324
 30
0.0
 11
484.6793647418628
 21
326.1282401675324
 31
0.0
  0
LINE
  5
2110
330
1F
100
AcDbEntity
  8
外形
100
AcDbLine
 10
486.2293647418632
 20
326.1282401675324
 30
0.0
 11
486.2293647418631
 21
327.7142219522179
 31
0.0
  0
LINE
  5
2111
330
1F
100
AcDbEntity
  8
外形
100
AcDbLine
 10
484.9293647418629
 20
326.1282401675325
 30
0.0
 11
484.9293647418628
 21
327.7142219522177
 31
0.0
  0
LINE
  5
2113
330
1F
100
AcDbEntity
  8
外形
  6
CENTER
 62
     1
 48
0.08
100
AcDbLine
 10
493.199364741863
 20
325.5195194914905
 30
0.0
 11
493.199364741863
 21
328.3229426282598
 31
0.0
  0
LINE
  5
2114
330
1F
100
AcDbEntity
  8
外形
100
AcDbLine
 10
492.5493647418629
 20
326.1282401675325
 30
0.0
 11
492.5493647418628
 21
327.7142219522178
 31
0.0
  0
LINE
  5
2115
330
1F
100
AcDbEntity
  8
外形
100
AcDbLine
 10
493.8493647418632
 20
326.1282401675325
 30
0.0
 11
493.8493647418631
 21
327.7142219522179
 31
0.0
  0
LINE
  5
2116
330
1F
100
AcDbEntity
  8
外形
100
AcDbLine
 10
492.2993647418629
 20
325.8212310598749
 30
0.0
 11
492.299364741863
 21
328.0212310598756
 31
0.0
  0
LINE
  5
2117
330
1F
100
AcDbEntity
  8
外形
100
AcDbLine
 10
494.0993647418633
 20
325.8212310598749
 30
0.0
 11
494.0993647418633
 21
328.0212310598756
 31
0.0
  0
LINE
  5
2118
330
1F
100
AcDbEntity
  8
外形
100
AcDbLine
 10
494.0993647418633
 20
326.1282401675325
 30
0.0
 11
492.2993647418628
 21
326.1282401675325
 31
0.0
  0
LINE
  5
2119
330
1F
100
AcDbEntity
  8
外形
100
AcDbLine
 10
494.0993647418632
 20
325.8212310598748
 30
0.0
 11
492.2993647418628
 21
325.8212310598748
 31
0.0
  0
LINE
  5
211A
330
1F
100
AcDbEntity
  8
外形
100
AcDbLine
 10
494.0993647418632
 20
327.7142219522179
 30
0.0
 11
492.299364741863
 21
327.7142219522179
 31
0.0
  0
LINE
  5
211B
330
1F
100
AcDbEntity
  8
外形
100
AcDbLine
 10
494.0993647418633
 20
328.0212310598756
 30
0.0
 11
492.2993647418629
 21
328.0212310598756
 31
0.0
  0
LINE
  5
211C
330
1F
100
AcDbEntity
  8
外形
  6
CENTER
 62
     1
 48
0.08
100
AcDbLine
 10
503.3593647418631
 20
325.5195194914906
 30
0.0
 11
503.3593647418631
 21
328.32294262826
 31
0.0
  0
LINE
  5
211D
330
1F
100
AcDbEntity
  8
外形
100
AcDbLine
 10
502.7093647418629
 20
326.1282401675326
 30
0.0
 11
502.7093647418628
 21
327.7142219522179
 31
0.0
  0
LINE
  5
211E
330
1F
100
AcDbEntity
  8
外形
100
AcDbLine
 10
504.0093647418633
 20
326.1282401675326
 30
0.0
 11
504.0093647418632
 21
327.714221952218
 31
0.0
  0
LINE
  5
211F
330
1F
100
AcDbEntity
  8
外形
100
AcDbLine
 10
502.459364741863
 20
325.821231059875
 30
0.0
 11
502.4593647418631
 21
328.0212310598757
 31
0.0
  0
LINE
  5
2120
330
1F
100
AcDbEntity
  8
外形
100
AcDbLine
 10
504.2593647418633
 20
325.821231059875
 30
0.0
 11
504.2593647418633
 21
328.0212310598757
 31
0.0
  0
LINE
  5
2121
330
1F
100
AcDbEntity
  8
外形
100
AcDbLine
 10
504.2593647418633
 20
326.1282401675326
 30
0.0
 11
502.4593647418629
 21
326.1282401675326
 31
0.0
  0
LINE
  5
2122
330
1F
100
AcDbEntity
  8
外形
100
AcDbLine
 10
504.2593647418632
 20
325.821231059875
 30
0.0
 11
502.4593647418629
 21
325.821231059875
 31
0.0
  0
LINE
  5
2123
330
1F
100
AcDbEntity
  8
外形
100
AcDbLine
 10
504.2593647418632
 20
327.7142219522181
 30
0.0
 11
502.4593647418631
 21
327.7142219522179
 31
0.0
  0
LINE
  5
2124
330
1F
100
AcDbEntity
  8
外形
100
AcDbLine
 10
504.2593647418633
 20
328.0212310598757
 30
0.0
 11
502.459364741863
 21
328.0212310598757
 31
0.0
  0
LINE
  5
2125
330
1F
100
AcDbEntity
  8
外形
  6
CENTER
 62
     1
 48
0.08
100
AcDbLine
 10
505.899364741863
 20
325.5195194914907
 30
0.0
 11
505.899364741863
 21
328.32294262826
 31
0.0
  0
LINE
  5
2126
330
1F
100
AcDbEntity
  8
外形
100
AcDbLine
 10
505.2493647418629
 20
326.1282401675327
 30
0.0
 11
505.2493647418629
 21
327.7142219522179
 31
0.0
  0
LINE
  5
2127
330
1F
100
AcDbEntity
  8
外形
100
AcDbLine
 10
506.5493647418633
 20
326.1282401675326
 30
0.0
 11
506.5493647418632
 21
327.7142219522181
 31
0.0
  0
LINE
  5
2128
330
1F
100
AcDbEntity
  8
外形
100
AcDbLine
 10
504.999364741863
 20
325.8212310598751
 30
0.0
 11
504.999364741863
 21
328.0212310598757
 31
0.0
  0
LINE
  5
2129
330
1F
100
AcDbEntity
  8
外形
100
AcDbLine
 10
506.7993647418632
 20
325.8212310598751
 30
0.0
 11
506.7993647418632
 21
328.0212310598757
 31
0.0
  0
LINE
  5
212A
330
1F
100
AcDbEntity
  8
外形
100
AcDbLine
 10
506.7993647418632
 20
326.1282401675326
 30
0.0
 11
504.9993647418629
 21
326.1282401675326
 31
0.0
  0
LINE
  5
212B
330
1F
100
AcDbEntity
  8
外形
100
AcDbLine
 10
506.7993647418632
 20
325.821231059875
 30
0.0
 11
504.9993647418629
 21
325.821231059875
 31
0.0
  0
LINE
  5
212C
330
1F
100
AcDbEntity
  8
外形
100
AcDbLine
 10
506.7993647418632
 20
327.7142219522181
 30
0.0
 11
504.999364741863
 21
327.714221952218
 31
0.0
  0
LINE
  5
212D
330
1F
100
AcDbEntity
  8
外形
100
AcDbLine
 10
506.7993647418632
 20
328.0212310598757
 30
0.0
 11
504.999364741863
 21
328.0212310598757
 31
0.0
  0
LINE
  5
212E
330
1F
100
AcDbEntity
  8
寸法
 62
     5
100
AcDbLine
 10
447.0965828489886
 20
285.297457070987
 30
0.0
 11
447.0965828489886
 21
286.6569332396301
 31
0.0
  0
LINE
  5
212F
330
1F
100
AcDbEntity
  8
寸法
 62
     5
100
AcDbLine
 10
446.496582848989
 20
285.297457070987
 30
0.0
 11
446.496582848989
 21
286.6737591861831
 31
0.0
  0
LINE
  5
2140
330
1F
100
AcDbEntity
  8
外形
100
AcDbLine
 10
484.929364741863
 20
327.221231059875
 30
0.0
 11
486.2293647418631
 21
327.221231059875
 31
0.0
  0
LINE
  5
2141
330
1F
100
AcDbEntity
  8
外形
100
AcDbLine
 10
484.929364741863
 20
326.6212310598753
 30
0.0
 11
486.2293647418633
 21
326.6212310598754
 31
0.0
  0
LINE
  5
2142
330
1F
100
AcDbEntity
  8
外形
100
AcDbLine
 10
492.549364741863
 20
326.6212310598753
 30
0.0
 11
493.8493647418633
 21
326.6212310598754
 31
0.0
  0
LINE
  5
2143
330
1F
100
AcDbEntity
  8
外形
100
AcDbLine
 10
492.549364741863
 20
327.221231059875
 30
0.0
 11
493.8493647418631
 21
327.221231059875
 31
0.0
  0
LINE
  5
2144
330
1F
100
AcDbEntity
  8
外形
100
AcDbLine
 10
502.7093647418631
 20
326.6212310598755
 30
0.0
 11
504.0093647418633
 21
326.6212310598755
 31
0.0
  0
LINE
  5
2145
330
1F
100
AcDbEntity
  8
外形
100
AcDbLine
 10
502.709364741863
 20
327.2212310598752
 30
0.0
 11
504.0093647418633
 21
327.2212310598752
 31
0.0
  0
LINE
  5
2146
330
1F
100
AcDbEntity
  8
外形
100
AcDbLine
 10
505.249364741863
 20
326.6212310598755
 30
0.0
 11
506.5493647418633
 21
326.6212310598756
 31
0.0
  0
LINE
  5
2147
330
1F
100
AcDbEntity
  8
外形
100
AcDbLine
 10
505.2493647418629
 20
327.2212310598752
 30
0.0
 11
506.5493647418632
 21
327.2212310598752
 31
0.0
  0
DIMENSION
  5
2148
330
1F
100
AcDbEntity
  8
寸法
 62
     5
100
AcDbDimension
  2
*D14
 10
483.5393647418627
 20
335.2212310598749
 30
0.0
 11
495.7393647418627
 21
336.3212310598749
 31
0.0
 70
    32
 71
     5
 42
24.40000000000003
  3
ISO-25
100
AcDbAlignedDimension
 13
507.9393647418628
 23
328.421231059875
 33
0.0
 14
483.5393647418627
 24
328.4212310598752
 34
0.0
100
AcDbRotatedDimension
  0
DIMENSION
  5
23AB
330
1F
100
AcDbEntity
  8
寸法
 62
     5
100
AcDbDimension
  2
*D16
 10
500.2393647418627
 20
242.4319830865522
 30
0.0
 11
504.5893647418628
 21
243.5319830865522
 31
0.0
 70
    32
 71
     5
 42
8.700000000000045
  3
ISO-25
100
AcDbAlignedDimension
 13
508.9393647418628
 23
236.7048219356898
 33
0.0
 14
500.2393647418627
 24
236.7048219356898
 34
0.0
100
AcDbRotatedDimension
  0
LINE
  5
23AC
330
1F
100
AcDbEntity
  8
外形
  6
CENTER
 62
     1
 48
0.08
100
AcDbLine
 10
510.3905090014846
 20
233.3048219356897
 30
0.0
 11
480.6911370139427
 21
233.3048219356895
 31
0.0
  0
LINE
  5
23AD
330
1F
100
AcDbEntity
  8
外形
100
AcDbLine
 10
507.4393647418629
 20
235.7048219356897
 30
0.0
 11
501.6815852520484
 21
235.7048219356896
 31
0.0
  0
LINE
  5
23AF
330
1F
100
AcDbEntity
  8
外形
100
AcDbLine
 10
482.5393647418629
 20
236.7048219356897
 30
0.0
 11
508.9393647418628
 21
236.7048219356898
 31
0.0
  0
LINE
  5
23B0
330
1F
100
AcDbEntity
  8
外形
100
AcDbLine
 10
482.5393647418629
 20
229.90482193569
 30
0.0
 11
508.9393647418628
 21
229.9048219356898
 31
0.0
  0
LINE
  5
23B3
330
1F
100
AcDbEntity
  8
外形
100
AcDbLine
 10
482.8393647418629
 20
231.1048219356897
 30
0.0
 11
482.8393647418628
 21
235.5048219356899
 31
0.0
  0
LINE
  5
23B4
330
1F
100
AcDbEntity
  8
外形
100
AcDbLine
 10
482.5393647418628
 20
235.5048219356898
 30
0.0
 11
482.5393647418628
 21
236.7048219356897
 31
0.0
  0
LINE
  5
23B5
330
1F
100
AcDbEntity
  8
外形
100
AcDbLine
 10
483.7393647418628
 20
235.5048219356901
 30
0.0
 11
482.5393647418626
 21
235.5048219356898
 31
0.0
  0
LINE
  5
23C0
330
1F
100
AcDbEntity
  8
外形
100
AcDbLine
 10
482.5393647418628
 20
229.90482193569
 30
0.0
 11
482.5393647418628
 21
231.1048219356898
 31
0.0
  0
LINE
  5
23C1
330
1F
100
AcDbEntity
  8
外形
100
AcDbLine
 10
483.7393647418626
 20
231.1048219356895
 30
0.0
 11
482.5393647418626
 21
231.1048219356898
 31
0.0
  0
LINE
  5
23C3
330
1F
100
AcDbEntity
  8
外形
  6
CENTER
 62
     1
 48
0.08
100
AcDbLine
 10
493.199364741863
 20
233.4749024470376
 30
0.0
 11
493.199364741863
 21
230.6714793102683
 31
0.0
  0
LINE
  5
23E5
330
1F
100
AcDbEntity
  8
外形
100
AcDbLine
 10
508.6393647418629
 20
231.1048219356897
 30
0.0
 11
508.6393647418628
 21
235.5048219356898
 31
0.0
  0
LINE
  5
23E7
330
1F
100
AcDbEntity
  8
外形
100
AcDbLine
 10
508.9393647418628
 20
235.5048219356898
 30
0.0
 11
508.9393647418628
 21
236.7048219356898
 31
0.0
  0
LINE
  5
23E8
330
1F
100
AcDbEntity
  8
外形
100
AcDbLine
 10
507.7393647418627
 20
235.50482193569
 30
0.0
 11
508.9393647418628
 21
235.5048219356898
 31
0.0
  0
LINE
  5
23E9
330
1F
100
AcDbEntity
  8
外形
100
AcDbLine
 10
508.9393647418628
 20
229.9048219356898
 30
0.0
 11
508.9393647418629
 21
231.1048219356898
 31
0.0
  0
LINE
  5
23EA
330
1F
100
AcDbEntity
  8
外形
100
AcDbLine
 10
507.7393647418629
 20
231.1048219356896
 30
0.0
 11
508.9393647418628
 21
231.1048219356898
 31
0.0
  0
LINE
  5
2431
330
1F
100
AcDbEntity
  8
外形
  6
CENTER
 62
     1
 48
0.08
100
AcDbLine
 10
500.2393647418628
 20
233.1048219356897
 30
0.0
 11
500.2393647418628
 21
236.5048219356896
 31
0.0
  0
LINE
  5
2432
330
1F
100
AcDbEntity
  8
外形
  6
CENTER
 62
     1
 48
0.08
100
AcDbLine
 10
489.2393647418628
 20
233.1048219356896
 30
0.0
 11
489.2393647418628
 21
236.5048219356896
 31
0.0
  0
LINE
  5
2433
330
1F
100
AcDbEntity
  8
外形
  6
CENTER
 62
     1
 48
0.08
100
AcDbLine
 10
509.2767233397335
 20
234.8048219356897
 30
0.0
 11
482.2504376765791
 21
234.8048219356895
 31
0.0
  0
CIRCLE
  5
2434
330
1F
100
AcDbEntity
  8
外形
100
AcDbCircle
 10
500.2393647418628
 20
234.8048219356897
 30
0.0
 40
0.9
  0
CIRCLE
  5
2435
330
1F
100
AcDbEntity
  8
外形
100
AcDbCircle
 10
489.2393647418629
 20
234.8048219356897
 30
0.0
 40
0.9
  0
ARC
  5
2437
330
1F
100
AcDbEntity
  8
外形
100
AcDbCircle
 10
500.2393647418628
 20
234.8048219356897
 30
0.0
 40
1.7
100
AcDbArc
 50
328.0342812492067
 51
31.96571875079586
  0
LINE
  5
2438
330
1F
100
AcDbEntity
  8
外形
100
AcDbLine
 10
507.4393647418629
 20
233.9048219356898
 30
0.0
 11
501.6815852520484
 21
233.9048219356897
 31
0.0
  0
LINE
  5
2439
330
1F
100
AcDbEntity
  8
外形
100
AcDbLine
 10
498.7971442316772
 20
235.7048219356896
 30
0.0
 11
490.6815852520484
 21
235.7048219356896
 31
0.0
  0
LINE
  5
243A
330
1F
100
AcDbEntity
  8
外形
100
AcDbLine
 10
498.7971442316772
 20
233.9048219356897
 30
0.0
 11
490.6815852520485
 21
233.9048219356897
 31
0.0
  0
ARC
  5
243B
330
1F
100
AcDbEntity
  8
外形
100
AcDbCircle
 10
489.2393647418628
 20
234.8048219356896
 30
0.0
 40
1.7
100
AcDbArc
 50
148.0342812492041
 51
211.9657187507958
  0
LINE
  5
243C
330
1F
100
AcDbEntity
  8
外形
100
AcDbLine
 10
487.7971442316773
 20
235.7048219356896
 30
0.0
 11
484.0393647418627
 21
235.7048219356896
 31
0.0
  0
LINE
  5
243D
330
1F
100
AcDbEntity
  8
外形
100
AcDbLine
 10
487.7971442316772
 20
233.9048219356896
 30
0.0
 11
484.0393647418627
 21
233.9048219356896
 31
0.0
  0
LINE
  5
243E
330
1F
100
AcDbEntity
  8
外形
100
AcDbLine
 10
507.4393647418629
 20
229.9048219356898
 30
0.0
 11
507.4393647418628
 21
236.7048219356898
 31
0.0
  0
LINE
  5
243F
330
1F
100
AcDbEntity
  8
外形
100
AcDbLine
 10
507.7393647418629
 20
231.1048219356896
 30
0.0
 11
507.7393647418629
 21
235.50482193569
 31
0.0
  0
ARC
  5
2452
330
1F
100
AcDbEntity
  8
外形
100
AcDbCircle
 10
489.2393647418628
 20
234.8048219356896
 30
0.0
 40
1.7
100
AcDbArc
 50
328.0342812492067
 51
31.96571875080013
  0
ARC
  5
2453
330
1F
100
AcDbEntity
  8
外形
100
AcDbCircle
 10
500.2393647418628
 20
234.8048219356897
 30
0.0
 40
1.7
100
AcDbArc
 50
148.0342812492041
 51
211.9657187507985
  0
DIMENSION
  5
2466
330
1F
100
AcDbEntity
  8
寸法
 62
     5
100
AcDbDimension
  2
*D17
 10
489.2393647418629
 20
242.4319830865522
 30
0.0
 11
494.7393647418628
 21
243.5319830865522
 31
0.0
 70
    32
 71
     5
 42
10.99999999999994
  3
ISO-25
100
AcDbAlignedDimension
 13
500.2393647418628
 23
236.7048219356898
 33
0.0
 14
489.2393647418629
 24
236.7048219356899
 34
0.0
100
AcDbRotatedDimension
  0
MTEXT
  5
24AD
330
1F
100
AcDbEntity
  8
寸法
 62
     5
100
AcDbMText
 10
518.7320312328255
 20
243.62212373607
 30
0.0
 40
1.399999999999999
 41
0.0
 71
     8
 72
     1
  1
{\fMS UI Gothic|b0|i0|c128|p17;2-φ1.8深さ7}
 73
     2
 44
1.0
  0
LEADER
  5
24AE
330
1F
100
AcDbEntity
  8
寸法
 62
     5
100
AcDbLeader
  3
ISO-25
 76
     3
 10
500.9769281684019
 20
235.3205739999919
 30
0.0
 10
512.848755530276
 20
243.62212373607
 30
0.0
 10
524.2984389108699
 20
243.62212373607
 30
0.0
1001
ACAD
1000
DSTYLE
1002
{
1070
   147
1040
0.2
1070
    77
1070
     0
1002
}
  0
LINE
  5
24E3
330
1F
100
AcDbEntity
  8
外形
100
AcDbLine
 10
483.7393647418626
 20
231.1048219356895
 30
0.0
 11
483.7393647418628
 21
235.5048219356901
 31
0.0
  0
LINE
  5
24E4
330
1F
100
AcDbEntity
  8
外形
100
AcDbLine
 10
484.0393647418626
 20
229.9048219356898
 30
0.0
 11
484.0393647418627
 21
236.7048219356898
 31
0.0
  0
LINE
  5
24E5
330
1F
100
AcDbEntity
  8
外形
100
AcDbLine
 10
487.7971442316772
 20
233.9048219356896
 30
0.0
 11
484.0393647418627
 21
235.7048219356896
 31
0.0
  0
LINE
  5
24E6
330
1F
100
AcDbEntity
  8
外形
100
AcDbLine
 10
484.0393647418626
 20
233.9048219356896
 30
0.0
 11
487.7971442316772
 21
235.7048219356896
 31
0.0
  0
LINE
  5
24E7
330
1F
100
AcDbEntity
  8
外形
100
AcDbLine
 10
490.6815852520484
 20
235.7048219356896
 30
0.0
 11
498.7971442316773
 21
233.9048219356896
 31
0.0
  0
LINE
  5
24E8
330
1F
100
AcDbEntity
  8
外形
100
AcDbLine
 10
498.7971442316772
 20
235.7048219356896
 30
0.0
 11
490.6815852520485
 21
233.9048219356897
 31
0.0
  0
LINE
  5
24E9
330
1F
100
AcDbEntity
  8
外形
100
AcDbLine
 10
501.6815852520484
 20
235.7048219356896
 30
0.0
 11
507.4393647418629
 21
233.9048219356898
 31
0.0
  0
LINE
  5
24EA
330
1F
100
AcDbEntity
  8
外形
100
AcDbLine
 10
501.6815852520484
 20
233.9048219356897
 30
0.0
 11
507.4393647418628
 21
235.7048219356897
 31
0.0
  0
LINE
  5
24EC
330
1F
100
AcDbEntity
  8
外形
100
AcDbLine
 10
507.4393647418629
 20
230.9048219356897
 30
0.0
 11
484.0393647418626
 21
230.9048219356895
 31
0.0
  0
LINE
  5
24ED
330
1F
100
AcDbEntity
  8
外形
  6
CENTER
 62
     1
 48
0.08
100
AcDbLine
 10
485.579364741863
 20
233.4749024470376
 30
0.0
 11
485.579364741863
 21
230.6714793102682
 31
0.0
  0
LINE
  5
24F1
330
1F
100
AcDbEntity
  8
外形
  6
CENTER
 62
     1
 48
0.08
100
AcDbLine
 10
503.3593647418631
 20
233.4749024470376
 30
0.0
 11
503.3593647418631
 21
230.6714793102683
 31
0.0
  0
LINE
  5
24F5
330
1F
100
AcDbEntity
  8
外形
  6
CENTER
 62
     1
 48
0.08
100
AcDbLine
 10
505.899364741863
 20
233.4749024470378
 30
0.0
 11
505.899364741863
 21
230.6714793102684
 31
0.0
  0
LINE
  5
2509
330
1F
100
AcDbEntity
  8
外形
100
AcDbLine
 10
487.1193647418634
 20
230.9048219356895
 30
0.0
 11
487.1193647418634
 21
233.1548219356896
 31
0.0
  0
LINE
  5
250A
330
1F
100
AcDbEntity
  8
外形
100
AcDbLine
 10
486.4793647418634
 20
233.1548219356896
 30
0.0
 11
486.4793647418633
 21
233.0048219356897
 31
0.0
  0
LINE
  5
250B
330
1F
100
AcDbEntity
  8
外形
100
AcDbLine
 10
486.4793647418633
 20
233.0048219356896
 30
0.0
 11
484.6793647418631
 21
233.0048219356897
 31
0.0
  0
LINE
  5
250C
330
1F
100
AcDbEntity
  8
外形
100
AcDbLine
 10
484.6793647418631
 20
233.1548219356895
 30
0.0
 11
484.6793647418632
 21
233.0048219356896
 31
0.0
  0
LINE
  5
250D
330
1F
100
AcDbEntity
  8
外形
100
AcDbLine
 10
507.4393647418628
 20
233.1548219356897
 30
0.0
 11
484.0393647418627
 21
233.1548219356896
 31
0.0
  0
LINE
  5
250F
330
1F
100
AcDbEntity
  8
外形
100
AcDbLine
 10
492.2993647418631
 20
233.1548219356895
 30
0.0
 11
492.2993647418632
 21
233.0048219356896
 31
0.0
  0
LINE
  5
2510
330
1F
100
AcDbEntity
  8
外形
100
AcDbLine
 10
494.0993647418634
 20
233.0048219356896
 30
0.0
 11
492.2993647418631
 21
233.0048219356897
 31
0.0
  0
LINE
  5
2511
330
1F
100
AcDbEntity
  8
外形
100
AcDbLine
 10
494.0993647418634
 20
233.1548219356896
 30
0.0
 11
494.0993647418633
 21
233.0048219356897
 31
0.0
  0
LINE
  5
2512
330
1F
100
AcDbEntity
  8
外形
100
AcDbLine
 10
494.7393647418634
 20
230.9048219356895
 30
0.0
 11
494.7393647418634
 21
233.1548219356896
 31
0.0
  0
LINE
  5
2513
330
1F
100
AcDbEntity
  8
外形
100
AcDbLine
 10
491.4707177027059
 20
230.9048219356895
 30
0.0
 11
491.4707177027059
 21
233.1548219356896
 31
0.0
  0
LINE
  5
2514
330
1F
100
AcDbEntity
  8
外形
100
AcDbLine
 10
487.1193647418634
 20
233.1548219356896
 30
0.0
 11
491.4707177027059
 21
230.9048219356895
 31
0.0
  0
LINE
  5
2515
330
1F
100
AcDbEntity
  8
外形
100
AcDbLine
 10
487.1193647418634
 20
230.9048219356895
 30
0.0
 11
491.4707177027059
 21
233.1548219356896
 31
0.0
  0
LINE
  5
2516
330
1F
100
AcDbEntity
  8
外形
100
AcDbLine
 10
504.2593647418634
 20
233.1548219356896
 30
0.0
 11
504.2593647418633
 21
233.0048219356897
 31
0.0
  0
LINE
  5
2517
330
1F
100
AcDbEntity
  8
外形
100
AcDbLine
 10
504.2593647418634
 20
233.0048219356896
 30
0.0
 11
502.4593647418631
 21
233.0048219356897
 31
0.0
  0
LINE
  5
2518
330
1F
100
AcDbEntity
  8
外形
100
AcDbLine
 10
502.4593647418631
 20
233.1548219356895
 30
0.0
 11
502.4593647418632
 21
233.0048219356896
 31
0.0
  0
LINE
  5
2519
330
1F
100
AcDbEntity
  8
外形
100
AcDbLine
 10
506.7993647418634
 20
233.1548219356896
 30
0.0
 11
506.7993647418633
 21
233.0048219356897
 31
0.0
  0
LINE
  5
251A
330
1F
100
AcDbEntity
  8
外形
100
AcDbLine
 10
506.7993647418634
 20
233.0048219356896
 30
0.0
 11
504.9993647418632
 21
233.0048219356897
 31
0.0
  0
LINE
  5
251B
330
1F
100
AcDbEntity
  8
外形
100
AcDbLine
 10
504.9993647418632
 20
233.1548219356895
 30
0.0
 11
504.9993647418632
 21
233.0048219356896
 31
0.0
  0
LINE
  5
251C
330
1F
100
AcDbEntity
  8
外形
100
AcDbLine
 10
501.6307177027059
 20
230.9048219356895
 30
0.0
 11
501.6307177027059
 21
233.1548219356896
 31
0.0
  0
LINE
  5
251E
330
1F
100
AcDbEntity
  8
外形
100
AcDbLine
 10
494.7393647418634
 20
233.1548219356896
 30
0.0
 11
501.6307177027059
 21
230.9048219356895
 31
0.0
  0
LINE
  5
251F
330
1F
100
AcDbEntity
  8
外形
100
AcDbLine
 10
501.6307177027059
 20
233.1548219356896
 30
0.0
 11
494.7393647418634
 21
230.9048219356896
 31
0.0
  0
LINE
  5
2647
330
1F
100
AcDbEntity
  8
外形
100
AcDbLine
 10
482.5393647418629
 20
188.7916574745982
 30
0.0
 11
508.9393647418628
 21
188.7916574745983
 31
0.0
  0
LINE
  5
2648
330
1F
100
AcDbEntity
  8
外形
100
AcDbLine
 10
482.5393647418629
 20
181.9916574745984
 30
0.0
 11
508.9393647418628
 21
181.9916574745983
 31
0.0
  0
LINE
  5
2649
330
1F
100
AcDbEntity
  8
外形
  6
CENTER
 62
     1
 48
0.08
100
AcDbLine
 10
495.7393647418628
 20
181.9916574745983
 30
0.0
 11
495.7393647418628
 21
188.7916574745982
 31
0.0
  0
LINE
  5
264A
330
1F
100
AcDbEntity
  8
外形
  6
CENTER
 62
     1
 48
0.08
100
AcDbLine
 10
509.2767233397335
 20
185.3916574745982
 30
0.0
 11
480.6911370139427
 21
185.3916574745986
 31
0.0
  0
DIMENSION
  5
264B
330
1F
100
AcDbEntity
  8
寸法
 62
     5
100
AcDbDimension
  2
*D18
 10
503.3593647418631
 20
200.7916574745982
 30
0.0
 11
504.4284474631343
 21
202.0034103713618
 31
0.0
 70
   160
 71
     5
 42
2.54000000000002
  3
ISO-25
100
AcDbAlignedDimension
 13
505.899364741863
 23
186.5916574745984
 33
0.0
 14
503.3593647418631
 24
186.5916574745982
 34
0.0
100
AcDbRotatedDimension
1001
ACAD
1000
DSTYLE
1002
{
1070
   279
1070
     2
1002
}
  0
LINE
  5
267C
330
1F
100
AcDbEntity
  8
外形
100
AcDbLine
 10
482.5393647418629
 20
181.9916574745984
 30
0.0
 11
482.5393647418629
 21
188.7916574745982
 31
0.0
  0
LINE
  5
267D
330
1F
100
AcDbEntity
  8
外形
100
AcDbLine
 10
508.9393647418628
 20
188.7916574745983
 30
0.0
 11
508.9393647418628
 21
181.9916574745983
 31
0.0
  0
LINE
  5
2681
330
1F
100
AcDbEntity
  8
外形
  6
CENTER
 62
     1
 48
0.08
100
AcDbLine
 10
505.899364741863
 20
185.0916574745984
 30
0.0
 11
505.899364741863
 21
186.5916574745984
 31
0.0
  0
LINE
  5
2684
330
1F
100
AcDbEntity
  8
外形
  6
CENTER
 62
     1
 48
0.08
100
AcDbLine
 10
489.2393647418628
 20
185.5916574745983
 30
0.0
 11
489.2393647418628
 21
182.1916574745984
 31
0.0
  0
LINE
  5
2685
330
1F
100
AcDbEntity
  8
外形
  6
CENTER
 62
     1
 48
0.08
100
AcDbLine
 10
500.2393647418628
 20
185.5916574745982
 30
0.0
 11
500.2393647418628
 21
182.1916574745982
 31
0.0
  0
CIRCLE
  5
2686
330
1F
100
AcDbEntity
  8
外形
100
AcDbCircle
 10
500.2393647418628
 20
183.8916574745982
 30
0.0
 40
1.199999999999999
  0
CIRCLE
  5
2687
330
1F
100
AcDbEntity
  8
外形
100
AcDbCircle
 10
489.2393647418629
 20
183.8916574745982
 30
0.0
 40
1.199999999999999
  0
LINE
  5
2688
330
1F
100
AcDbEntity
  8
外形
  6
CENTER
 62
     1
 48
0.08
100
AcDbLine
 10
509.2767233397335
 20
183.8916574745982
 30
0.0
 11
487.5393647418629
 21
183.8916574745983
 31
0.0
  0
LINE
  5
26AE
330
1F
100
AcDbEntity
  8
外形
  6
CENTER
 62
     1
 48
0.08
100
AcDbLine
 10
509.2767233397335
 20
185.8416574745984
 30
0.0
 11
484.579364741863
 21
185.8416574745985
 31
0.0
  0
DIMENSION
  5
26AF
330
1F
100
AcDbEntity
  8
寸法
 62
     5
100
AcDbDimension
  2
*D19
 10
515.2753285542924
 20
185.8416574745984
 30
0.0
 11
514.1753285542923
 21
192.2249908079318
 31
0.0
 70
    32
 71
     5
 42
0.4500000000001592
  3
ISO-25
100
AcDbAlignedDimension
 13
509.2767233397335
 23
185.3916574745982
 33
0.0
 14
509.2767233397335
 24
185.8416574745984
 34
0.0
 50
270.0
100
AcDbRotatedDimension
1001
ACAD
1000
DSTYLE
1002
{
1070
   344
1005
0
1070
   173
1070
     1
1070
   343
1005
22BD
1002
}
  0
CIRCLE
  5
26D4
330
1F
100
AcDbEntity
  8
外形
100
AcDbCircle
 10
505.899364741863
 20
185.8416574745984
 30
0.0
 40
0.5
  0
LINE
  5
26D6
330
1F
100
AcDbEntity
  8
外形
 62
     1
 48
0.08
100
AcDbLine
 10
503.3593647418631
 20
185.0916574745982
 30
0.0
 11
503.3593647418631
 21
186.5916574745982
 31
0.0
  0
CIRCLE
  5
26D7
330
1F
100
AcDbEntity
  8
外形
100
AcDbCircle
 10
503.3593647418631
 20
185.8416574745982
 30
0.0
 40
0.5
  0
LINE
  5
26D8
330
1F
100
AcDbEntity
  8
外形
  6
CENTER
 62
     1
 48
0.08
100
AcDbLine
 10
493.199364741863
 20
185.0916574745984
 30
0.0
 11
493.199364741863
 21
186.5916574745984
 31
0.0
  0
CIRCLE
  5
26D9
330
1F
100
AcDbEntity
  8
外形
100
AcDbCircle
 10
493.199364741863
 20
185.8416574745984
 30
0.0
 40
0.5
  0
LINE
  5
26DA
330
1F
100
AcDbEntity
  8
外形
  6
CENTER
 62
     1
 48
0.08
100
AcDbLine
 10
485.579364741863
 20
185.0916574745982
 30
0.0
 11
485.579364741863
 21
186.5916574745982
 31
0.0
  0
CIRCLE
  5
26DB
330
1F
100
AcDbEntity
  8
外形
100
AcDbCircle
 10
485.579364741863
 20
185.8416574745982
 30
0.0
 40
0.5
  0
DIMENSION
  5
26EE
330
1F
100
AcDbEntity
  8
寸法
 62
     5
100
AcDbDimension
  2
*D20
 10
493.199364741863
 20
200.7916574745982
 30
0.0
 11
498.279364741863
 21
201.8916574745982
 31
0.0
 70
    32
 71
     5
 42
10.16000000000008
  3
ISO-25
100
AcDbAlignedDimension
 13
503.3593647418631
 23
186.5916574745984
 33
0.0
 14
493.199364741863
 24
186.5916574745984
 34
0.0
100
AcDbRotatedDimension
  0
DIMENSION
  5
2704
330
1F
100
AcDbEntity
  8
寸法
 62
     5
100
AcDbDimension
  2
*D21
 10
485.579364741863
 20
200.7916574745982
 30
0.0
 11
489.389364741863
 21
201.8916574745982
 31
0.0
 70
    32
 71
     5
 42
7.620000000000004
  3
ISO-25
100
AcDbAlignedDimension
 13
493.199364741863
 23
186.5916574745984
 33
0.0
 14
485.579364741863
 24
186.5916574745982
 34
0.0
100
AcDbRotatedDimension
  0
DIMENSION
  5
273E
330
1F
100
AcDbEntity
  8
寸法
 62
     5
100
AcDbDimension
  2
*D22
 10
493.199364741863
 20
194.7916574745982
 30
0.0
 11
496.1422087403273
 21
196.0527714028537
 31
0.0
 70
   160
 71
     5
 42
2.54000000000002
  3
ISO-25
100
AcDbAlignedDimension
 13
495.739364741863
 23
188.7916574745982
 33
0.0
 14
493.199364741863
 24
186.5916574745982
 34
0.0
100
AcDbRotatedDimension
1001
ACAD
1000
DSTYLE
1002
{
1070
   279
1070
     2
1070
    44
1040
0.5
1002
}
  0
DIMENSION
  5
277B
330
1F
100
AcDbEntity
  8
寸法
 62
     5
100
AcDbDimension
  2
*D23
 10
495.7393647418628
 20
175.9929816379808
 30
0.0
 11
497.9893647418628
 21
177.0929816379808
 31
0.0
 70
    32
 71
     5
 42
4.5
  3
ISO-25
100
AcDbAlignedDimension
 13
500.2393647418628
 23
182.1916574745982
 33
0.0
 14
495.7393647418628
 24
181.9916574745983
 34
0.0
100
AcDbRotatedDimension
  0
LEADER
  5
27DF
330
1F
100
AcDbEntity
  8
寸法
 62
     5
100
AcDbLeader
  3
ISO-25
 76
     3
 10
500.9175575351367
 20
182.9016804369093
 30
0.0
 10
506.9995076322645
 20
174.0236873348868
 30
0.0
 10
514.699625963693
 20
174.0236873348868
 30
0.0
1001
ACAD
1000
DSTYLE
1002
{
1070
   147
1040
0.2
1070
    77
1070
     0
1002
}
  0
MTEXT
  5
27E0
330
1F
100
AcDbEntity
  8
寸法
 62
     5
100
AcDbMText
 10
511.0342082031087
 20
174.0236873348868
 30
0.0
 40
1.399999999999999
 41
0.0
 71
     8
 72
     1
  1
{\fMS UI Gothic|b0|i0|c128|p17;2-φ2.4}
 73
     2
 44
1.0
  0
CIRCLE
  5
27F7
330
1F
100
AcDbEntity
  8
外形
100
AcDbCircle
 10
486.7807783511671
 20
187.3170423117038
 30
0.0
 40
0.8583831883235575
  0
MTEXT
  5
27F8
330
1F
100
AcDbEntity
  8
外形
100
AcDbMText
 10
486.7807783511671
 20
187.3170423117038
 30
0.0
 40
1.399999999999999
 41
0.5
 71
     5
 72
     5
  1
{\fＭＳ ゴシック|b0|i0|c128|p49;1}
 73
     1
 44
1.0
  0
MTEXT
  5
27FA
330
1F
100
AcDbEntity
  8
外形
100
AcDbMText
 10
491.5813313864525
 20
187.3170423117038
 30
0.0
 40
1.399999999999999
 41
0.5
 71
     5
 72
     5
  1
{\fＭＳ ゴシック|b0|i0|c128|p49;2}
 73
     1
 44
1.0
  0
MTEXT
  5
27FB
330
1F
100
AcDbEntity
  8
外形
100
AcDbMText
 10
501.7129127001377
 20
187.3170423117038
 30
0.0
 40
1.399999999999999
 41
0.5
 71
     5
 72
     5
  1
{\fＭＳ ゴシック|b0|i0|c128|p49;3}
 73
     1
 44
1.0
  0
MTEXT
  5
27FD
330
1F
100
AcDbEntity
  8
外形
100
AcDbMText
 10
504.6837699692117
 20
187.3170423117038
 30
0.0
 40
1.399999999999999
 41
0.5
 71
     5
 72
     5
  1
{\fＭＳ ゴシック|b0|i0|c128|p49;4}
 73
     1
 44
1.0
  0
MTEXT
  5
27FF
330
1F
100
AcDbEntity
  8
外形
100
AcDbMText
 10
453.0714674313242
 20
251.2563891859147
 30
0.0
 40
5.0
 41
29.26236062465665
 71
     5
 72
     5
  1
{\fMS UI Gothic|b0|i0|c128|p17;断面A-A}
 73
     1
 44
1.0
  0
MTEXT
  5
2A74
330
1F
100
AcDbEntity
  8
外形
100
AcDbMText
 10
485.8228474018864
 20
312.2400368469701
 30
0.0
 40
1.399999999999999
 41
0.0
 71
     5
 72
     1
  1
A
 73
     1
 44
1.0
  0
LINE
  5
2A78
330
1F
100
AcDbEntity
  8
外形
100
AcDbLine
 10
490.757488678428
 20
311.3592429907487
 30
0.0
 11
490.757488678428
 21
313.1122134280125
 31
0.0
  0
LEADER
  5
2A79
330
1F
100
AcDbEntity
  8
外形
100
AcDbLeader
  3
ISO-25
 76
     2
 10
490.757488678428
 20
312.2357282093806
 30
0.0
 10
486.6442758892966
 20
312.2357282093806
 30
0.0
  0
DIMENSION
  5
2B57
330
1F
100
AcDbEntity
  8
寸法
 62
     5
100
AcDbDimension
  2
*D24
 10
514.9347463906248
 20
277.247457070988
 30
0.0
 11
513.8347463906247
 21
284.247457070988
 31
0.0
 70
    32
 71
     5
 42
14.0
  3
ISO-25
100
AcDbAlignedDimension
 13
508.9393647418628
 23
291.2474570709879
 33
0.0
 14
508.939364741863
 24
277.247457070988
 34
0.0
 50
90.0
100
AcDbRotatedDimension
  0
DIMENSION
  5
2B9D
330
1F
100
AcDbEntity
  8
寸法
 62
     5
100
AcDbDimension
  2
*D25
 10
493.1993647418629
 20
266.7865357907166
 30
0.0
 11
489.3893647418629
 21
267.8865357907166
 31
0.0
 70
    32
 71
     5
 42
7.620000000000004
  3
ISO-25
100
AcDbAlignedDimension
 13
485.5793647418629
 23
272.7474570709879
 33
0.0
 14
493.1993647418629
 24
272.7474570709879
 34
0.0
100
AcDbRotatedDimension
  0
LEADER
  5
2C3E
330
1F
100
AcDbEntity
  8
寸法
 62
     5
100
AcDbLeader
  3
ISO-25
 76
     2
 10
508.939364741863
 20
266.7865357907166
 30
0.0
 10
517.7060314085299
 20
266.7865357907166
 30
0.0
  0
DIMENSION
  5
2D8D
330
1F
100
AcDbEntity
  8
寸法
 62
     5
100
AcDbDimension
  2
*D28
 10
495.7393647418628
 20
175.9929816379808
 30
0.0
 11
492.4893647418628
 21
177.0929816379808
 31
0.0
 70
    32
 71
     5
 42
6.5
  3
ISO-25
100
AcDbAlignedDimension
 13
489.2393647418628
 23
182.1916574745984
 33
0.0
 14
495.7393647418628
 24
181.9916574745983
 34
0.0
100
AcDbRotatedDimension
  0
DIMENSION
  5
2DB0
330
1F
100
AcDbEntity
  8
寸法
 62
     5
100
AcDbDimension
  2
*D29
 10
515.2753285542924
 20
183.8916574745982
 30
0.0
 11
514.1753285542923
 21
178.3249908079316
 31
0.0
 70
    32
 71
     5
 42
1.500000000000028
  3
ISO-25
100
AcDbAlignedDimension
 13
509.2767233397335
 23
185.3916574745982
 33
0.0
 14
509.2767233397335
 24
183.8916574745982
 34
0.0
 50
90.0
100
AcDbRotatedDimension
1001
ACAD
1000
DSTYLE
1002
{
1070
   173
1070
     1
1070
   343
1005
2C27
1002
}
  0
CIRCLE
  5
2EB9
330
1F
100
AcDbEntity
  8
外形
100
AcDbCircle
 10
491.5813313864525
 20
187.3170423117038
 30
0.0
 40
0.8583831883235575
  0
CIRCLE
  5
2EBA
330
1F
100
AcDbEntity
  8
外形
100
AcDbCircle
 10
501.7129127001377
 20
187.3170423117038
 30
0.0
 40
0.8583831883235575
  0
CIRCLE
  5
2EBB
330
1F
100
AcDbEntity
  8
外形
100
AcDbCircle
 10
504.6837699692117
 20
187.3170423117038
 30
0.0
 40
0.8583831883235575
  0
DIMENSION
  5
2EBC
330
1F
100
AcDbEntity
  8
寸法
 62
     5
100
AcDbDimension
  2
*D30
 10
489.2393647418628
 20
242.4319830865522
 30
0.0
 11
485.8893647418629
 21
243.5319830865522
 31
0.0
 70
    32
 71
     5
 42
6.699999999999988
  3
ISO-25
100
AcDbAlignedDimension
 13
482.5393647418628
 23
236.7048219356897
 33
0.0
 14
489.2393647418628
 24
236.5048219356896
 34
0.0
100
AcDbRotatedDimension
  0
DIMENSION
  5
2EDB
330
1F
100
AcDbEntity
  8
寸法
 62
     5
100
AcDbDimension
  2
*D31
 10
516.3122088835309
 20
233.3048219356897
 30
0.0
 11
515.2122088835309
 21
227.7381552690231
 31
0.0
 70
    32
 71
     5
 42
1.5
  3
ISO-25
100
AcDbAlignedDimension
 13
509.2767233397335
 23
234.8048219356897
 33
0.0
 14
510.3905090014846
 24
233.3048219356897
 34
0.0
 50
90.0
100
AcDbRotatedDimension
  0
CIRCLE
  5
2EEA
330
1F
100
AcDbEntity
  8
外形
100
AcDbCircle
 10
487.3762792824603
 20
273.2692029545883
 30
0.0
 40
0.8583831883235575
  0
CIRCLE
  5
2EEB
330
1F
100
AcDbEntity
  8
外形
100
AcDbCircle
 10
501.7511521252465
 20
273.2692029545883
 30
0.0
 40
0.8583831883235575
  0
CIRCLE
  5
2EEC
330
1F
100
AcDbEntity
  8
外形
100
AcDbCircle
 10
504.6837699692117
 20
273.2692029545883
 30
0.0
 40
0.8583831883235575
  0
LINE
  5
2EED
330
1F
100
AcDbEntity
  8
外形
100
AcDbLine
 10
485.179364741863
 20
286.071976303606
 30
0.0
 11
485.1793647418631
 21
285.2974570709879
 31
0.0
  0
LINE
  5
2EEE
330
1F
100
AcDbEntity
  8
外形
100
AcDbLine
 10
485.9793647418633
 20
286.0719763036058
 30
0.0
 11
485.9793647418634
 21
285.2974570709879
 31
0.0
  0
LINE
  5
2EF2
330
1F
100
AcDbEntity
  8
外形
100
AcDbLine
 10
485.1793647418631
 20
285.2974570709879
 30
0.0
 11
484.679364741863
 21
285.097457070988
 31
0.0
  0
LINE
  5
2EF6
330
1F
100
AcDbEntity
  8
外形
100
AcDbLine
 10
485.9793647418634
 20
285.2974570709879
 30
0.0
 11
486.4793647418633
 21
285.097457070988
 31
0.0
  0
LINE
  5
2EF7
330
1F
100
AcDbEntity
  8
外形
100
AcDbLine
 10
485.9793647418634
 20
281.3724570709882
 30
0.0
 11
485.9793647418634
 21
280.1224570709881
 31
0.0
  0
MTEXT
  5
2F01
330
1F
100
AcDbEntity
  8
外形
100
AcDbMText
 10
485.8228474018864
 20
256.1581274011859
 30
0.0
 40
1.399999999999999
 41
0.0
 71
     5
 72
     1
  1
A
 73
     1
 44
1.0
  0
LINE
  5
2F02
330
1F
100
AcDbEntity
  8
外形
100
AcDbLine
 10
490.757488678428
 20
255.2773335449645
 30
0.0
 11
490.757488678428
 21
257.0303039822283
 31
0.0
  0
LEADER
  5
2F03
330
1F
100
AcDbEntity
  8
外形
100
AcDbLeader
  3
ISO-25
 76
     2
 10
490.757488678428
 20
256.1538187635964
 30
0.0
 10
486.6442758892966
 20
256.1538187635964
 30
0.0
  0
CIRCLE
  5
2F0C
330
1F
100
AcDbEntity
  8
外形
100
AcDbCircle
 10
491.722772054226
 20
273.2692029545883
 30
0.0
 40
0.8583831883235575
  0
MTEXT
  5
2F0D
330
1F
100
AcDbEntity
  8
外形
100
AcDbMText
 10
491.722772054226
 20
273.2692029545883
 30
0.0
 40
1.399999999999999
 41
0.5
 71
     5
 72
     5
  1
{\fＭＳ ゴシック|b0|i0|c128|p49;2}
 73
     1
 44
1.0
  0
VIEWPORT
  5
2D8
102
{ACAD_XDICTIONARY
360
305
102
}
330
2D1
100
AcDbEntity
 67
     1
  8
0
 62
     5
100
AcDbViewport
 10
100.173531863264
 20
143.6899082421464
 30
0.0
 40
381.4598271794151
 41
290.6624227419346
 68
     1
 69
     1
 12
100.173531863264
 22
143.6899082421464
 13
0.0
 23
0.0
 14
10.0
 24
10.0
 15
10.0
 25
10.0
 16
0.0
 26
0.0
 36
1.0
 17
0.0
 27
0.0
 37
0.0
 42
50.0
 43
0.0
 44
0.0
 45
290.6624227419346
 50
0.0
 51
0.0
 72
   100
 90
    32800
  1

281
     0
 71
     1
 74
     0
110
0.0
120
0.0
130
0.0
111
1.0
121
0.0
131
0.0
112
0.0
122
1.0
132
0.0
 79
     0
146
0.0
  0
VIEWPORT
  5
2810
330
2D1
100
AcDbEntity
 67
     1
  8
寸法
 62
     5
100
AcDbViewport
 10
100.1712510585784
 20
143.6899168491363
 30
0.0
 40
200.3425021171569
 41
287.3798336982726
 68
     2
 69
     2
 12
491.7541839095597
 22
274.611640532469
 13
0.0
 23
0.0
 14
10.0
 24
10.0
 15
10.0
 25
10.0
 16
0.0
 26
0.0
 36
1.0
 17
0.0
 27
0.0
 37
0.0
 42
50.0
 43
0.0
 44
0.0
 45
136.0479363543378
 50
0.0
 51
0.0
 72
   100
 90
    32864
  1

281
     0
 71
     1
 74
     0
110
0.0
120
0.0
130
0.0
111
1.0
121
0.0
131
0.0
112
0.0
122
1.0
132
0.0
 79
     0
146
0.0
  0
ENDSEC
  0
SECTION
  2
OBJECTS
  0
DICTIONARY
  5
C
330
0
100
AcDbDictionary
281
     1
  3
ACAD_COLOR
350
2EC
  3
ACAD_GROUP
350
D
  3
ACAD_LAYOUT
350
1A
  3
ACAD_MATERIAL
350
2EB
  3
ACAD_MLINESTYLE
350
17
  3
ACAD_PLOTSETTINGS
350
19
  3
ACAD_PLOTSTYLENAME
350
E
  3
ACAD_TABLESTYLE
350
2F4
  3
AcadDim
350
11D0
  3
AcDbVariableDictionary
350
309
  0
DICTIONARY
  5
305
330
2D8
100
AcDbDictionary
280
     1
281
     1
  3
ACAD_XREC_ROUNDTRIP
360
306
  0
DICTIONARY
  5
2EC
102
{ACAD_REACTORS
330
C
102
}
330
C
100
AcDbDictionary
281
     1
  0
DICTIONARY
  5
D
102
{ACAD_REACTORS
330
C
102
}
330
C
100
AcDbDictionary
281
     1
  0
DICTIONARY
  5
1A
102
{ACAD_REACTORS
330
C
102
}
330
C
100
AcDbDictionary
281
     1
  3
Model
350
22
  3
ﾚｲｱｳﾄ2
350
2D2
  0
DICTIONARY
  5
2EB
102
{ACAD_REACTORS
330
C
102
}
330
C
100
AcDbDictionary
281
     1
  0
DICTIONARY
  5
17
102
{ACAD_REACTORS
330
C
102
}
330
C
100
AcDbDictionary
281
     1
  3
Standard
350
18
  0
DICTIONARY
  5
19
102
{ACAD_REACTORS
330
C
102
}
330
C
100
AcDbDictionary
281
     1
  0
ACDBDICTIONARYWDFLT
  5
E
102
{ACAD_REACTORS
330
C
102
}
330
C
100
AcDbDictionary
281
     1
  3
Normal
350
F
100
AcDbDictionaryWithDefault
340
F
  0
DICTIONARY
  5
2F4
102
{ACAD_REACTORS
330
C
102
}
330
C
100
AcDbDictionary
281
     1
  3
Standard
350
2F5
  0
XRECORD
  5
11D0
102
{ACAD_REACTORS
330
C
102
}
330
C
100
AcDbXrecord
280
     1
 90
   990106
  3

 60
     0
 61
     0
 62
     1
 63
     3
 64
     0
 65
     0
 66
     1
 67
     6
 68
     1
 69
     0
 70
     0
 71
     0
 72
     0
 40
0.0
170
     1
  0
DICTIONARY
  5
309
102
{ACAD_REACTORS
330
C
102
}
330
C
100
AcDbDictionary
281
     1
  3
CTABLESTYLE
350
30A
  3
DIMASSOC
350
30B
  3
PROJECTNAME
350
30C
  0
XRECORD
  5
306
102
{ACAD_REACTORS
330
305
102
}
330
305
100
AcDbXrecord
280
     1
102
SHADEPLOT
 70
     0
  0
LAYOUT
  5
22
102
{ACAD_XDICTIONARY
360
301
102
}
102
{ACAD_REACTORS
330
1A
102
}
330
1A
100
AcDbPlotSettings
  1

  2
Canon LBP-1420(RYU)
  4
A4
  6
VIEW1
 40
5.873749732971191
 41
5.873747825622558
 42
5.873748779296875
 43
5.873748779296875
 44
209.9733276367187
 45
296.9259948730469
 46
14.67
 47
-3.64
 48
435.9661520543615
 49
170.6591087381971
140
537.3005948676156
141
346.1398252664565
142
1.0
143
0.6
 70
 11428
 72
     1
 73
     0
 74
     4
  7
monochrome.ctb
 75
     0
147
1.666666666666666
148
-435.9661520543615
149
-170.6591087381971
100
AcDbLayout
  1
Model
 70
     1
 71
     0
 10
0.0
 20
0.0
 11
12.0
 21
9.0
 12
0.0
 22
0.0
 32
0.0
 14
0.0
 24
0.0
 34
0.0
 15
0.0
 25
0.0
 35
0.0
146
0.0
 13
0.0
 23
0.0
 33
0.0
 16
1.0
 26
0.0
 36
0.0
 17
0.0
 27
1.0
 37
0.0
 76
     0
330
1F
  0
LAYOUT
  5
2D2
102
{ACAD_XDICTIONARY
360
303
102
}
102
{ACAD_REACTORS
330
1A
102
}
330
1A
100
AcDbPlotSettings
  1

  2
none_device
  4
none_user_media
  6

 40
4.773083209991455
 41
4.773089885711669
 42
4.857742309570312
 43
4.7730712890625
 44
209.9733276367187
 45
296.9259948730469
 46
0.0
 47
0.0
 48
0.0
 49
0.0
140
0.0
141
0.0
142
1.0
143
1.0
 70
   688
 72
     1
 73
     0
 74
     5
  7
monochrome.ctb
 75
    16
147
1.0
148
0.0
149
0.0
100
AcDbLayout
  1
ﾚｲｱｳﾄ2
 70
     1
 71
     1
 10
-4.773083209991455
 20
-4.773089885711669
 11
205.2002444267273
 21
292.1529049873352
 12
0.0
 22
0.0
 32
0.0
 14
-0.0056219074012347
 24
-0.0022293163663107
 34
-0.0000000000112498
 15
200.3526856339293
 25
287.3820458006592
 35
0.0000000000002956
146
0.0
 13
0.0
 23
0.0
 33
0.0
 16
1.0
 26
0.0
 36
0.0
 17
0.0
 27
1.0
 37
0.0
 76
     0
330
2D1
331
2D8
  0
MLINESTYLE
  5
18
102
{ACAD_REACTORS
330
17
102
}
330
17
100
AcDbMlineStyle
  2
STANDARD
 70
     0
  3

 62
   256
 51
90.0
 52
90.0
 71
     2
 49
0.5
 62
   256
  6
BYLAYER
 49
-0.5
 62
   256
  6
BYLAYER
  0
ACDBPLACEHOLDER
  5
F
102
{ACAD_REACTORS
330
E
102
}
330
E
  0
ACAD_PROXY_OBJECT
  5
2F5
102
{ACAD_REACTORS
330
2F4
102
}
330
2F4
100
AcDbProxyObject
 90
      499
 91
      503
 95
   655383
 70
     0
 93
     1841
310
4214DD185B99185C9928000000000000F83F0000000000003E0FC00000000000004901028000000C1008070000C3001FDFF8000000C1003FBFF000000182007F7FE00000030400FEFFC00000060801FDFF8000000C1003FBFF000000182000000000000000C2020B0000001820100E000186003FBFF000000182007F7FE000
310
00030400FEFFC00000060801FDFF8000000C1003FBFF000000182007F7FE0000003040000000000000012404160000003040201C00030C007F7FE00000030400FEFFC00000060801FDFF8000000C1003FBFF000000182007F7FE00000030400FEFFC000000608000
340
11
340
11
340
11
 94
        0
  0
DICTIONARYVAR
  5
30A
102
{ACAD_REACTORS
330
309
102
}
330
309
100
DictionaryVariables
280
     0
  1
STANDARD
  0
DICTIONARYVAR
  5
30B
102
{ACAD_REACTORS
330
309
102
}
330
309
100
DictionaryVariables
280
     0
  1
1
  0
DICTIONARYVAR
  5
30C
102
{ACAD_REACTORS
330
309
102
}
330
309
100
DictionaryVariables
280
     0
  1

  0
DICTIONARY
  5
301
330
22
100
AcDbDictionary
280
     1
281
     1
  3
ACAD_XREC_ROUNDTRIP
360
302
  0
DICTIONARY
  5
303
330
2D2
100
AcDbDictionary
280
     1
281
     1
  3
ACAD_XREC_ROUNDTRIP
360
304
  0
XRECORD
  5
302
102
{ACAD_REACTORS
330
301
102
}
330
301
100
AcDbXrecord
280
     1
102
SHADEPLOT
 70
     0
102
SHADEPLOTRESLEVEL
 70
     2
102
SHADEPLOTCUSTOMDPI
 70
   300
  0
XRECORD
  5
304
102
{ACAD_REACTORS
330
303
102
}
330
303
100
AcDbXrecord
280
     1
102
SHADEPLOT
 70
     0
102
SHADEPLOTRESLEVEL
 70
     2
102
SHADEPLOTCUSTOMDPI
 70
   300
  0
ENDSEC
  0
EOF
