  0
SECTION
  2
HEADER
  9
$ACADVER
  1
AC1015
  9
$ACADMAINTVER
 70
    10
  9
$DWGCODEPAGE
  3
ANSI_932
  9
$INSBASE
 10
0.0
 20
0.0
 30
0.0
  9
$EXTMIN
 10
453.400356209026
 20
224.8007123675846
 30
0.0
  9
$EXTMAX
 10
535.7988327998491
 20
330.2724890185031
 30
0.0
  9
$LIMMIN
 10
0.0
 20
0.0
  9
$LIMMAX
 10
420.0
 20
297.0
  9
$ORTHOMODE
 70
     1
  9
$REGENMODE
 70
     1
  9
$FILLMODE
 70
     1
  9
$QTEXTMODE
 70
     0
  9
$MIRRTEXT
 70
     1
  9
$LTSCALE
 40
1.0
  9
$ATTMODE
 70
     1
  9
$TEXTSIZE
 40
2.5
  9
$TRACEWID
 40
1.0
  9
$TEXTSTYLE
  7
Standard
  9
$CLAYER
  8
寸法
  9
$CELTYPE
  6
ByLayer
  9
$CECOLOR
 62
     5
  9
$CELTSCALE
 40
1.0
  9
$DISPSILH
 70
     0
  9
$DIMSCALE
 40
2.0
  9
$DIMASZ
 40
1.0
  9
$DIMEXO
 40
0.2
  9
$DIMDLI
 40
3.75
  9
$DIMRND
 40
0.0
  9
$DIMDLE
 40
0.0
  9
$DIMEXE
 40
0.5
  9
$DIMTP
 40
0.0
  9
$DIMTM
 40
0.0
  9
$DIMTXT
 40
0.7
  9
$DIMCEN
 40
2.5
  9
$DIMTSZ
 40
0.0
  9
$DIMTOL
 70
     0
  9
$DIMLIM
 70
     0
  9
$DIMTIH
 70
     0
  9
$DIMTOH
 70
     0
  9
$DIMSE1
 70
     0
  9
$DIMSE2
 70
     0
  9
$DIMTAD
 70
     1
  9
$DIMZIN
 70
     9
  9
$DIMBLK
  1

  9
$DIMASO
 70
     1
  9
$DIMSHO
 70
     1
  9
$DIMPOST
  1

  9
$DIMAPOST
  1

  9
$DIMALT
 70
     0
  9
$DIMALTD
 70
     3
  9
$DIMALTF
 40
0.03937007874016
  9
$DIMLFAC
 40
1.0
  9
$DIMTOFL
 70
     1
  9
$DIMTVP
 40
0.0
  9
$DIMTIX
 70
     0
  9
$DIMSOXD
 70
     0
  9
$DIMSAH
 70
     0
  9
$DIMBLK1
  1

  9
$DIMBLK2
  1

  9
$DIMSTYLE
  2
ISO-25
  9
$DIMCLRD
 70
     0
  9
$DIMCLRE
 70
     0
  9
$DIMCLRT
 70
     0
  9
$DIMTFAC
 40
1.0
  9
$DIMGAP
 40
0.2
  9
$DIMJUST
 70
     0
  9
$DIMSD1
 70
     0
  9
$DIMSD2
 70
     0
  9
$DIMTOLJ
 70
     0
  9
$DIMTZIN
 70
     8
  9
$DIMALTZ
 70
     0
  9
$DIMALTTZ
 70
     0
  9
$DIMUPT
 70
     0
  9
$DIMDEC
 70
     2
  9
$DIMTDEC
 70
     2
  9
$DIMALTU
 70
     2
  9
$DIMALTTD
 70
     3
  9
$DIMTXSTY
  7
Standard
  9
$DIMAUNIT
 70
     0
  9
$DIMADEC
 70
     1
  9
$DIMALTRND
 40
0.0
  9
$DIMAZIN
 70
     1
  9
$DIMDSEP
 70
    46
  9
$DIMATFIT
 70
     3
  9
$DIMFRAC
 70
     0
  9
$DIMLDRBLK
  1

  9
$DIMLUNIT
 70
     2
  9
$DIMLWD
 70
    -2
  9
$DIMLWE
 70
    -2
  9
$DIMTMOVE
 70
     0
  9
$LUNITS
 70
     2
  9
$LUPREC
 70
     4
  9
$SKETCHINC
 40
1.0
  9
$FILLETRAD
 40
0.5
  9
$AUNITS
 70
     0
  9
$AUPREC
 70
     0
  9
$MENU
  1
.
  9
$ELEVATION
 40
0.0
  9
$PELEVATION
 40
0.0
  9
$THICKNESS
 40
0.0
  9
$LIMCHECK
 70
     0
  9
$CHAMFERA
 40
0.0
  9
$CHAMFERB
 40
0.0
  9
$CHAMFERC
 40
20.0
  9
$CHAMFERD
 40
0.0
  9
$SKPOLY
 70
     0
  9
$TDCREATE
 40
2453483.907673240
  9
$TDUCREATE
 40
2453483.532673240
  9
$TDUPDATE
 40
2453518.754909572
  9
$TDUUPDATE
 40
2453518.379909572
  9
$TDINDWG
 40
0.3644876273
  9
$TDUSRTIMER
 40
0.3644874421
  9
$USRTIMER
 70
     1
  9
$ANGBASE
 50
0.0
  9
$ANGDIR
 70
     0
  9
$PDMODE
 70
     0
  9
$PDSIZE
 40
0.0
  9
$PLINEWID
 40
0.0
  9
$SPLFRAME
 70
     0
  9
$SPLINETYPE
 70
     6
  9
$SPLINESEGS
 70
     8
  9
$HANDSEED
  5
2743
  9
$SURFTAB1
 70
     6
  9
$SURFTAB2
 70
     6
  9
$SURFTYPE
 70
     6
  9
$SURFU
 70
     6
  9
$SURFV
 70
     6
  9
$UCSBASE
  2

  9
$UCSNAME
  2

  9
$UCSORG
 10
0.0
 20
0.0
 30
0.0
  9
$UCSXDIR
 10
1.0
 20
0.0
 30
0.0
  9
$UCSYDIR
 10
0.0
 20
1.0
 30
0.0
  9
$UCSORTHOREF
  2

  9
$UCSORTHOVIEW
 70
     0
  9
$UCSORGTOP
 10
0.0
 20
0.0
 30
0.0
  9
$UCSORGBOTTOM
 10
0.0
 20
0.0
 30
0.0
  9
$UCSORGLEFT
 10
0.0
 20
0.0
 30
0.0
  9
$UCSORGRIGHT
 10
0.0
 20
0.0
 30
0.0
  9
$UCSORGFRONT
 10
0.0
 20
0.0
 30
0.0
  9
$UCSORGBACK
 10
0.0
 20
0.0
 30
0.0
  9
$PUCSBASE
  2

  9
$PUCSNAME
  2

  9
$PUCSORG
 10
0.0
 20
0.0
 30
0.0
  9
$PUCSXDIR
 10
1.0
 20
0.0
 30
0.0
  9
$PUCSYDIR
 10
0.0
 20
1.0
 30
0.0
  9
$PUCSORTHOREF
  2

  9
$PUCSORTHOVIEW
 70
     0
  9
$PUCSORGTOP
 10
0.0
 20
0.0
 30
0.0
  9
$PUCSORGBOTTOM
 10
0.0
 20
0.0
 30
0.0
  9
$PUCSORGLEFT
 10
0.0
 20
0.0
 30
0.0
  9
$PUCSORGRIGHT
 10
0.0
 20
0.0
 30
0.0
  9
$PUCSORGFRONT
 10
0.0
 20
0.0
 30
0.0
  9
$PUCSORGBACK
 10
0.0
 20
0.0
 30
0.0
  9
$USERI1
 70
     0
  9
$USERI2
 70
     0
  9
$USERI3
 70
     0
  9
$USERI4
 70
     0
  9
$USERI5
 70
     0
  9
$USERR1
 40
0.0
  9
$USERR2
 40
0.0
  9
$USERR3
 40
0.0
  9
$USERR4
 40
0.0
  9
$USERR5
 40
0.0
  9
$WORLDVIEW
 70
     1
  9
$SHADEDGE
 70
     3
  9
$SHADEDIF
 70
    70
  9
$TILEMODE
 70
     1
  9
$MAXACTVP
 70
    64
  9
$PINSBASE
 10
0.0
 20
0.0
 30
0.0
  9
$PLIMCHECK
 70
     0
  9
$PEXTMIN
 10
-0.0178631789239034
 20
-0.0022293163663107
 30
-0.0000000349181948
  9
$PEXTMAX
 10
200.3605709805018
 20
287.3820458006592
 30
0.0000000814935746
  9
$PLIMMIN
 10
-4.773083209991455
 20
-4.773089885711669
  9
$PLIMMAX
 10
205.2002444267273
 20
292.1529049873352
  9
$UNITMODE
 70
     0
  9
$VISRETAIN
 70
     1
  9
$PLINEGEN
 70
     0
  9
$PSLTSCALE
 70
     1
  9
$TREEDEPTH
 70
  3020
  9
$CMLSTYLE
  2
Standard
  9
$CMLJUST
 70
     0
  9
$CMLSCALE
 40
20.0
  9
$PROXYGRAPHICS
 70
     1
  9
$MEASUREMENT
 70
     1
  9
$CELWEIGHT
370
    -1
  9
$ENDCAPS
280
     0
  9
$JOINSTYLE
280
     0
  9
$LWDISPLAY
290
     0
  9
$INSUNITS
 70
     4
  9
$HYPERLINKBASE
  1

  9
$STYLESHEET
  1
monochrome.ctb
  9
$XEDIT
290
     1
  9
$CEPSNTYPE
380
     0
  9
$PSTYLEMODE
290
     1
  9
$FINGERPRINTGUID
  2
{FDEAD578-A652-11D2-9A35-0060089B3A3F}
  9
$VERSIONGUID
  2
{7148018D-01B6-4722-9093-231D669B369A}
  9
$EXTNAMES
290
     1
  9
$PSVPSCALE
 40
0.0
  9
$OLESTARTUP
290
     0
  0
ENDSEC
  0
SECTION
  2
CLASSES
  0
CLASS
  1
ACDBDICTIONARYWDFLT
  2
AcDbDictionaryWithDefault
  3
AutoCAD 2000
 90
        0
280
     0
281
     0
  0
CLASS
  1
ACDBPLACEHOLDER
  2
AcDbPlaceHolder
  3
AutoCAD 2000
 90
        0
280
     0
281
     0
  0
CLASS
  1
LAYOUT
  2
AcDbLayout
  3
AutoCAD 2000
 90
        0
280
     0
281
     0
  0
CLASS
  1
TABLESTYLE
  2
AcDbTableStyle
  3
ObjectDBX Classes
 90
     2047
280
     0
281
     0
  0
CLASS
  1
DICTIONARYVAR
  2
AcDbDictionaryVar
  3
AutoCAD 2000
 90
        0
280
     0
281
     0
  0
CLASS
  1
IMAGEDEF
  2
AcDbRasterImageDef
  3
ISM
 90
        0
280
     0
281
     0
  0
CLASS
  1
RASTERVARIABLES
  2
AcDbRasterVariables
  3
ISM
 90
        0
280
     0
281
     0
  0
CLASS
  1
IMAGEDEF_REACTOR
  2
AcDbRasterImageDefReactor
  3
ISM
 90
    32769
280
     0
281
     0
  0
CLASS
  1
IMAGE
  2
AcDbRasterImage
  3
ISM
 90
    32895
280
     0
281
     1
  0
ENDSEC
  0
SECTION
  2
TABLES
  0
TABLE
  2
VPORT
  5
8
330
0
100
AcDbSymbolTable
 70
     2
  0
VPORT
  5
2742
330
8
100
AcDbSymbolTableRecord
100
AcDbViewportTableRecord
  2
*Active
 70
     0
 10
0.0
 20
0.0
 11
1.0
 21
1.0
 12
495.1767059312198
 22
276.434142829252
 13
0.0
 23
0.0
 14
10.0
 24
10.0
 15
10.0
 25
10.0
 16
0.0
 26
0.0
 36
1.0
 17
0.0
 27
0.0
 37
0.0
 40
109.8993796561235
 41
1.561128526645767
 42
50.0
 43
0.0
 44
0.0
 50
0.0
 51
0.0
 71
     0
 72
   100
 73
     1
 74
     3
 75
     0
 76
     0
 77
     0
 78
     0
281
     0
 65
     1
110
0.0
120
0.0
130
0.0
111
1.0
121
0.0
131
0.0
112
0.0
122
1.0
132
0.0
 79
     0
146
0.0
  0
ENDTAB
  0
TABLE
  2
LTYPE
  5
5
330
0
100
AcDbSymbolTable
 70
     2
  0
LTYPE
  5
14
330
5
100
AcDbSymbolTableRecord
100
AcDbLinetypeTableRecord
  2
ByBlock
 70
     0
  3

 72
    65
 73
     0
 40
0.0
  0
LTYPE
  5
15
330
5
100
AcDbSymbolTableRecord
100
AcDbLinetypeTableRecord
  2
ByLayer
 70
     0
  3

 72
    65
 73
     0
 40
0.0
  0
LTYPE
  5
16
330
5
100
AcDbSymbolTableRecord
100
AcDbLinetypeTableRecord
  2
Continuous
 70
     0
  3
Solid line
 72
    65
 73
     0
 40
0.0
  0
LTYPE
  5
1FEA
330
5
100
AcDbSymbolTableRecord
100
AcDbLinetypeTableRecord
  2
CENTER
 70
     0
  3
Center ____ _ ____ _ ____ _ ____ _ ____ _ ____
 72
    65
 73
     4
 40
50.8
 49
31.75
 74
     0
 49
-6.349999999999998
 74
     0
 49
6.349999999999998
 74
     0
 49
-6.349999999999998
 74
     0
  0
ENDTAB
  0
TABLE
  2
LAYER
  5
2
330
0
100
AcDbSymbolTable
 70
     4
  0
LAYER
  5
10
330
2
100
AcDbSymbolTableRecord
100
AcDbLayerTableRecord
  2
0
 70
     0
 62
     7
  6
Continuous
370
    -3
390
F
  0
LAYER
  5
64
330
2
100
AcDbSymbolTableRecord
100
AcDbLayerTableRecord
  2
外形
 70
     0
 62
     7
  6
Continuous
370
    -3
390
F
  0
LAYER
  5
65
330
2
100
AcDbSymbolTableRecord
100
AcDbLayerTableRecord
  2
寸法
 70
     0
 62
     7
  6
Continuous
370
    -3
390
F
  0
LAYER
  5
E3
330
2
100
AcDbSymbolTableRecord
100
AcDbLayerTableRecord
  2
Defpoints
 70
     0
 62
     7
  6
Continuous
290
     0
370
    -3
390
F
  0
ENDTAB
  0
TABLE
  2
STYLE
  5
3
330
0
100
AcDbSymbolTable
 70
     1
  0
STYLE
  5
11
330
3
100
AcDbSymbolTableRecord
100
AcDbTextStyleTableRecord
  2
Standard
 70
     0
 40
0.0
 41
1.0
 50
0.0
 71
     0
 42
2.5
  3
txt
  4

  0
ENDTAB
  0
TABLE
  2
VIEW
  5
6
330
0
100
AcDbSymbolTable
 70
     0
  0
ENDTAB
  0
TABLE
  2
UCS
  5
7
330
0
100
AcDbSymbolTable
 70
     0
  0
ENDTAB
  0
TABLE
  2
APPID
  5
9
330
0
100
AcDbSymbolTable
 70
     2
  0
APPID
  5
12
330
9
100
AcDbSymbolTableRecord
100
AcDbRegAppTableRecord
  2
ACAD
 70
     0
  0
APPID
  5
313
330
9
100
AcDbSymbolTableRecord
100
AcDbRegAppTableRecord
  2
QDRX_VIEW
 70
     0
  0
ENDTAB
  0
TABLE
  2
DIMSTYLE
  5
A
330
0
100
AcDbSymbolTable
 70
     1
100
AcDbDimStyleTable
 71
     1
340
27
  0
DIMSTYLE
105
27
102
{ACAD_REACTORS
330
455
330
4BF
330
53C
330
53A
330
53B
330
840
330
744
330
454
330
21AE
330
2310
330
1B02
102
}
330
A
100
AcDbSymbolTableRecord
100
AcDbDimStyleTableRecord
  2
ISO-25
 70
     0
 40
2.0
 41
1.0
 42
0.2
 43
3.75
 44
0.5
 73
     0
 74
     0
 77
     1
 78
     9
 79
     1
140
0.7
141
2.5
143
0.03937007874016
147
0.2
171
     3
172
     1
179
     1
271
     2
272
     2
274
     3
283
     0
284
     8
340
11
  0
ENDTAB
  0
TABLE
  2
BLOCK_RECORD
  5
1
330
0
100
AcDbSymbolTable
 70
    10
  0
BLOCK_RECORD
  5
1F
330
1
100
AcDbSymbolTableRecord
100
AcDbBlockTableRecord
  2
*Model_Space
340
22
  0
BLOCK_RECORD
  5
2D1
330
1
100
AcDbSymbolTableRecord
100
AcDbBlockTableRecord
  2
*Paper_Space
340
2D2
  0
BLOCK_RECORD
  5
456
330
1
100
AcDbSymbolTableRecord
100
AcDbBlockTableRecord
  2
*D0
340
0
  0
BLOCK_RECORD
  5
462
330
1
100
AcDbSymbolTableRecord
100
AcDbBlockTableRecord
  2
*D1
340
0
  0
BLOCK_RECORD
  5
4C3
330
1
100
AcDbSymbolTableRecord
100
AcDbBlockTableRecord
  2
*D2
340
0
  0
BLOCK_RECORD
  5
53D
330
1
100
AcDbSymbolTableRecord
100
AcDbBlockTableRecord
  2
*D3
340
0
  0
BLOCK_RECORD
  5
549
330
1
100
AcDbSymbolTableRecord
100
AcDbBlockTableRecord
  2
*D4
340
0
  0
BLOCK_RECORD
  5
555
330
1
100
AcDbSymbolTableRecord
100
AcDbBlockTableRecord
  2
*D5
340
0
  0
BLOCK_RECORD
  5
745
330
1
100
AcDbSymbolTableRecord
100
AcDbBlockTableRecord
  2
*D6
340
0
  0
BLOCK_RECORD
  5
841
330
1
100
AcDbSymbolTableRecord
100
AcDbBlockTableRecord
  2
*D7
340
0
  0
BLOCK_RECORD
  5
21AF
330
1
100
AcDbSymbolTableRecord
100
AcDbBlockTableRecord
  2
*D8
340
0
  0
BLOCK_RECORD
  5
2311
330
1
100
AcDbSymbolTableRecord
100
AcDbBlockTableRecord
  2
*D9
340
0
  0
ENDTAB
  0
ENDSEC
  0
SECTION
  2
BLOCKS
  0
BLOCK
  5
20
330
1F
100
AcDbEntity
  8
0
100
AcDbBlockBegin
  2
*Model_Space
 70
     0
 10
0.0
 20
0.0
 30
0.0
  3
*Model_Space
  1

  0
ENDBLK
  5
21
330
1F
100
AcDbEntity
  8
0
100
AcDbBlockEnd
  0
BLOCK
  5
2D3
330
2D1
100
AcDbEntity
 67
     1
  8
0
 62
     5
100
AcDbBlockBegin
  2
*Paper_Space
 70
     0
 10
0.0
 20
0.0
 30
0.0
  3
*Paper_Space
  1

  0
ENDBLK
  5
2D4
330
2D1
100
AcDbEntity
 67
     1
  8
0
 62
     5
100
AcDbBlockEnd
  0
BLOCK
  5
460
330
456
100
AcDbEntity
  8
0
 62
     5
100
AcDbBlockBegin
  2
*D0
 70
     1
 10
0.0
 20
0.0
 30
0.0
  3
*D0
  1

  0
LINE
  5
26A9
330
456
100
AcDbEntity
  8
寸法
 62
     0
370
    -2
100
AcDbLine
 10
502.8681320752037
 20
308.2474570709881
 30
0.0
 11
509.6333125618481
 21
308.2474570709881
 31
0.0
  0
LINE
  5
26AA
330
456
100
AcDbEntity
  8
寸法
 62
     0
370
    -2
100
AcDbLine
 10
502.8681320752037
 20
277.2474570709881
 30
0.0
 11
509.6333125618481
 21
277.2474570709881
 31
0.0
  0
LINE
  5
26AB
330
456
100
AcDbEntity
  8
寸法
 62
     0
370
    -2
100
AcDbLine
 10
508.6333125618481
 20
306.2474570709881
 30
0.0
 11
508.6333125618481
 21
279.2474570709881
 31
0.0
  0
SOLID
  5
26AC
330
456
100
AcDbEntity
  8
寸法
 62
     0
100
AcDbTrace
 10
508.2999792285148
 20
306.2474570709881
 30
0.0
 11
508.9666458951814
 21
306.2474570709881
 31
0.0
 12
508.6333125618481
 22
308.2474570709881
 32
0.0
 13
508.6333125618481
 23
308.2474570709881
 33
0.0
  0
SOLID
  5
26AD
330
456
100
AcDbEntity
  8
寸法
 62
     0
100
AcDbTrace
 10
508.2999792285148
 20
279.2474570709881
 30
0.0
 11
508.9666458951814
 21
279.2474570709881
 31
0.0
 12
508.6333125618481
 22
277.2474570709881
 32
0.0
 13
508.6333125618481
 23
277.2474570709881
 33
0.0
  0
MTEXT
  5
26AE
330
456
100
AcDbEntity
  8
寸法
 62
     0
100
AcDbMText
 10
507.533312561848
 20
292.7474570709881
 30
0.0
 40
1.399999999999999
 41
0.0
 71
     5
 72
     1
  1
31(Max)
 11
0.0000000000000001
 21
1.0
 31
0.0
 73
     1
 44
1.0
  0
POINT
  5
26AF
330
456
100
AcDbEntity
  8
Defpoints
 62
     0
100
AcDbPoint
 10
502.4681320752036
 20
308.2474570709881
 30
0.0
  0
POINT
  5
26B0
330
456
100
AcDbEntity
  8
Defpoints
 62
     0
100
AcDbPoint
 10
502.4681320752036
 20
277.2474570709881
 30
0.0
  0
POINT
  5
26B1
330
456
100
AcDbEntity
  8
Defpoints
 62
     0
100
AcDbPoint
 10
508.6333125618481
 20
277.2474570709881
 30
0.0
  0
ENDBLK
  5
461
330
456
100
AcDbEntity
  8
0
 62
     5
100
AcDbBlockEnd
  0
BLOCK
  5
46C
330
462
100
AcDbEntity
  8
0
 62
     5
100
AcDbBlockBegin
  2
*D1
 70
     1
 10
0.0
 20
0.0
 30
0.0
  3
*D1
  1

  0
LINE
  5
26A0
330
462
100
AcDbEntity
  8
寸法
 62
     0
370
    -2
100
AcDbLine
 10
461.4681320752037
 20
308.6474570709881
 30
0.0
 11
461.4681320752037
 21
314.9601779127306
 31
0.0
  0
LINE
  5
26A1
330
462
100
AcDbEntity
  8
寸法
 62
     0
370
    -2
100
AcDbLine
 10
502.4681320752036
 20
308.6474570709881
 30
0.0
 11
502.4681320752036
 21
314.9601779127306
 31
0.0
  0
LINE
  5
26A2
330
462
100
AcDbEntity
  8
寸法
 62
     0
370
    -2
100
AcDbLine
 10
463.4681320752036
 20
313.9601779127306
 30
0.0
 11
500.4681320752036
 21
313.9601779127306
 31
0.0
  0
SOLID
  5
26A3
330
462
100
AcDbEntity
  8
寸法
 62
     0
100
AcDbTrace
 10
463.4681320752036
 20
314.2935112460639
 30
0.0
 11
463.4681320752036
 21
313.6268445793973
 31
0.0
 12
461.4681320752037
 22
313.9601779127306
 32
0.0
 13
461.4681320752037
 23
313.9601779127306
 33
0.0
  0
SOLID
  5
26A4
330
462
100
AcDbEntity
  8
寸法
 62
     0
100
AcDbTrace
 10
500.4681320752036
 20
314.2935112460639
 30
0.0
 11
500.4681320752036
 21
313.6268445793973
 31
0.0
 12
502.4681320752036
 22
313.9601779127306
 32
0.0
 13
502.4681320752036
 23
313.9601779127306
 33
0.0
  0
MTEXT
  5
26A5
330
462
100
AcDbEntity
  8
寸法
 62
     0
100
AcDbMText
 10
481.9681320752037
 20
315.0601779127307
 30
0.0
 40
1.399999999999999
 41
0.0
 71
     5
 72
     1
  1
41(Max)
 73
     1
 44
1.0
  0
POINT
  5
26A6
330
462
100
AcDbEntity
  8
Defpoints
 62
     0
100
AcDbPoint
 10
461.4681320752037
 20
308.2474570709881
 30
0.0
  0
POINT
  5
26A7
330
462
100
AcDbEntity
  8
Defpoints
 62
     0
100
AcDbPoint
 10
502.4681320752036
 20
308.2474570709881
 30
0.0
  0
POINT
  5
26A8
330
462
100
AcDbEntity
  8
Defpoints
 62
     0
100
AcDbPoint
 10
502.4681320752036
 20
313.9601779127306
 30
0.0
  0
ENDBLK
  5
46D
330
462
100
AcDbEntity
  8
0
 62
     5
100
AcDbBlockEnd
  0
BLOCK
  5
4CD
330
4C3
100
AcDbEntity
  8
0
 62
     5
100
AcDbBlockBegin
  2
*D2
 70
     1
 10
0.0
 20
0.0
 30
0.0
  3
*D2
  1

  0
LINE
  5
26C5
330
4C3
100
AcDbEntity
  8
寸法
 62
     0
370
    -2
100
AcDbLine
 10
495.4481320752036
 20
277.2474570709881
 30
0.0
 11
509.6333125618481
 21
277.2474570709881
 31
0.0
  0
LINE
  5
26C6
330
4C3
100
AcDbEntity
  8
寸法
 62
     0
370
    -2
100
AcDbLine
 10
495.9481320752037
 20
267.2474570709879
 30
0.0
 11
509.6333125618481
 21
267.2474570709879
 31
0.0
  0
LINE
  5
26C7
330
4C3
100
AcDbEntity
  8
寸法
 62
     0
370
    -2
100
AcDbLine
 10
508.6333125618481
 20
275.2474570709881
 30
0.0
 11
508.6333125618481
 21
269.2474570709879
 31
0.0
  0
SOLID
  5
26C8
330
4C3
100
AcDbEntity
  8
寸法
 62
     0
100
AcDbTrace
 10
508.2999792285148
 20
275.2474570709881
 30
0.0
 11
508.9666458951814
 21
275.2474570709881
 31
0.0
 12
508.6333125618481
 22
277.2474570709881
 32
0.0
 13
508.6333125618481
 23
277.2474570709881
 33
0.0
  0
SOLID
  5
26C9
330
4C3
100
AcDbEntity
  8
寸法
 62
     0
100
AcDbTrace
 10
508.2999792285148
 20
269.2474570709879
 30
0.0
 11
508.9666458951814
 21
269.2474570709879
 31
0.0
 12
508.6333125618481
 22
267.2474570709879
 32
0.0
 13
508.6333125618481
 23
267.2474570709879
 33
0.0
  0
MTEXT
  5
26CA
330
4C3
100
AcDbEntity
  8
寸法
 62
     0
100
AcDbMText
 10
507.5333125618481
 20
272.2474570709881
 30
0.0
 40
1.399999999999999
 41
0.0
 71
     5
 72
     1
  1
\A2;10
 11
0.0000000000000001
 21
1.0
 31
0.0
 73
     1
 44
1.0
  0
MTEXT
  5
26CB
330
4C3
100
AcDbEntity
  8
寸法
 62
     0
100
AcDbMText
 10
509.733312561848
 20
272.2474570709881
 30
0.0
 40
1.399999999999999
 41
0.0
 71
     5
 72
     1
  1
(Min)
 11
0.0000000000000001
 21
1.0
 31
0.0
 73
     1
 44
1.0
  0
POINT
  5
26CC
330
4C3
100
AcDbEntity
  8
Defpoints
 62
     0
100
AcDbPoint
 10
495.0481320752037
 20
277.2474570709881
 30
0.0
  0
POINT
  5
26CD
330
4C3
100
AcDbEntity
  8
Defpoints
 62
     0
100
AcDbPoint
 10
495.5481320752038
 20
267.2474570709879
 30
0.0
  0
POINT
  5
26CE
330
4C3
100
AcDbEntity
  8
Defpoints
 62
     0
100
AcDbPoint
 10
508.6333125618481
 20
267.2474570709879
 30
0.0
  0
ENDBLK
  5
4CE
330
4C3
100
AcDbEntity
  8
0
 62
     5
100
AcDbBlockEnd
  0
BLOCK
  5
547
330
53D
100
AcDbEntity
  8
0
 62
     5
100
AcDbBlockBegin
  2
*D3
 70
     1
 10
0.0
 20
0.0
 30
0.0
  3
*D3
  1

  0
LINE
  5
2614
330
53D
100
AcDbEntity
  8
寸法
 62
     0
370
    -2
100
AcDbLine
 10
495.0481320752037
 20
266.847457070988
 30
0.0
 11
495.0481320752037
 21
260.247457070988
 31
0.0
  0
LINE
  5
2615
330
53D
100
AcDbEntity
  8
寸法
 62
     0
370
    -2
100
AcDbLine
 10
489.9681320752037
 20
266.847457070988
 30
0.0
 11
489.9681320752037
 21
260.247457070988
 31
0.0
  0
LINE
  5
2616
330
53D
100
AcDbEntity
  8
寸法
 62
     0
370
    -2
100
AcDbLine
 10
493.0481320752037
 20
261.247457070988
 30
0.0
 11
491.9681320752038
 21
261.247457070988
 31
0.0
  0
SOLID
  5
2617
330
53D
100
AcDbEntity
  8
寸法
 62
     0
100
AcDbTrace
 10
493.0481320752037
 20
261.5807904043213
 30
0.0
 11
493.0481320752037
 21
260.9141237376547
 31
0.0
 12
495.0481320752037
 22
261.247457070988
 32
0.0
 13
495.0481320752037
 23
261.247457070988
 33
0.0
  0
SOLID
  5
2618
330
53D
100
AcDbEntity
  8
寸法
 62
     0
100
AcDbTrace
 10
491.9681320752038
 20
261.5807904043213
 30
0.0
 11
491.9681320752038
 21
260.9141237376547
 31
0.0
 12
489.9681320752037
 22
261.247457070988
 32
0.0
 13
489.9681320752037
 23
261.247457070988
 33
0.0
  0
MTEXT
  5
2619
330
53D
100
AcDbEntity
  8
寸法
 62
     0
100
AcDbMText
 10
492.5081320752037
 20
262.347457070988
 30
0.0
 40
1.399999999999999
 41
0.0
 71
     5
 72
     1
  1
5.08
 73
     1
 44
1.0
  0
POINT
  5
261A
330
53D
100
AcDbEntity
  8
Defpoints
 62
     0
100
AcDbPoint
 10
495.0481320752037
 20
267.247457070988
 30
0.0
  0
POINT
  5
261B
330
53D
100
AcDbEntity
  8
Defpoints
 62
     0
100
AcDbPoint
 10
489.9681320752037
 20
267.247457070988
 30
0.0
  0
POINT
  5
261C
330
53D
100
AcDbEntity
  8
Defpoints
 62
     0
100
AcDbPoint
 10
489.9681320752037
 20
261.247457070988
 30
0.0
  0
ENDBLK
  5
548
330
53D
100
AcDbEntity
  8
0
 62
     5
100
AcDbBlockEnd
  0
BLOCK
  5
553
330
549
100
AcDbEntity
  8
0
 62
     5
100
AcDbBlockBegin
  2
*D4
 70
     1
 10
0.0
 20
0.0
 30
0.0
  3
*D4
  1

  0
LINE
  5
2602
330
549
100
AcDbEntity
  8
寸法
 62
     0
370
    -2
100
AcDbLine
 10
489.9681320752036
 20
266.847457070988
 30
0.0
 11
489.9681320752036
 21
260.2474570709879
 31
0.0
  0
LINE
  5
2603
330
549
100
AcDbEntity
  8
寸法
 62
     0
370
    -2
100
AcDbLine
 10
477.2681320752036
 20
266.847457070988
 30
0.0
 11
477.2681320752036
 21
260.2474570709879
 31
0.0
  0
LINE
  5
2604
330
549
100
AcDbEntity
  8
寸法
 62
     0
370
    -2
100
AcDbLine
 10
487.9681320752037
 20
261.2474570709879
 30
0.0
 11
479.2681320752036
 21
261.2474570709879
 31
0.0
  0
SOLID
  5
2605
330
549
100
AcDbEntity
  8
寸法
 62
     0
100
AcDbTrace
 10
487.9681320752037
 20
261.5807904043212
 30
0.0
 11
487.9681320752037
 21
260.9141237376546
 31
0.0
 12
489.9681320752036
 22
261.2474570709879
 32
0.0
 13
489.9681320752036
 23
261.2474570709879
 33
0.0
  0
SOLID
  5
2606
330
549
100
AcDbEntity
  8
寸法
 62
     0
100
AcDbTrace
 10
479.2681320752036
 20
261.5807904043212
 30
0.0
 11
479.2681320752036
 21
260.9141237376546
 31
0.0
 12
477.2681320752036
 22
261.2474570709879
 32
0.0
 13
477.2681320752036
 23
261.2474570709879
 33
0.0
  0
MTEXT
  5
2607
330
549
100
AcDbEntity
  8
寸法
 62
     0
100
AcDbMText
 10
483.6181320752037
 20
262.3474570709879
 30
0.0
 40
1.399999999999999
 41
0.0
 71
     5
 72
     1
  1
12.7
 73
     1
 44
1.0
  0
POINT
  5
2608
330
549
100
AcDbEntity
  8
Defpoints
 62
     0
100
AcDbPoint
 10
489.9681320752036
 20
267.247457070988
 30
0.0
  0
POINT
  5
2609
330
549
100
AcDbEntity
  8
Defpoints
 62
     0
100
AcDbPoint
 10
477.2681320752036
 20
267.247457070988
 30
0.0
  0
POINT
  5
260A
330
549
100
AcDbEntity
  8
Defpoints
 62
     0
100
AcDbPoint
 10
477.2681320752036
 20
261.2474570709879
 30
0.0
  0
ENDBLK
  5
554
330
549
100
AcDbEntity
  8
0
 62
     5
100
AcDbBlockEnd
  0
BLOCK
  5
55F
330
555
100
AcDbEntity
  8
0
 62
     5
100
AcDbBlockBegin
  2
*D5
 70
     1
 10
0.0
 20
0.0
 30
0.0
  3
*D5
  1

  0
LINE
  5
260B
330
555
100
AcDbEntity
  8
寸法
 62
     0
370
    -2
100
AcDbLine
 10
477.2681320752036
 20
266.847457070988
 30
0.0
 11
477.2681320752036
 21
260.2474570709879
 31
0.0
  0
LINE
  5
260C
330
555
100
AcDbEntity
  8
寸法
 62
     0
370
    -2
100
AcDbLine
 10
467.1081320752036
 20
266.847457070988
 30
0.0
 11
467.1081320752036
 21
260.2474570709879
 31
0.0
  0
LINE
  5
260D
330
555
100
AcDbEntity
  8
寸法
 62
     0
370
    -2
100
AcDbLine
 10
475.2681320752036
 20
261.2474570709879
 30
0.0
 11
469.1081320752036
 21
261.2474570709879
 31
0.0
  0
SOLID
  5
260E
330
555
100
AcDbEntity
  8
寸法
 62
     0
100
AcDbTrace
 10
475.2681320752036
 20
261.5807904043212
 30
0.0
 11
475.2681320752036
 21
260.9141237376546
 31
0.0
 12
477.2681320752036
 22
261.2474570709879
 32
0.0
 13
477.2681320752036
 23
261.2474570709879
 33
0.0
  0
SOLID
  5
260F
330
555
100
AcDbEntity
  8
寸法
 62
     0
100
AcDbTrace
 10
469.1081320752036
 20
261.5807904043212
 30
0.0
 11
469.1081320752036
 21
260.9141237376546
 31
0.0
 12
467.1081320752036
 22
261.2474570709879
 32
0.0
 13
467.1081320752036
 23
261.2474570709879
 33
0.0
  0
MTEXT
  5
2610
330
555
100
AcDbEntity
  8
寸法
 62
     0
100
AcDbMText
 10
472.1881320752036
 20
262.3474570709879
 30
0.0
 40
1.399999999999999
 41
0.0
 71
     5
 72
     1
  1
10.16
 73
     1
 44
1.0
  0
POINT
  5
2611
330
555
100
AcDbEntity
  8
Defpoints
 62
     0
100
AcDbPoint
 10
477.2681320752036
 20
267.247457070988
 30
0.0
  0
POINT
  5
2612
330
555
100
AcDbEntity
  8
Defpoints
 62
     0
100
AcDbPoint
 10
467.1081320752036
 20
267.247457070988
 30
0.0
  0
POINT
  5
2613
330
555
100
AcDbEntity
  8
Defpoints
 62
     0
100
AcDbPoint
 10
467.1081320752036
 20
261.2474570709879
 30
0.0
  0
ENDBLK
  5
560
330
555
100
AcDbEntity
  8
0
 62
     5
100
AcDbBlockEnd
  0
BLOCK
  5
74F
330
745
100
AcDbEntity
  8
0
 62
     5
100
AcDbBlockBegin
  2
*D6
 70
     1
 10
0.0
 20
0.0
 30
0.0
  3
*D6
  1

  0
LINE
  5
26B2
330
745
100
AcDbEntity
  8
寸法
 62
     0
370
    -2
100
AcDbLine
 10
521.7988327998491
 20
308.6474570709881
 30
0.0
 11
521.7988327998491
 21
314.9601779127306
 31
0.0
  0
LINE
  5
26B3
330
745
100
AcDbEntity
  8
寸法
 62
     0
370
    -2
100
AcDbLine
 10
531.7988327998491
 20
308.6474570709881
 30
0.0
 11
531.7988327998491
 21
314.9601779127306
 31
0.0
  0
LINE
  5
26B4
330
745
100
AcDbEntity
  8
寸法
 62
     0
370
    -2
100
AcDbLine
 10
519.7988327998491
 20
313.9601779127306
 30
0.0
 11
517.7988327998491
 21
313.9601779127306
 31
0.0
  0
LINE
  5
26B5
330
745
100
AcDbEntity
  8
寸法
 62
     0
370
    -2
100
AcDbLine
 10
533.7988327998491
 20
313.9601779127306
 30
0.0
 11
535.7988327998491
 21
313.9601779127306
 31
0.0
  0
LINE
  5
26B6
330
745
100
AcDbEntity
  8
寸法
 62
     0
370
    -2
100
AcDbLine
 10
521.7988327998491
 20
313.9601779127306
 30
0.0
 11
531.7988327998491
 21
313.9601779127306
 31
0.0
  0
SOLID
  5
26B7
330
745
100
AcDbEntity
  8
寸法
 62
     0
100
AcDbTrace
 10
519.7988327998491
 20
314.2935112460639
 30
0.0
 11
519.7988327998491
 21
313.6268445793973
 31
0.0
 12
521.7988327998491
 22
313.9601779127306
 32
0.0
 13
521.7988327998491
 23
313.9601779127306
 33
0.0
  0
SOLID
  5
26B8
330
745
100
AcDbEntity
  8
寸法
 62
     0
100
AcDbTrace
 10
533.7988327998491
 20
314.2935112460639
 30
0.0
 11
533.7988327998491
 21
313.6268445793973
 31
0.0
 12
531.7988327998491
 22
313.9601779127306
 32
0.0
 13
531.7988327998491
 23
313.9601779127306
 33
0.0
  0
MTEXT
  5
26B9
330
745
100
AcDbEntity
  8
寸法
 62
     0
100
AcDbMText
 10
526.7988327998491
 20
316.2268445793973
 30
0.0
 40
1.399999999999999
 41
0.0
 71
     5
 72
     1
  1
10\P(Max)
 73
     1
 44
1.0
  0
POINT
  5
26BA
330
745
100
AcDbEntity
  8
Defpoints
 62
     0
100
AcDbPoint
 10
521.7988327998491
 20
308.2474570709881
 30
0.0
  0
POINT
  5
26BB
330
745
100
AcDbEntity
  8
Defpoints
 62
     0
100
AcDbPoint
 10
531.7988327998491
 20
308.2474570709881
 30
0.0
  0
POINT
  5
26BC
330
745
100
AcDbEntity
  8
Defpoints
 62
     0
100
AcDbPoint
 10
531.7988327998491
 20
313.9601779127306
 30
0.0
  0
ENDBLK
  5
750
330
745
100
AcDbEntity
  8
0
 62
     5
100
AcDbBlockEnd
  0
BLOCK
  5
84D
330
841
100
AcDbEntity
  8
0
 62
     5
100
AcDbBlockBegin
  2
*D7
 70
     1
 10
0.0
 20
0.0
 30
0.0
  3
*D7
  1

  0
LINE
  5
2730
330
841
100
AcDbEntity
  8
寸法
 62
     0
370
    -2
100
AcDbLine
 10
521.7988327998491
 20
277.7474570709882
 30
0.0
 11
521.7988327998491
 21
260.247457070988
 31
0.0
  0
LINE
  5
2731
330
841
100
AcDbEntity
  8
寸法
 62
     0
370
    -2
100
AcDbLine
 10
525.7988327998488
 20
265.247457070988
 30
0.0
 11
525.7988327998488
 21
260.247457070988
 31
0.0
  0
LINE
  5
2732
330
841
100
AcDbEntity
  8
寸法
 62
     0
370
    -2
100
AcDbLine
 10
527.7988327998489
 20
261.247457070988
 30
0.0
 11
529.7988327998488
 21
261.247457070988
 31
0.0
  0
LINE
  5
2733
330
841
100
AcDbEntity
  8
寸法
 62
     0
370
    -2
100
AcDbLine
 10
519.7988327998491
 20
261.247457070988
 30
0.0
 11
513.7321661331823
 21
261.247457070988
 31
0.0
  0
LINE
  5
2734
330
841
100
AcDbEntity
  8
寸法
 62
     0
370
    -2
100
AcDbLine
 10
525.7988327998488
 20
261.247457070988
 30
0.0
 11
521.7988327998491
 21
261.247457070988
 31
0.0
  0
SOLID
  5
2735
330
841
100
AcDbEntity
  8
寸法
 62
     0
100
AcDbTrace
 10
527.7988327998489
 20
261.5807904043213
 30
0.0
 11
527.7988327998489
 21
260.9141237376547
 31
0.0
 12
525.7988327998488
 22
261.247457070988
 32
0.0
 13
525.7988327998488
 23
261.247457070988
 33
0.0
  0
SOLID
  5
2736
330
841
100
AcDbEntity
  8
寸法
 62
     0
100
AcDbTrace
 10
519.7988327998491
 20
261.5807904043213
 30
0.0
 11
519.7988327998491
 21
260.9141237376547
 31
0.0
 12
521.7988327998491
 22
261.247457070988
 32
0.0
 13
521.7988327998491
 23
261.247457070988
 33
0.0
  0
MTEXT
  5
2737
330
841
100
AcDbEntity
  8
寸法
 62
     0
100
AcDbMText
 10
515.7654994665158
 20
262.347457070988
 30
0.0
 40
1.399999999999999
 41
0.0
 71
     5
 72
     1
  1
\A2;4%%P1
 73
     1
 44
1.0
  0
POINT
  5
2738
330
841
100
AcDbEntity
  8
Defpoints
 62
     0
100
AcDbPoint
 10
521.7988327998491
 20
279.7474570709882
 30
0.0
  0
POINT
  5
2739
330
841
100
AcDbEntity
  8
Defpoints
 62
     0
100
AcDbPoint
 10
525.7988327998488
 20
267.247457070988
 30
0.0
  0
POINT
  5
273A
330
841
100
AcDbEntity
  8
Defpoints
 62
     0
100
AcDbPoint
 10
525.7988327998488
 20
261.247457070988
 30
0.0
  0
ENDBLK
  5
84E
330
841
100
AcDbEntity
  8
0
 62
     5
100
AcDbBlockEnd
  0
BLOCK
  5
21BA
330
21AF
100
AcDbEntity
  8
0
 62
     5
100
AcDbBlockBegin
  2
*D8
 70
     1
 10
0.0
 20
0.0
 30
0.0
  3
*D8
  1

  0
LINE
  5
25EE
330
21AF
100
AcDbEntity
  8
寸法
 62
     0
370
    -2
100
AcDbLine
 10
481.9681320752037
 20
271.7692401002163
 30
0.0
 11
481.9681320752037
 21
263.2474570709879
 31
0.0
  0
LINE
  5
25EF
330
21AF
100
AcDbEntity
  8
寸法
 62
     0
370
    -2
100
AcDbLine
 10
477.2681320752036
 20
266.847457070988
 30
0.0
 11
477.2681320752036
 21
263.2474570709879
 31
0.0
  0
LINE
  5
25F0
330
21AF
100
AcDbEntity
  8
寸法
 62
     0
370
    -2
100
AcDbLine
 10
483.9681320752037
 20
264.2474570709879
 30
0.0
 11
485.9681320752037
 21
264.2474570709879
 31
0.0
  0
LINE
  5
25F1
330
21AF
100
AcDbEntity
  8
寸法
 62
     0
370
    -2
100
AcDbLine
 10
475.2681320752036
 20
264.2474570709879
 30
0.0
 11
473.2681320752036
 21
264.2474570709879
 31
0.0
  0
LINE
  5
25F2
330
21AF
100
AcDbEntity
  8
寸法
 62
     0
370
    -2
100
AcDbLine
 10
481.9681320752037
 20
264.2474570709879
 30
0.0
 11
477.2681320752036
 21
264.2474570709879
 31
0.0
  0
SOLID
  5
25F3
330
21AF
100
AcDbEntity
  8
寸法
 62
     0
100
AcDbTrace
 10
483.9681320752037
 20
264.5807904043212
 30
0.0
 11
483.9681320752037
 21
263.9141237376546
 31
0.0
 12
481.9681320752037
 22
264.2474570709879
 32
0.0
 13
481.9681320752037
 23
264.2474570709879
 33
0.0
  0
SOLID
  5
25F4
330
21AF
100
AcDbEntity
  8
寸法
 62
     0
100
AcDbTrace
 10
475.2681320752036
 20
264.5807904043212
 30
0.0
 11
475.2681320752036
 21
263.9141237376546
 31
0.0
 12
477.2681320752036
 22
264.2474570709879
 32
0.0
 13
477.2681320752036
 23
264.2474570709879
 33
0.0
  0
MTEXT
  5
25F5
330
21AF
100
AcDbEntity
  8
寸法
 62
     0
100
AcDbMText
 10
479.6181320752037
 20
265.3474570709879
 30
0.0
 40
1.399999999999999
 41
0.0
 71
     5
 72
     1
  1
4.7
 73
     1
 44
1.0
  0
POINT
  5
25F6
330
21AF
100
AcDbEntity
  8
Defpoints
 62
     0
100
AcDbPoint
 10
481.9681320752037
 20
272.1692401002162
 30
0.0
  0
POINT
  5
25F7
330
21AF
100
AcDbEntity
  8
Defpoints
 62
     0
100
AcDbPoint
 10
477.2681320752036
 20
267.247457070988
 30
0.0
  0
POINT
  5
25F8
330
21AF
100
AcDbEntity
  8
Defpoints
 62
     0
100
AcDbPoint
 10
477.2681320752036
 20
264.2474570709879
 30
0.0
  0
ENDBLK
  5
21BB
330
21AF
100
AcDbEntity
  8
0
 62
     5
100
AcDbBlockEnd
  0
BLOCK
  5
231C
330
2311
100
AcDbEntity
  8
0
 62
     5
100
AcDbBlockBegin
  2
*D9
 70
     1
 10
0.0
 20
0.0
 30
0.0
  3
*D9
  1

  0
LINE
  5
25C9
330
2311
100
AcDbEntity
  8
寸法
 62
     0
370
    -2
100
AcDbLine
 10
523.2988327998488
 20
269.314931957107
 30
0.0
 11
521.2988327998488
 21
269.314931957107
 31
0.0
  0
LINE
  5
25CA
330
2311
100
AcDbEntity
  8
寸法
 62
     0
370
    -2
100
AcDbLine
 10
528.2988327998488
 20
269.314931957107
 30
0.0
 11
535.7654994665154
 21
269.314931957107
 31
0.0
  0
SOLID
  5
25CB
330
2311
100
AcDbEntity
  8
寸法
 62
     0
100
AcDbTrace
 10
523.2988327998488
 20
269.6482652904403
 30
0.0
 11
523.2988327998488
 21
268.9815986237737
 31
0.0
 12
525.2988327998488
 22
269.314931957107
 32
0.0
 13
525.2988327998488
 23
269.314931957107
 33
0.0
  0
SOLID
  5
25CC
330
2311
100
AcDbEntity
  8
寸法
 62
     0
100
AcDbTrace
 10
528.2988327998488
 20
269.6482652904403
 30
0.0
 11
528.2988327998488
 21
268.9815986237737
 31
0.0
 12
526.2988327998487
 22
269.314931957107
 32
0.0
 13
526.2988327998487
 23
269.314931957107
 33
0.0
  0
MTEXT
  5
25CD
330
2311
100
AcDbEntity
  8
寸法
 62
     0
100
AcDbMText
 10
533.0321661331821
 20
270.4149319571071
 30
0.0
 40
1.399999999999999
 41
0.0
 71
     5
 72
     1
  1
4-%%c1
 73
     1
 44
1.0
  0
POINT
  5
25CE
330
2311
100
AcDbEntity
  8
Defpoints
 62
     0
100
AcDbPoint
 10
525.2988327998488
 20
272.1649319571071
 30
0.0
  0
POINT
  5
25CF
330
2311
100
AcDbEntity
  8
Defpoints
 62
     0
100
AcDbPoint
 10
526.2988327998487
 20
272.1649319571071
 30
0.0
  0
POINT
  5
25D0
330
2311
100
AcDbEntity
  8
Defpoints
 62
     0
100
AcDbPoint
 10
526.2988327998487
 20
269.314931957107
 30
0.0
  0
ENDBLK
  5
231D
330
2311
100
AcDbEntity
  8
0
 62
     5
100
AcDbBlockEnd
  0
ENDSEC
  0
SECTION
  2
ENTITIES
  0
MTEXT
  5
F7
330
1F
100
AcDbEntity
  8
外形
100
AcDbMText
 10
467.619106209026
 20
326.5651026548667
 30
0.0
 40
5.0
 41
39.97937408907088
 71
     5
 72
     5
  1
{\fMS UI Gothic|b0|i0|c128|p17;外形寸法}
 73
     1
 44
1.0
  0
DIMENSION
  5
454
330
1F
100
AcDbEntity
  8
寸法
 62
     5
100
AcDbDimension
  2
*D1
 10
502.4681320752036
 20
313.9601779127306
 30
0.0
 11
481.9681320752037
 21
315.0601779127307
 31
0.0
 70
    32
 71
     5
 42
40.99999999999994
  3
ISO-25
100
AcDbAlignedDimension
 13
461.4681320752037
 23
308.2474570709881
 33
0.0
 14
502.4681320752036
 24
308.2474570709881
 34
0.0
100
AcDbRotatedDimension
1001
ACAD
1000
DSTYLE
1002
{
1070
     3
1000
(Max)
1002
}
  0
DIMENSION
  5
455
330
1F
100
AcDbEntity
  8
寸法
 62
     5
100
AcDbDimension
  2
*D0
 10
508.6333125618481
 20
277.2474570709881
 30
0.0
 11
507.533312561848
 21
292.7474570709881
 31
0.0
 70
    32
 71
     5
 42
31.0
  3
ISO-25
100
AcDbAlignedDimension
 13
502.4681320752036
 23
308.2474570709881
 33
0.0
 14
502.4681320752036
 24
277.2474570709881
 34
0.0
 50
90.0
100
AcDbRotatedDimension
1001
ACAD
1000
DSTYLE
1002
{
1070
     3
1000
(Max)
1002
}
  0
DIMENSION
  5
4BF
330
1F
100
AcDbEntity
  8
寸法
 62
     5
100
AcDbDimension
  2
*D2
 10
508.6333125618481
 20
267.2474570709879
 30
0.0
 11
508.633312561848
 21
272.2474570709881
 31
0.0
 70
    32
  1
\A2;<>\X(Min)
 71
     5
 42
10.00000000000022
  3
ISO-25
100
AcDbAlignedDimension
 13
495.0481320752037
 23
277.2474570709881
 33
0.0
 14
495.5481320752038
 24
267.2474570709879
 34
0.0
 50
90.0
100
AcDbRotatedDimension
  0
DIMENSION
  5
53A
330
1F
100
AcDbEntity
  8
寸法
 62
     5
100
AcDbDimension
  2
*D4
 10
477.2681320752036
 20
261.2474570709879
 30
0.0
 11
483.6181320752037
 21
262.3474570709879
 31
0.0
 70
    32
 71
     5
 42
12.70000000000004
  3
ISO-25
100
AcDbAlignedDimension
 13
489.9681320752036
 23
267.247457070988
 33
0.0
 14
477.2681320752036
 24
267.247457070988
 34
0.0
 50
180.0
100
AcDbRotatedDimension
  0
DIMENSION
  5
53B
330
1F
100
AcDbEntity
  8
寸法
 62
     5
100
AcDbDimension
  2
*D5
 10
467.1081320752036
 20
261.2474570709879
 30
0.0
 11
472.1881320752036
 21
262.3474570709879
 31
0.0
 70
    32
 71
     5
 42
10.16000000000002
  3
ISO-25
100
AcDbAlignedDimension
 13
477.2681320752036
 23
267.247457070988
 33
0.0
 14
467.1081320752036
 24
267.247457070988
 34
0.0
 50
180.0
100
AcDbRotatedDimension
  0
DIMENSION
  5
53C
330
1F
100
AcDbEntity
  8
寸法
 62
     5
100
AcDbDimension
  2
*D3
 10
489.9681320752037
 20
261.247457070988
 30
0.0
 11
492.5081320752037
 21
262.347457070988
 31
0.0
 70
    32
 71
     5
 42
5.079999999999984
  3
ISO-25
100
AcDbAlignedDimension
 13
495.0481320752037
 23
267.247457070988
 33
0.0
 14
489.9681320752037
 24
267.247457070988
 34
0.0
 50
180.0
100
AcDbRotatedDimension
  0
LINE
  5
651
330
1F
100
AcDbEntity
  8
外形
 62
     1
100
AcDbLine
 10
495.0481320752037
 20
226.8007123675846
 30
0.0
 11
495.0481320752037
 21
224.8007123675846
 31
0.0
  0
LINE
  5
652
330
1F
100
AcDbEntity
  8
外形
 62
     1
100
AcDbLine
 10
477.2681320752035
 20
226.8007123675846
 30
0.0
 11
477.2681320752035
 21
224.8007123675846
 31
0.0
  0
LINE
  5
654
330
1F
100
AcDbEntity
  8
外形
 62
     1
100
AcDbLine
 10
496.0481320752037
 20
225.8007123675846
 30
0.0
 11
466.1081320752036
 21
225.8007123675846
 31
0.0
  0
CIRCLE
  5
657
330
1F
100
AcDbEntity
  8
外形
100
AcDbCircle
 10
489.9681320752037
 20
225.8007123675846
 30
0.0
 40
0.7
  0
LINE
  5
658
330
1F
100
AcDbEntity
  8
外形
 62
     1
100
AcDbLine
 10
489.9681320752037
 20
226.8007123675846
 30
0.0
 11
489.9681320752037
 21
224.8007123675846
 31
0.0
  0
CIRCLE
  5
65A
330
1F
100
AcDbEntity
  8
外形
100
AcDbCircle
 10
467.1081320752036
 20
225.8007123675846
 30
0.0
 40
0.7
  0
LINE
  5
65B
330
1F
100
AcDbEntity
  8
外形
 62
     1
100
AcDbLine
 10
467.1081320752036
 20
226.8007123675846
 30
0.0
 11
467.1081320752036
 21
224.8007123675846
 31
0.0
  0
MTEXT
  5
65D
330
1F
100
AcDbEntity
  8
寸法
 62
     5
100
AcDbMText
 10
502.1362553910754
 20
228.5261390350004
 30
0.0
 40
1.399999999999999
 41
0.0
 71
     8
 72
     1
  1
{\fMS UI Gothic|b0|i0|c128|p17;穴径φ1.4}
 73
     2
 44
1.0
  0
CIRCLE
  5
65E
330
1F
100
AcDbEntity
  8
外形
100
AcDbCircle
 10
495.0481320752037
 20
225.8007123675846
 30
0.0
 40
0.7
  0
CIRCLE
  5
661
330
1F
100
AcDbEntity
  8
外形
100
AcDbCircle
 10
477.2681320752035
 20
225.8007123675846
 30
0.0
 40
0.7
  0
LINE
  5
740
330
1F
100
AcDbEntity
  8
外形
100
AcDbLine
 10
531.7988327998491
 20
307.2474570709881
 30
0.0
 11
531.7988327998491
 21
279.7474570709883
 31
0.0
  0
LINE
  5
741
330
1F
100
AcDbEntity
  8
外形
100
AcDbLine
 10
522.7988327998491
 20
308.2474570709881
 30
0.0
 11
530.7988327998491
 21
308.2474570709881
 31
0.0
  0
DIMENSION
  5
744
330
1F
100
AcDbEntity
  8
寸法
 62
     5
100
AcDbDimension
  2
*D6
 10
531.7988327998491
 20
313.9601779127306
 30
0.0
 11
526.7988327998491
 21
313.9601779127306
 31
0.0
 70
   160
 71
     5
 42
10.0
  3
ISO-25
100
AcDbAlignedDimension
 13
521.7988327998491
 23
308.2474570709881
 33
0.0
 14
531.7988327998491
 24
308.2474570709881
 34
0.0
100
AcDbRotatedDimension
1001
ACAD
1000
DSTYLE
1002
{
1070
   340
1005
11
1070
   280
1070
     0
1070
   279
1070
     0
1070
     3
1000
\X(Max)
1002
}
  0
LINE
  5
75A
330
1F
100
AcDbEntity
  8
外形
100
AcDbLine
 10
521.7988327998491
 20
307.2474570709881
 30
0.0
 11
521.7988327998491
 21
279.7474570709882
 31
0.0
  0
DIMENSION
  5
840
330
1F
100
AcDbEntity
  8
寸法
 62
     5
100
AcDbDimension
  2
*D7
 10
525.7988327998488
 20
261.247457070988
 30
0.0
 11
515.7654994665158
 21
261.247457070988
 31
0.0
 70
   160
  1
\A2;<>%%P1
 71
     5
 42
3.999999999999772
  3
ISO-25
100
AcDbAlignedDimension
 13
521.7988327998491
 23
279.7474570709882
 33
0.0
 14
525.7988327998488
 24
267.247457070988
 34
0.0
100
AcDbRotatedDimension
1001
ACAD
1000
DSTYLE
1002
{
1070
    42
1040
1.0
1070
    44
1040
0.5
1002
}
  0
MTEXT
  5
1255
330
1F
100
AcDbEntity
  8
外形
100
AcDbMText
 10
494.0496090998953
 20
242.5083527392756
 30
0.0
 40
5.0
 41
91.27984813686484
 71
     5
 72
     5
  1
{\fMS UI Gothic|b0|i0|c128|p17;プリント基板取付穴寸法図 }
 73
     1
 44
1.0
  0
LINE
  5
1847
330
1F
100
AcDbEntity
  8
外形
100
AcDbLine
 10
461.4681320752035
 20
280.7474570709881
 30
0.0
 11
461.4681320752036
 21
306.2474570709881
 31
0.0
  0
LINE
  5
1849
330
1F
100
AcDbEntity
  8
外形
100
AcDbLine
 10
463.4681320752036
 20
308.2474570709881
 30
0.0
 11
500.4681320752036
 21
308.2474570709881
 31
0.0
  0
LINE
  5
184B
330
1F
100
AcDbEntity
  8
外形
100
AcDbLine
 10
502.4681320752036
 20
306.2474570709881
 30
0.0
 11
502.4681320752035
 21
280.7474570709881
 31
0.0
  0
LINE
  5
1A25
330
1F
100
AcDbEntity
  8
外形
100
AcDbLine
 10
466.6081320752037
 20
267.2474570709879
 30
0.0
 11
467.6081320752037
 21
267.247457070988
 31
0.0
  0
LINE
  5
1AA7
330
1F
100
AcDbEntity
  8
外形
100
AcDbLine
 10
500.4681320752036
 20
278.7474570709881
 30
0.0
 11
463.4681320752036
 21
278.7474570709881
 31
0.0
  0
ARC
  5
1AFB
330
1F
100
AcDbEntity
  8
外形
100
AcDbCircle
 10
463.4681320752036
 20
280.7474570709881
 30
0.0
 40
2.0
100
AcDbArc
 50
180.0
 51
270.0
  0
ARC
  5
1AFC
330
1F
100
AcDbEntity
  8
外形
100
AcDbCircle
 10
500.4681320752036
 20
280.7474570709881
 30
0.0
 40
2.0
100
AcDbArc
 50
270.0
 51
0.000000000000007
  0
LEADER
  5
1B02
330
1F
100
AcDbEntity
  8
寸法
 62
     5
100
AcDbLeader
  3
ISO-25
 76
     3
 10
495.8324932607738
 20
226.4729118861168
 30
0.0
 10
497.6323659781993
 20
228.5261390350004
 30
0.0
 10
506.6640212743239
 20
228.5261390350004
 30
0.0
1001
ACAD
1000
DSTYLE
1002
{
1070
   147
1040
0.2
1070
    77
1070
     0
1002
}
  0
ARC
  5
1B2C
330
1F
100
AcDbEntity
  8
外形
100
AcDbCircle
 10
522.7988327998491
 20
279.7474570709882
 30
0.0
 40
1.0
100
AcDbArc
 50
180.0000000000001
 51
270.0000000000006
  0
ARC
  5
1B2D
330
1F
100
AcDbEntity
  8
外形
100
AcDbCircle
 10
530.7988327998491
 20
279.7474570709883
 30
0.0
 40
1.0
100
AcDbArc
 50
270.0000000000005
 51
0.0
  0
ARC
  5
1B2F
330
1F
100
AcDbEntity
  8
外形
100
AcDbCircle
 10
522.7988327998491
 20
307.2474570709881
 30
0.0
 40
1.0
100
AcDbArc
 50
90.0
 51
180.0
  0
ARC
  5
1B30
330
1F
100
AcDbEntity
  8
外形
100
AcDbCircle
 10
530.7988327998491
 20
307.2474570709881
 30
0.0
 40
1.0
100
AcDbArc
 50
0.0
 51
90.0
  0
ARC
  5
1B31
330
1F
100
AcDbEntity
  8
外形
100
AcDbCircle
 10
500.4681320752036
 20
306.2474570709881
 30
0.0
 40
2.0
100
AcDbArc
 50
0.000000000000007
 51
90.0
  0
ARC
  5
1B32
330
1F
100
AcDbEntity
  8
外形
100
AcDbCircle
 10
463.4681320752036
 20
306.2474570709881
 30
0.0
 40
2.0
100
AcDbArc
 50
90.0
 51
180.0
  0
LINE
  5
1DB1
330
1F
100
AcDbEntity
  8
外形
100
AcDbLine
 10
466.6081320752035
 20
277.0910231294446
 30
0.0
 11
466.6081320752037
 21
267.2474570709879
 31
0.0
  0
LINE
  5
1FE9
330
1F
100
AcDbEntity
  8
外形
  6
CENTER
 62
     1
 48
0.08
100
AcDbLine
 10
481.9681320752036
 20
265.2474570709881
 30
0.0
 11
481.9681320752036
 21
309.2474570709881
 31
0.0
  0
LINE
  5
20B0
330
1F
100
AcDbEntity
  8
外形
100
AcDbLine
 10
495.5481320752036
 20
277.3814316672036
 30
0.0
 11
495.5481320752037
 21
267.247457070988
 31
0.0
  0
LINE
  5
20B1
330
1F
100
AcDbEntity
  8
外形
100
AcDbLine
 10
494.5481320752036
 20
277.3814316672037
 30
0.0
 11
494.5481320752037
 21
267.2474570709879
 31
0.0
  0
LINE
  5
20B2
330
1F
100
AcDbEntity
  8
外形
100
AcDbLine
 10
494.5481320752037
 20
267.2474570709879
 30
0.0
 11
495.5481320752037
 21
267.247457070988
 31
0.0
  0
DIMENSION
  5
21AE
330
1F
100
AcDbEntity
  8
寸法
 62
     5
100
AcDbDimension
  2
*D8
 10
477.2681320752036
 20
264.2474570709879
 30
0.0
 11
479.6181320752037
 21
265.3474570709879
 31
0.0
 70
    32
 71
     5
 42
4.700000000000045
  3
ISO-25
100
AcDbAlignedDimension
 13
481.9681320752037
 23
272.1692401002162
 33
0.0
 14
477.2681320752036
 24
267.247457070988
 34
0.0
 50
180.0
100
AcDbRotatedDimension
  0
LINE
  5
223E
330
1F
100
AcDbEntity
  8
外形
100
AcDbLine
 10
522.7988327998491
 20
278.7474570709882
 30
0.0
 11
530.7988327998491
 21
278.7474570709883
 31
0.0
  0
LINE
  5
2250
330
1F
100
AcDbEntity
  8
外形
100
AcDbLine
 10
490.4681320752036
 20
277.3814316672036
 30
0.0
 11
490.4681320752037
 21
267.247457070988
 31
0.0
  0
LINE
  5
2251
330
1F
100
AcDbEntity
  8
外形
100
AcDbLine
 10
489.4681320752036
 20
277.3814316672037
 30
0.0
 11
489.4681320752037
 21
267.2474570709879
 31
0.0
  0
LINE
  5
2252
330
1F
100
AcDbEntity
  8
外形
100
AcDbLine
 10
489.4681320752037
 20
267.2474570709879
 30
0.0
 11
490.4681320752037
 21
267.247457070988
 31
0.0
  0
LINE
  5
2254
330
1F
100
AcDbEntity
  8
外形
100
AcDbLine
 10
476.7681320752036
 20
277.3814316672037
 30
0.0
 11
476.7681320752037
 21
267.2474570709879
 31
0.0
  0
LINE
  5
2255
330
1F
100
AcDbEntity
  8
外形
100
AcDbLine
 10
477.7681320752036
 20
277.3814316672036
 30
0.0
 11
477.7681320752037
 21
267.247457070988
 31
0.0
  0
LINE
  5
2256
330
1F
100
AcDbEntity
  8
外形
100
AcDbLine
 10
476.7681320752037
 20
267.2474570709879
 30
0.0
 11
477.7681320752037
 21
267.247457070988
 31
0.0
  0
LINE
  5
2258
330
1F
100
AcDbEntity
  8
外形
100
AcDbLine
 10
467.6081320752035
 20
277.3814316672036
 30
0.0
 11
467.6081320752037
 21
267.247457070988
 31
0.0
  0
LINE
  5
2259
330
1F
100
AcDbEntity
  8
外形
100
AcDbLine
 10
466.6081320752036
 20
277.3814316672037
 30
0.0
 11
466.6081320752037
 21
267.2474570709879
 31
0.0
  0
LINE
  5
225A
330
1F
100
AcDbEntity
  8
外形
100
AcDbLine
 10
466.6081320752037
 20
267.2474570709879
 30
0.0
 11
467.6081320752037
 21
267.247457070988
 31
0.0
  0
LINE
  5
225C
330
1F
100
AcDbEntity
  8
外形
100
AcDbLine
 10
526.2988327998486
 20
277.3814316672036
 30
0.0
 11
526.2988327998489
 21
267.2474570709881
 31
0.0
  0
LINE
  5
225D
330
1F
100
AcDbEntity
  8
外形
100
AcDbLine
 10
525.2988327998487
 20
277.3814316672039
 30
0.0
 11
525.2988327998489
 21
267.247457070988
 31
0.0
  0
LINE
  5
225E
330
1F
100
AcDbEntity
  8
外形
100
AcDbLine
 10
525.2988327998489
 20
267.247457070988
 30
0.0
 11
526.2988327998489
 21
267.2474570709881
 31
0.0
  0
DIMENSION
  5
2310
330
1F
100
AcDbEntity
  8
寸法
 62
     5
100
AcDbDimension
  2
*D9
 10
526.2988327998487
 20
269.314931957107
 30
0.0
 11
533.0321661331821
 21
269.314931957107
 31
0.0
 70
   160
  1
<>
 71
     5
  3
ISO-25
100
AcDbAlignedDimension
 13
525.2988327998488
 23
272.1649319571071
 33
0.0
 14
526.2988327998487
 24
272.1649319571071
 34
0.0
100
AcDbRotatedDimension
1001
ACAD
1000
DSTYLE
1002
{
1070
    76
1070
     1
1070
    75
1070
     1
1070
     3
1000
4-%%c<>
1070
   172
1070
     0
1070
   175
1070
     0
1002
}
  0
MTEXT
  5
26E2
330
1F
100
AcDbEntity
  8
外形
100
AcDbMText
 10
465.3112684877287
 20
276.2128421263911
 30
0.0
 40
1.399999999999999
 41
0.5
 71
     5
 72
     5
  1
{\fＭＳ ゴシック|b0|i0|c128|p49;1}
 73
     1
 44
1.0
  0
CIRCLE
  5
26E3
330
1F
100
AcDbEntity
  8
外形
100
AcDbCircle
 10
465.3112684877287
 20
276.2128421263911
 30
0.0
 40
0.8249999641939167
  0
MTEXT
  5
26E4
330
1F
100
AcDbEntity
  8
外形
100
AcDbMText
 10
475.5080630929984
 20
276.2128421263912
 30
0.0
 40
1.399999999999999
 41
0.5
 71
     5
 72
     5
  1
{\fＭＳ ゴシック|b0|i0|c128|p49;2}
 73
     1
 44
1.0
  0
CIRCLE
  5
26E5
330
1F
100
AcDbEntity
  8
外形
100
AcDbCircle
 10
475.5080630929984
 20
276.2128421263912
 30
0.0
 40
0.8249999641939167
  0
MTEXT
  5
26E6
330
1F
100
AcDbEntity
  8
外形
100
AcDbMText
 10
488.1768875038289
 20
276.2128421263915
 30
0.0
 40
1.399999999999999
 41
0.5
 71
     5
 72
     5
  1
{\fＭＳ ゴシック|b0|i0|c128|p49;3}
 73
     1
 44
1.0
  0
CIRCLE
  5
26E7
330
1F
100
AcDbEntity
  8
外形
100
AcDbCircle
 10
488.1768875038289
 20
276.2128421263915
 30
0.0
 40
0.8249999641939167
  0
MTEXT
  5
26E8
330
1F
100
AcDbEntity
  8
外形
100
AcDbMText
 10
496.8989976356913
 20
276.2128421263913
 30
0.0
 40
1.399999999999999
 41
0.5
 71
     5
 72
     5
  1
{\fＭＳ ゴシック|b0|i0|c128|p49;4}
 73
     1
 44
1.0
  0
CIRCLE
  5
26E9
330
1F
100
AcDbEntity
  8
外形
100
AcDbCircle
 10
496.8989976356913
 20
276.2128421263913
 30
0.0
 40
0.8249999641939167
  0
ARC
  5
26F7
330
1F
100
AcDbEntity
  8
外形
100
AcDbCircle
 10
467.1081320752037
 20
278.2474570709881
 30
0.0
 40
1.0
100
AcDbArc
 50
180.0
 51
0.0
  0
LINE
  5
26F8
330
1F
100
AcDbEntity
  8
外形
100
AcDbLine
 10
466.1081320752037
 20
278.2474570709881
 30
0.0
 11
466.1081320752037
 21
278.7474570709881
 31
0.0
  0
LINE
  5
26F9
330
1F
100
AcDbEntity
  8
外形
100
AcDbLine
 10
468.1081320752037
 20
278.2474570709881
 30
0.0
 11
468.1081320752037
 21
278.7474570709881
 31
0.0
  0
ARC
  5
26FB
330
1F
100
AcDbEntity
  8
外形
100
AcDbCircle
 10
477.2681320752037
 20
278.2474570709881
 30
0.0
 40
1.0
100
AcDbArc
 50
180.0
 51
0.0
  0
LINE
  5
26FC
330
1F
100
AcDbEntity
  8
外形
100
AcDbLine
 10
476.2681320752037
 20
278.2474570709881
 30
0.0
 11
476.2681320752037
 21
278.7474570709881
 31
0.0
  0
LINE
  5
26FD
330
1F
100
AcDbEntity
  8
外形
100
AcDbLine
 10
478.2681320752037
 20
278.2474570709881
 30
0.0
 11
478.2681320752037
 21
278.7474570709881
 31
0.0
  0
ARC
  5
26FE
330
1F
100
AcDbEntity
  8
外形
100
AcDbCircle
 10
489.9681320752037
 20
278.2474570709881
 30
0.0
 40
1.0
100
AcDbArc
 50
180.0
 51
0.0
  0
LINE
  5
26FF
330
1F
100
AcDbEntity
  8
外形
100
AcDbLine
 10
488.9681320752037
 20
278.2474570709881
 30
0.0
 11
488.9681320752037
 21
278.7474570709881
 31
0.0
  0
LINE
  5
2700
330
1F
100
AcDbEntity
  8
外形
100
AcDbLine
 10
490.9681320752037
 20
278.2474570709881
 30
0.0
 11
490.9681320752037
 21
278.7474570709881
 31
0.0
  0
ARC
  5
2701
330
1F
100
AcDbEntity
  8
外形
100
AcDbCircle
 10
495.0481320752037
 20
278.2474570709881
 30
0.0
 40
1.0
100
AcDbArc
 50
180.0
 51
0.0
  0
LINE
  5
2702
330
1F
100
AcDbEntity
  8
外形
100
AcDbLine
 10
494.0481320752037
 20
278.2474570709881
 30
0.0
 11
494.0481320752037
 21
278.7474570709881
 31
0.0
  0
LINE
  5
2703
330
1F
100
AcDbEntity
  8
外形
100
AcDbLine
 10
496.0481320752037
 20
278.2474570709881
 30
0.0
 11
496.0481320752037
 21
278.7474570709881
 31
0.0
  0
ARC
  5
2704
330
1F
100
AcDbEntity
  8
外形
100
AcDbCircle
 10
525.7988327998488
 20
278.2474570709883
 30
0.0
 40
1.0
100
AcDbArc
 50
180.0
 51
0.0
  0
LINE
  5
2705
330
1F
100
AcDbEntity
  8
外形
100
AcDbLine
 10
524.7988327998489
 20
278.2474570709883
 30
0.0
 11
524.7988327998489
 21
278.7474570709882
 31
0.0
  0
LINE
  5
2706
330
1F
100
AcDbEntity
  8
外形
100
AcDbLine
 10
526.7988327998489
 20
278.2474570709883
 30
0.0
 11
526.7988327998489
 21
278.7474570709882
 31
0.0
  0
VIEWPORT
  5
2D8
102
{ACAD_XDICTIONARY
360
305
102
}
330
2D1
100
AcDbEntity
 67
     1
  8
0
 62
     5
100
AcDbViewport
 10
100.1713539007889
 20
143.6899082421464
 30
0.0
 40
361.461521305562
 41
290.5656508563284
 68
     1
 69
     1
 12
100.1713539007889
 22
143.6899082421464
 13
0.0
 23
0.0
 14
10.0
 24
10.0
 15
10.0
 25
10.0
 16
0.0
 26
0.0
 36
1.0
 17
0.0
 27
0.0
 37
0.0
 42
50.0
 43
0.0
 44
0.0
 45
290.5656508563284
 50
0.0
 51
0.0
 72
   100
 90
    32800
  1

281
     0
 71
     1
 74
     0
110
0.0
120
0.0
130
0.0
111
1.0
121
0.0
131
0.0
112
0.0
122
1.0
132
0.0
 79
     0
146
0.0
  0
VIEWPORT
  5
24AE
330
2D1
100
AcDbEntity
 67
     1
  8
寸法
 62
     5
100
AcDbViewport
 10
100.1712510585784
 20
143.6899168491363
 30
0.0
 40
200.3425021171569
 41
287.3798336982726
 68
     2
 69
     2
 12
490.6012734964422
 22
274.1035497296413
 13
0.0
 23
0.0
 14
10.0
 24
10.0
 15
10.0
 25
10.0
 16
0.0
 26
0.0
 36
1.0
 17
0.0
 27
0.0
 37
0.0
 42
50.0
 43
0.0
 44
0.0
 45
121.0360119576639
 50
0.0
 51
0.0
 72
   100
 90
    32864
  1

281
     0
 71
     1
 74
     0
110
0.0
120
0.0
130
0.0
111
1.0
121
0.0
131
0.0
112
0.0
122
1.0
132
0.0
 79
     0
146
0.0
  0
ENDSEC
  0
SECTION
  2
OBJECTS
  0
DICTIONARY
  5
C
330
0
100
AcDbDictionary
281
     1
  3
ACAD_COLOR
350
2EC
  3
ACAD_GROUP
350
D
  3
ACAD_IMAGE_DICT
350
1354
  3
ACAD_IMAGE_VARS
350
1356
  3
ACAD_LAYOUT
350
1A
  3
ACAD_MATERIAL
350
2EB
  3
ACAD_MLINESTYLE
350
17
  3
ACAD_PLOTSETTINGS
350
19
  3
ACAD_PLOTSTYLENAME
350
E
  3
ACAD_TABLESTYLE
350
2F4
  3
AcadDim
350
11D0
  3
AcDbVariableDictionary
350
309
  0
DICTIONARY
  5
305
330
2D8
100
AcDbDictionary
280
     1
281
     1
  3
ACAD_XREC_ROUNDTRIP
360
306
  0
DICTIONARY
  5
2EC
102
{ACAD_REACTORS
330
C
102
}
330
C
100
AcDbDictionary
281
     1
  0
DICTIONARY
  5
D
102
{ACAD_REACTORS
330
C
102
}
330
C
100
AcDbDictionary
281
     1
  0
DICTIONARY
  5
1354
102
{ACAD_REACTORS
330
C
102
}
330
C
100
AcDbDictionary
281
     1
  3
A$C6DFC16C6
350
184E
  0
RASTERVARIABLES
  5
1356
102
{ACAD_REACTORS
330
C
102
}
330
C
100
AcDbRasterVariables
 90
        0
 70
     1
 71
     1
 72
     1
  0
DICTIONARY
  5
1A
102
{ACAD_REACTORS
330
C
102
}
330
C
100
AcDbDictionary
281
     1
  3
Model
350
22
  3
ﾚｲｱｳﾄ2
350
2D2
  0
DICTIONARY
  5
2EB
102
{ACAD_REACTORS
330
C
102
}
330
C
100
AcDbDictionary
281
     1
  0
DICTIONARY
  5
17
102
{ACAD_REACTORS
330
C
102
}
330
C
100
AcDbDictionary
281
     1
  3
Standard
350
18
  0
DICTIONARY
  5
19
102
{ACAD_REACTORS
330
C
102
}
330
C
100
AcDbDictionary
281
     1
  0
ACDBDICTIONARYWDFLT
  5
E
102
{ACAD_REACTORS
330
C
102
}
330
C
100
AcDbDictionary
281
     1
  3
Normal
350
F
100
AcDbDictionaryWithDefault
340
F
  0
DICTIONARY
  5
2F4
102
{ACAD_REACTORS
330
C
102
}
330
C
100
AcDbDictionary
281
     1
  3
Standard
350
2F5
  0
XRECORD
  5
11D0
102
{ACAD_REACTORS
330
C
102
}
330
C
100
AcDbXrecord
280
     1
 90
   990106
  3

 60
     0
 61
     0
 62
     1
 63
     3
 64
     0
 65
     0
 66
     1
 67
     6
 68
     1
 69
     0
 70
     0
 71
     0
 72
     0
 40
0.0
170
     1
  0
DICTIONARY
  5
309
102
{ACAD_REACTORS
330
C
102
}
330
C
100
AcDbDictionary
281
     1
  3
CTABLESTYLE
350
30A
  3
DIMASSOC
350
30B
  3
PROJECTNAME
350
30C
  0
XRECORD
  5
306
102
{ACAD_REACTORS
330
305
102
}
330
305
100
AcDbXrecord
280
     1
102
SHADEPLOT
 70
     0
  0
IMAGEDEF
  5
184E
102
{ACAD_REACTORS
330
1354
102
}
330
1354
100
AcDbRasterImageDef
 90
        0
  1
E:\DOCUME~1\ADMINI~1\LOCALS~1\Temp\A$C6DFC16C6.dib
 10
307.0
 20
286.0
 11
0.003257328990228
 21
0.003257328990228
280
     1
281
     0
  0
LAYOUT
  5
22
102
{ACAD_XDICTIONARY
360
301
102
}
102
{ACAD_REACTORS
330
1A
102
}
330
1A
100
AcDbPlotSettings
  1

  2
Canon LBP-1420(RYU)
  4
A4
  6
QQQQ
 40
5.873749732971191
 41
5.873747825622558
 42
5.873748779296875
 43
5.873748779296875
 44
209.9733276367187
 45
296.9259948730469
 46
23.58
 47
52.75
 48
449.7158840868912
 49
220.8978748096035
140
540.3503016446079
141
328.7024959165303
142
1.0
143
0.6
 70
 11940
 72
     1
 73
     0
 74
     4
  7
monochrome.ctb
 75
     0
147
1.666666666666666
148
-449.7158840868912
149
-220.8978748096035
100
AcDbLayout
  1
Model
 70
     1
 71
     0
 10
0.0
 20
0.0
 11
12.0
 21
9.0
 12
0.0
 22
0.0
 32
0.0
 14
0.0
 24
0.0
 34
0.0
 15
0.0
 25
0.0
 35
0.0
146
0.0
 13
0.0
 23
0.0
 33
0.0
 16
1.0
 26
0.0
 36
0.0
 17
0.0
 27
1.0
 37
0.0
 76
     0
330
1F
  0
LAYOUT
  5
2D2
102
{ACAD_XDICTIONARY
360
303
102
}
102
{ACAD_REACTORS
330
1A
102
}
330
1A
100
AcDbPlotSettings
  1

  2
none_device
  4
none_user_media
  6

 40
4.773083209991455
 41
4.773089885711669
 42
4.857742309570312
 43
4.7730712890625
 44
209.9733276367187
 45
296.9259948730469
 46
0.0
 47
0.0
 48
0.0
 49
0.0
140
0.0
141
0.0
142
1.0
143
1.0
 70
   688
 72
     1
 73
     0
 74
     5
  7
monochrome.ctb
 75
    16
147
1.0
148
0.0
149
0.0
100
AcDbLayout
  1
ﾚｲｱｳﾄ2
 70
     1
 71
     1
 10
-4.773083209991455
 20
-4.773089885711669
 11
205.2002444267273
 21
292.1529049873352
 12
0.0
 22
0.0
 32
0.0
 14
-0.0178631789239034
 24
-0.0022293163663107
 34
-0.0000000349181948
 15
200.3605709805018
 25
287.3820458006592
 35
0.0000000814935746
146
0.0
 13
0.0
 23
0.0
 33
0.0
 16
1.0
 26
0.0
 36
0.0
 17
0.0
 27
1.0
 37
0.0
 76
     0
330
2D1
331
2D8
  0
MLINESTYLE
  5
18
102
{ACAD_REACTORS
330
17
102
}
330
17
100
AcDbMlineStyle
  2
STANDARD
 70
     0
  3

 62
   256
 51
90.0
 52
90.0
 71
     2
 49
0.5
 62
   256
  6
BYLAYER
 49
-0.5
 62
   256
  6
BYLAYER
  0
ACDBPLACEHOLDER
  5
F
102
{ACAD_REACTORS
330
E
102
}
330
E
  0
ACAD_PROXY_OBJECT
  5
2F5
102
{ACAD_REACTORS
330
2F4
102
}
330
2F4
100
AcDbProxyObject
 90
      499
 91
      503
 95
   655383
 70
     0
 93
     1841
310
4214DD185B99185C9928000000000000F83F0000000000003E0FC00000000000004901028000000C1008070000C3001FDFF8000000C1003FBFF000000182007F7FE00000030400FEFFC00000060801FDFF8000000C1003FBFF000000182000000000000000C2020B0000001820100E000186003FBFF000000182007F7FE000
310
00030400FEFFC00000060801FDFF8000000C1003FBFF000000182007F7FE0000003040000000000000012404160000003040201C00030C007F7FE00000030400FEFFC00000060801FDFF8000000C1003FBFF000000182007F7FE00000030400FEFFC00000060804D
340
11
340
11
340
11
 94
        0
  0
DICTIONARYVAR
  5
30A
102
{ACAD_REACTORS
330
309
102
}
330
309
100
DictionaryVariables
280
     0
  1
STANDARD
  0
DICTIONARYVAR
  5
30B
102
{ACAD_REACTORS
330
309
102
}
330
309
100
DictionaryVariables
280
     0
  1
1
  0
DICTIONARYVAR
  5
30C
102
{ACAD_REACTORS
330
309
102
}
330
309
100
DictionaryVariables
280
     0
  1

  0
DICTIONARY
  5
301
330
22
100
AcDbDictionary
280
     1
281
     1
  3
ACAD_XREC_ROUNDTRIP
360
302
  0
DICTIONARY
  5
303
330
2D2
100
AcDbDictionary
280
     1
281
     1
  3
ACAD_XREC_ROUNDTRIP
360
304
  0
XRECORD
  5
302
102
{ACAD_REACTORS
330
301
102
}
330
301
100
AcDbXrecord
280
     1
102
SHADEPLOT
 70
     0
102
SHADEPLOTRESLEVEL
 70
     2
102
SHADEPLOTCUSTOMDPI
 70
   300
  0
XRECORD
  5
304
102
{ACAD_REACTORS
330
303
102
}
330
303
100
AcDbXrecord
280
     1
102
SHADEPLOT
 70
     0
102
SHADEPLOTRESLEVEL
 70
     2
102
SHADEPLOTCUSTOMDPI
 70
   300
  0
ENDSEC
  0
EOF
