  0
SECTION
  2
HEADER
  9
$ACADVER
  1
AC1015
  9
$ACADMAINTVER
 70
    10
  9
$DWGCODEPAGE
  3
ANSI_932
  9
$INSBASE
 10
0.0
 20
0.0
 30
0.0
  9
$EXTMIN
 10
123.9811571566844
 20
164.9698125793154
 30
0.0
  9
$EXTMAX
 10
753.5384856553296
 20
408.9895149451555
 30
0.0
  9
$LIMMIN
 10
0.0
 20
0.0
  9
$LIMMAX
 10
420.0
 20
297.0
  9
$ORTHOMODE
 70
     1
  9
$REGENMODE
 70
     1
  9
$FILLMODE
 70
     1
  9
$QTEXTMODE
 70
     0
  9
$MIRRTEXT
 70
     0
  9
$LTSCALE
 40
1.0
  9
$ATTMODE
 70
     1
  9
$TEXTSIZE
 40
2.5
  9
$TRACEWID
 40
1.0
  9
$TEXTSTYLE
  7
Standard
  9
$CLAYER
  8
外形
  9
$CELTYPE
  6
ByLayer
  9
$CECOLOR
 62
   256
  9
$CELTSCALE
 40
1.0
  9
$DISPSILH
 70
     0
  9
$DIMSCALE
 40
7.0
  9
$DIMASZ
 40
1.0
  9
$DIMEXO
 40
1.0
  9
$DIMDLI
 40
3.75
  9
$DIMRND
 40
0.0
  9
$DIMDLE
 40
0.0
  9
$DIMEXE
 40
0.5
  9
$DIMTP
 40
0.0
  9
$DIMTM
 40
0.0
  9
$DIMTXT
 40
0.7
  9
$DIMCEN
 40
2.5
  9
$DIMTSZ
 40
0.0
  9
$DIMTOL
 70
     0
  9
$DIMLIM
 70
     0
  9
$DIMTIH
 70
     0
  9
$DIMTOH
 70
     0
  9
$DIMSE1
 70
     0
  9
$DIMSE2
 70
     0
  9
$DIMTAD
 70
     1
  9
$DIMZIN
 70
     8
  9
$DIMBLK
  1

  9
$DIMASO
 70
     1
  9
$DIMSHO
 70
     1
  9
$DIMPOST
  1

  9
$DIMAPOST
  1

  9
$DIMALT
 70
     0
  9
$DIMALTD
 70
     3
  9
$DIMALTF
 40
0.03937007874016
  9
$DIMLFAC
 40
1.0
  9
$DIMTOFL
 70
     1
  9
$DIMTVP
 40
0.0
  9
$DIMTIX
 70
     0
  9
$DIMSOXD
 70
     0
  9
$DIMSAH
 70
     0
  9
$DIMBLK1
  1

  9
$DIMBLK2
  1

  9
$DIMSTYLE
  2
ISO-25
  9
$DIMCLRD
 70
     0
  9
$DIMCLRE
 70
     0
  9
$DIMCLRT
 70
     0
  9
$DIMTFAC
 40
1.0
  9
$DIMGAP
 40
0.2
  9
$DIMJUST
 70
     0
  9
$DIMSD1
 70
     0
  9
$DIMSD2
 70
     0
  9
$DIMTOLJ
 70
     0
  9
$DIMTZIN
 70
     8
  9
$DIMALTZ
 70
     0
  9
$DIMALTTZ
 70
     0
  9
$DIMUPT
 70
     0
  9
$DIMDEC
 70
     2
  9
$DIMTDEC
 70
     2
  9
$DIMALTU
 70
     2
  9
$DIMALTTD
 70
     3
  9
$DIMTXSTY
  7
Standard
  9
$DIMAUNIT
 70
     0
  9
$DIMADEC
 70
     0
  9
$DIMALTRND
 40
0.0
  9
$DIMAZIN
 70
     0
  9
$DIMDSEP
 70
    46
  9
$DIMATFIT
 70
     3
  9
$DIMFRAC
 70
     0
  9
$DIMLDRBLK
  1

  9
$DIMLUNIT
 70
     2
  9
$DIMLWD
 70
    -2
  9
$DIMLWE
 70
    -2
  9
$DIMTMOVE
 70
     0
  9
$LUNITS
 70
     2
  9
$LUPREC
 70
     4
  9
$SKETCHINC
 40
1.0
  9
$FILLETRAD
 40
1.0
  9
$AUNITS
 70
     0
  9
$AUPREC
 70
     0
  9
$MENU
  1
.
  9
$ELEVATION
 40
0.0
  9
$PELEVATION
 40
0.0
  9
$THICKNESS
 40
0.0
  9
$LIMCHECK
 70
     0
  9
$CHAMFERA
 40
0.0
  9
$CHAMFERB
 40
0.0
  9
$CHAMFERC
 40
20.0
  9
$CHAMFERD
 40
0.0
  9
$SKPOLY
 70
     0
  9
$TDCREATE
 40
2453483.907673240
  9
$TDUCREATE
 40
2453483.532673240
  9
$TDUPDATE
 40
2453518.753390833
  9
$TDUUPDATE
 40
2453518.378390833
  9
$TDINDWG
 40
0.2873368866
  9
$TDUSRTIMER
 40
0.2873367014
  9
$USRTIMER
 70
     1
  9
$ANGBASE
 50
0.0
  9
$ANGDIR
 70
     0
  9
$PDMODE
 70
     0
  9
$PDSIZE
 40
0.0
  9
$PLINEWID
 40
0.0
  9
$SPLFRAME
 70
     0
  9
$SPLINETYPE
 70
     6
  9
$SPLINESEGS
 70
     8
  9
$HANDSEED
  5
1A73
  9
$SURFTAB1
 70
     6
  9
$SURFTAB2
 70
     6
  9
$SURFTYPE
 70
     6
  9
$SURFU
 70
     6
  9
$SURFV
 70
     6
  9
$UCSBASE
  2

  9
$UCSNAME
  2

  9
$UCSORG
 10
0.0
 20
0.0
 30
0.0
  9
$UCSXDIR
 10
1.0
 20
0.0
 30
0.0
  9
$UCSYDIR
 10
0.0
 20
1.0
 30
0.0
  9
$UCSORTHOREF
  2

  9
$UCSORTHOVIEW
 70
     0
  9
$UCSORGTOP
 10
0.0
 20
0.0
 30
0.0
  9
$UCSORGBOTTOM
 10
0.0
 20
0.0
 30
0.0
  9
$UCSORGLEFT
 10
0.0
 20
0.0
 30
0.0
  9
$UCSORGRIGHT
 10
0.0
 20
0.0
 30
0.0
  9
$UCSORGFRONT
 10
0.0
 20
0.0
 30
0.0
  9
$UCSORGBACK
 10
0.0
 20
0.0
 30
0.0
  9
$PUCSBASE
  2

  9
$PUCSNAME
  2

  9
$PUCSORG
 10
0.0
 20
0.0
 30
0.0
  9
$PUCSXDIR
 10
1.0
 20
0.0
 30
0.0
  9
$PUCSYDIR
 10
0.0
 20
1.0
 30
0.0
  9
$PUCSORTHOREF
  2

  9
$PUCSORTHOVIEW
 70
     0
  9
$PUCSORGTOP
 10
0.0
 20
0.0
 30
0.0
  9
$PUCSORGBOTTOM
 10
0.0
 20
0.0
 30
0.0
  9
$PUCSORGLEFT
 10
0.0
 20
0.0
 30
0.0
  9
$PUCSORGRIGHT
 10
0.0
 20
0.0
 30
0.0
  9
$PUCSORGFRONT
 10
0.0
 20
0.0
 30
0.0
  9
$PUCSORGBACK
 10
0.0
 20
0.0
 30
0.0
  9
$USERI1
 70
     0
  9
$USERI2
 70
     0
  9
$USERI3
 70
     0
  9
$USERI4
 70
     0
  9
$USERI5
 70
     0
  9
$USERR1
 40
0.0
  9
$USERR2
 40
0.0
  9
$USERR3
 40
0.0
  9
$USERR4
 40
0.0
  9
$USERR5
 40
0.0
  9
$WORLDVIEW
 70
     1
  9
$SHADEDGE
 70
     3
  9
$SHADEDIF
 70
    70
  9
$TILEMODE
 70
     1
  9
$MAXACTVP
 70
    64
  9
$PINSBASE
 10
0.0
 20
0.0
 30
0.0
  9
$PLIMCHECK
 70
     0
  9
$PEXTMIN
 10
-0.0022107197171408
 20
-0.0056219074012347
 30
-0.0015258207003583
  9
$PEXTMAX
 10
200.3467194242936
 20
287.3876809325698
 30
0.0000000349246037
  9
$PLIMMIN
 10
-4.773083209991455
 20
-4.773089885711669
  9
$PLIMMAX
 10
205.2002444267273
 20
292.1529049873352
  9
$UNITMODE
 70
     0
  9
$VISRETAIN
 70
     1
  9
$PLINEGEN
 70
     0
  9
$PSLTSCALE
 70
     1
  9
$TREEDEPTH
 70
  3020
  9
$CMLSTYLE
  2
Standard
  9
$CMLJUST
 70
     0
  9
$CMLSCALE
 40
20.0
  9
$PROXYGRAPHICS
 70
     1
  9
$MEASUREMENT
 70
     1
  9
$CELWEIGHT
370
    -1
  9
$ENDCAPS
280
     0
  9
$JOINSTYLE
280
     0
  9
$LWDISPLAY
290
     0
  9
$INSUNITS
 70
     4
  9
$HYPERLINKBASE
  1

  9
$STYLESHEET
  1
monochrome.ctb
  9
$XEDIT
290
     1
  9
$CEPSNTYPE
380
     0
  9
$PSTYLEMODE
290
     1
  9
$FINGERPRINTGUID
  2
{FDEAD578-A652-11D2-9A35-0060089B3A3F}
  9
$VERSIONGUID
  2
{E8B20029-92BF-4BBA-AE15-5992CFBC41E8}
  9
$EXTNAMES
290
     1
  9
$PSVPSCALE
 40
0.0
  9
$OLESTARTUP
290
     0
  0
ENDSEC
  0
SECTION
  2
CLASSES
  0
CLASS
  1
ACDBDICTIONARYWDFLT
  2
AcDbDictionaryWithDefault
  3
AutoCAD 2000
 90
        0
280
     0
281
     0
  0
CLASS
  1
ACDBPLACEHOLDER
  2
AcDbPlaceHolder
  3
AutoCAD 2000
 90
        0
280
     0
281
     0
  0
CLASS
  1
LAYOUT
  2
AcDbLayout
  3
AutoCAD 2000
 90
        0
280
     0
281
     0
  0
CLASS
  1
TABLESTYLE
  2
AcDbTableStyle
  3
ObjectDBX Classes
 90
     2047
280
     0
281
     0
  0
CLASS
  1
DICTIONARYVAR
  2
AcDbDictionaryVar
  3
AutoCAD 2000
 90
        0
280
     0
281
     0
  0
ENDSEC
  0
SECTION
  2
TABLES
  0
TABLE
  2
VPORT
  5
8
330
0
100
AcDbSymbolTable
 70
     2
  0
VPORT
  5
1A72
330
8
100
AcDbSymbolTableRecord
100
AcDbViewportTableRecord
  2
*Active
 70
     0
 10
0.0
 20
0.0
 11
1.0
 21
1.0
 12
571.8776037772594
 22
272.6245129705272
 13
0.0
 23
0.0
 14
10.0
 24
10.0
 15
10.0
 25
10.0
 16
0.0
 26
0.0
 36
1.0
 17
0.0
 27
0.0
 37
0.0
 40
253.8201511460431
 41
1.561128526645767
 42
50.0
 43
0.0
 44
0.0
 50
0.0
 51
0.0
 71
     0
 72
   100
 73
     1
 74
     3
 75
     0
 76
     0
 77
     0
 78
     0
281
     0
 65
     1
110
0.0
120
0.0
130
0.0
111
1.0
121
0.0
131
0.0
112
0.0
122
1.0
132
0.0
 79
     0
146
0.0
  0
ENDTAB
  0
TABLE
  2
LTYPE
  5
5
330
0
100
AcDbSymbolTable
 70
     2
  0
LTYPE
  5
14
330
5
100
AcDbSymbolTableRecord
100
AcDbLinetypeTableRecord
  2
ByBlock
 70
     0
  3

 72
    65
 73
     0
 40
0.0
  0
LTYPE
  5
15
330
5
100
AcDbSymbolTableRecord
100
AcDbLinetypeTableRecord
  2
ByLayer
 70
     0
  3

 72
    65
 73
     0
 40
0.0
  0
LTYPE
  5
16
330
5
100
AcDbSymbolTableRecord
100
AcDbLinetypeTableRecord
  2
Continuous
 70
     0
  3
Solid line
 72
    65
 73
     0
 40
0.0
  0
LTYPE
  5
79
330
5
100
AcDbSymbolTableRecord
100
AcDbLinetypeTableRecord
  2
CENTER
 70
     0
  3
Center ____ _ ____ _ ____ _ ____ _ ____ _ ____
 72
    65
 73
     4
 40
50.8
 49
31.75
 74
     0
 49
-6.349999999999998
 74
     0
 49
6.349999999999998
 74
     0
 49
-6.349999999999998
 74
     0
  0
ENDTAB
  0
TABLE
  2
LAYER
  5
2
330
0
100
AcDbSymbolTable
 70
     4
  0
LAYER
  5
10
330
2
100
AcDbSymbolTableRecord
100
AcDbLayerTableRecord
  2
0
 70
     0
 62
     7
  6
Continuous
370
    -3
390
F
  0
LAYER
  5
64
330
2
100
AcDbSymbolTableRecord
100
AcDbLayerTableRecord
  2
外形
 70
     0
 62
     7
  6
Continuous
370
    -3
390
F
  0
LAYER
  5
65
330
2
100
AcDbSymbolTableRecord
100
AcDbLayerTableRecord
  2
寸法
 70
     0
 62
     7
  6
Continuous
370
    -3
390
F
  0
LAYER
  5
E3
330
2
100
AcDbSymbolTableRecord
100
AcDbLayerTableRecord
  2
Defpoints
 70
     0
 62
     7
  6
Continuous
290
     0
370
    -3
390
F
  0
ENDTAB
  0
TABLE
  2
STYLE
  5
3
330
0
100
AcDbSymbolTable
 70
     1
  0
STYLE
  5
11
330
3
100
AcDbSymbolTableRecord
100
AcDbTextStyleTableRecord
  2
Standard
 70
     0
 40
0.0
 41
1.0
 50
0.0
 71
     0
 42
2.5
  3
txt
  4

  0
ENDTAB
  0
TABLE
  2
VIEW
  5
6
330
0
100
AcDbSymbolTable
 70
     0
  0
ENDTAB
  0
TABLE
  2
UCS
  5
7
330
0
100
AcDbSymbolTable
 70
     0
  0
ENDTAB
  0
TABLE
  2
APPID
  5
9
330
0
100
AcDbSymbolTable
 70
     1
  0
APPID
  5
12
330
9
100
AcDbSymbolTableRecord
100
AcDbRegAppTableRecord
  2
ACAD
 70
     0
  0
ENDTAB
  0
TABLE
  2
DIMSTYLE
  5
A
330
0
100
AcDbSymbolTable
 70
     1
100
AcDbDimStyleTable
 71
     1
340
27
  0
DIMSTYLE
105
27
102
{ACAD_REACTORS
330
B74
330
B43
330
C51
330
C0D
330
C84
330
F06
330
AB5
330
B1B
330
AF3
330
A96
330
E29
330
E32
330
E33
102
}
330
A
100
AcDbSymbolTableRecord
100
AcDbDimStyleTableRecord
  2
ISO-25
 70
     0
 40
7.0
 41
1.0
 42
1.0
 43
3.75
 44
0.5
 73
     0
 74
     0
 77
     1
 78
     8
140
0.7
141
2.5
143
0.03937007874016
147
0.2
171
     3
172
     1
271
     2
272
     2
274
     3
283
     0
284
     8
340
11
  0
ENDTAB
  0
TABLE
  2
BLOCK_RECORD
  5
1
330
0
100
AcDbSymbolTable
 70
    10
  0
BLOCK_RECORD
  5
1F
330
1
100
AcDbSymbolTableRecord
100
AcDbBlockTableRecord
  2
*Model_Space
340
22
  0
BLOCK_RECORD
  5
2D1
330
1
100
AcDbSymbolTableRecord
100
AcDbBlockTableRecord
  2
*Paper_Space
340
2D2
  0
BLOCK_RECORD
  5
A97
330
1
100
AcDbSymbolTableRecord
100
AcDbBlockTableRecord
  2
*D0
340
0
  0
BLOCK_RECORD
  5
AB6
330
1
100
AcDbSymbolTableRecord
100
AcDbBlockTableRecord
  2
*D1
340
0
  0
BLOCK_RECORD
  5
AF4
330
1
100
AcDbSymbolTableRecord
100
AcDbBlockTableRecord
  2
*D2
340
0
  0
BLOCK_RECORD
  5
B1C
330
1
100
AcDbSymbolTableRecord
100
AcDbBlockTableRecord
  2
*D3
340
0
  0
BLOCK_RECORD
  5
B44
330
1
100
AcDbSymbolTableRecord
100
AcDbBlockTableRecord
  2
*D4
340
0
  0
BLOCK_RECORD
  5
B75
330
1
100
AcDbSymbolTableRecord
100
AcDbBlockTableRecord
  2
*D5
340
0
  0
BLOCK_RECORD
  5
C0E
330
1
100
AcDbSymbolTableRecord
100
AcDbBlockTableRecord
  2
*D6
340
0
  0
BLOCK_RECORD
  5
C52
330
1
100
AcDbSymbolTableRecord
100
AcDbBlockTableRecord
  2
*D7
340
0
  0
BLOCK_RECORD
  5
C85
330
1
100
AcDbSymbolTableRecord
100
AcDbBlockTableRecord
  2
*D8
340
0
  0
BLOCK_RECORD
  5
F07
330
1
100
AcDbSymbolTableRecord
100
AcDbBlockTableRecord
  2
*D9
340
0
  0
ENDTAB
  0
ENDSEC
  0
SECTION
  2
BLOCKS
  0
BLOCK
  5
20
330
1F
100
AcDbEntity
  8
0
100
AcDbBlockBegin
  2
*Model_Space
 70
     0
 10
0.0
 20
0.0
 30
0.0
  3
*Model_Space
  1

  0
ENDBLK
  5
21
330
1F
100
AcDbEntity
  8
0
100
AcDbBlockEnd
  0
BLOCK
  5
2D3
330
2D1
100
AcDbEntity
 67
     1
  8
0
 62
     5
100
AcDbBlockBegin
  2
*Paper_Space
 70
     0
 10
0.0
 20
0.0
 30
0.0
  3
*Paper_Space
  1

  0
ENDBLK
  5
2D4
330
2D1
100
AcDbEntity
 67
     1
  8
0
 62
     5
100
AcDbBlockEnd
  0
BLOCK
  5
AA1
330
A97
100
AcDbEntity
  8
0
100
AcDbBlockBegin
  2
*D0
 70
     1
 10
0.0
 20
0.0
 30
0.0
  3
*D0
  1

  0
LINE
  5
19C0
330
A97
100
AcDbEntity
  8
寸法
 62
     0
370
    -2
100
AcDbLine
 10
532.4067703245266
 20
287.4698125793155
 30
0.0
 11
532.4067703245266
 21
315.3882188131979
 31
0.0
  0
LINE
  5
19C1
330
A97
100
AcDbEntity
  8
寸法
 62
     0
370
    -2
100
AcDbLine
 10
632.4067703245266
 20
295.9698125793157
 30
0.0
 11
632.4067703245266
 21
315.3882188131979
 31
0.0
  0
LINE
  5
19C2
330
A97
100
AcDbEntity
  8
寸法
 62
     0
370
    -2
100
AcDbLine
 10
539.4067703245266
 20
311.8882188131979
 30
0.0
 11
625.4067703245266
 21
311.8882188131979
 31
0.0
  0
SOLID
  5
19C3
330
A97
100
AcDbEntity
  8
寸法
 62
     0
100
AcDbTrace
 10
539.4067703245266
 20
313.0548854798646
 30
0.0
 11
539.4067703245266
 21
310.7215521465312
 31
0.0
 12
532.4067703245266
 22
311.8882188131979
 32
0.0
 13
532.4067703245266
 23
311.8882188131979
 33
0.0
  0
SOLID
  5
19C4
330
A97
100
AcDbEntity
  8
寸法
 62
     0
100
AcDbTrace
 10
625.4067703245266
 20
313.0548854798646
 30
0.0
 11
625.4067703245266
 21
310.7215521465312
 31
0.0
 12
632.4067703245266
 22
311.8882188131979
 32
0.0
 13
632.4067703245266
 23
311.8882188131979
 33
0.0
  0
MTEXT
  5
19C5
330
A97
100
AcDbEntity
  8
寸法
 62
     0
100
AcDbMText
 10
582.4067703245266
 20
315.7382188131979
 30
0.0
 40
4.899999999999999
 41
0.0
 71
     5
 72
     1
  1
100
 73
     1
 44
1.0
  0
POINT
  5
19C6
330
A97
100
AcDbEntity
  8
Defpoints
 62
     0
100
AcDbPoint
 10
532.4067703245266
 20
280.4698125793155
 30
0.0
  0
POINT
  5
19C7
330
A97
100
AcDbEntity
  8
Defpoints
 62
     0
100
AcDbPoint
 10
632.4067703245266
 20
288.9698125793157
 30
0.0
  0
POINT
  5
19C8
330
A97
100
AcDbEntity
  8
Defpoints
 62
     0
100
AcDbPoint
 10
632.4067703245266
 20
311.8882188131979
 30
0.0
  0
ENDBLK
  5
AA2
330
A97
100
AcDbEntity
  8
0
100
AcDbBlockEnd
  0
BLOCK
  5
AC0
330
AB6
100
AcDbEntity
  8
0
100
AcDbBlockBegin
  2
*D1
 70
     1
 10
0.0
 20
0.0
 30
0.0
  3
*D1
  1

  0
LINE
  5
1994
330
AB6
100
AcDbEntity
  8
寸法
 62
     0
370
    -2
100
AcDbLine
 10
459.0322145070476
 20
277.9698125793155
 30
0.0
 11
459.0322145070476
 21
313.9698125793155
 31
0.0
  0
LINE
  5
1995
330
AB6
100
AcDbEntity
  8
寸法
 62
     0
370
    -2
100
AcDbLine
 10
471.0322145070476
 20
277.9698125793155
 30
0.0
 11
471.0322145070476
 21
313.9698125793155
 31
0.0
  0
LINE
  5
1996
330
AB6
100
AcDbEntity
  8
寸法
 62
     0
370
    -2
100
AcDbLine
 10
452.0322145070475
 20
310.4698125793156
 30
0.0
 11
445.0322145070475
 21
310.4698125793156
 31
0.0
  0
LINE
  5
1997
330
AB6
100
AcDbEntity
  8
寸法
 62
     0
370
    -2
100
AcDbLine
 10
478.0322145070475
 20
310.4698125793156
 30
0.0
 11
485.0322145070475
 21
310.4698125793156
 31
0.0
  0
LINE
  5
1998
330
AB6
100
AcDbEntity
  8
寸法
 62
     0
370
    -2
100
AcDbLine
 10
459.0322145070476
 20
310.4698125793156
 30
0.0
 11
471.0322145070476
 21
310.4698125793156
 31
0.0
  0
SOLID
  5
1999
330
AB6
100
AcDbEntity
  8
寸法
 62
     0
100
AcDbTrace
 10
452.0322145070475
 20
311.6364792459823
 30
0.0
 11
452.0322145070475
 21
309.3031459126489
 31
0.0
 12
459.0322145070476
 22
310.4698125793156
 32
0.0
 13
459.0322145070476
 23
310.4698125793156
 33
0.0
  0
SOLID
  5
199A
330
AB6
100
AcDbEntity
  8
寸法
 62
     0
100
AcDbTrace
 10
478.0322145070475
 20
311.6364792459823
 30
0.0
 11
478.0322145070475
 21
309.3031459126489
 31
0.0
 12
471.0322145070476
 22
310.4698125793156
 32
0.0
 13
471.0322145070476
 23
310.4698125793156
 33
0.0
  0
MTEXT
  5
199B
330
AB6
100
AcDbEntity
  8
寸法
 62
     0
100
AcDbMText
 10
465.0322145070475
 20
314.3198125793156
 30
0.0
 40
4.899999999999999
 41
0.0
 71
     5
 72
     1
  1
12
 73
     1
 44
1.0
  0
POINT
  5
199C
330
AB6
100
AcDbEntity
  8
Defpoints
 62
     0
100
AcDbPoint
 10
459.0322145070476
 20
270.9698125793155
 30
0.0
  0
POINT
  5
199D
330
AB6
100
AcDbEntity
  8
Defpoints
 62
     0
100
AcDbPoint
 10
471.0322145070476
 20
270.9698125793155
 30
0.0
  0
POINT
  5
199E
330
AB6
100
AcDbEntity
  8
Defpoints
 62
     0
100
AcDbPoint
 10
471.0322145070476
 20
310.4698125793156
 30
0.0
  0
ENDBLK
  5
AC1
330
AB6
100
AcDbEntity
  8
0
100
AcDbBlockEnd
  0
BLOCK
  5
AFE
330
AF4
100
AcDbEntity
  8
0
100
AcDbBlockBegin
  2
*D2
 70
     1
 10
0.0
 20
0.0
 30
0.0
  3
*D2
  1

  0
LINE
  5
19A8
330
AF4
100
AcDbEntity
  8
寸法
 62
     0
370
    -2
100
AcDbLine
 10
457.5322145070475
 20
294.8822221379172
 30
0.0
 11
457.5322145070475
 21
334.9698125793155
 31
0.0
  0
LINE
  5
19A9
330
AF4
100
AcDbEntity
  8
寸法
 62
     0
370
    -2
100
AcDbLine
 10
472.5322145070473
 20
294.8822221379173
 30
0.0
 11
472.5322145070473
 21
334.9698125793155
 31
0.0
  0
LINE
  5
19AA
330
AF4
100
AcDbEntity
  8
寸法
 62
     0
370
    -2
100
AcDbLine
 10
450.5322145070476
 20
331.4698125793156
 30
0.0
 11
443.5322145070475
 21
331.4698125793156
 31
0.0
  0
LINE
  5
19AB
330
AF4
100
AcDbEntity
  8
寸法
 62
     0
370
    -2
100
AcDbLine
 10
479.5322145070473
 20
331.4698125793156
 30
0.0
 11
486.5322145070473
 21
331.4698125793156
 31
0.0
  0
LINE
  5
19AC
330
AF4
100
AcDbEntity
  8
寸法
 62
     0
370
    -2
100
AcDbLine
 10
457.5322145070475
 20
331.4698125793156
 30
0.0
 11
472.5322145070473
 21
331.4698125793156
 31
0.0
  0
SOLID
  5
19AD
330
AF4
100
AcDbEntity
  8
寸法
 62
     0
100
AcDbTrace
 10
450.5322145070476
 20
332.6364792459822
 30
0.0
 11
450.5322145070476
 21
330.3031459126489
 31
0.0
 12
457.5322145070475
 22
331.4698125793156
 32
0.0
 13
457.5322145070475
 23
331.4698125793156
 33
0.0
  0
SOLID
  5
19AE
330
AF4
100
AcDbEntity
  8
寸法
 62
     0
100
AcDbTrace
 10
479.5322145070473
 20
332.6364792459822
 30
0.0
 11
479.5322145070473
 21
330.3031459126489
 31
0.0
 12
472.5322145070473
 22
331.4698125793156
 32
0.0
 13
472.5322145070473
 23
331.4698125793156
 33
0.0
  0
MTEXT
  5
19AF
330
AF4
100
AcDbEntity
  8
寸法
 62
     0
100
AcDbMText
 10
465.0322145070474
 20
335.3198125793156
 30
0.0
 40
4.899999999999999
 41
0.0
 71
     5
 72
     1
  1
15
 73
     1
 44
1.0
  0
POINT
  5
19B0
330
AF4
100
AcDbEntity
  8
Defpoints
 62
     0
100
AcDbPoint
 10
457.5322145070475
 20
287.8822221379172
 30
0.0
  0
POINT
  5
19B1
330
AF4
100
AcDbEntity
  8
Defpoints
 62
     0
100
AcDbPoint
 10
472.5322145070473
 20
287.8822221379173
 30
0.0
  0
POINT
  5
19B2
330
AF4
100
AcDbEntity
  8
Defpoints
 62
     0
100
AcDbPoint
 10
472.5322145070473
 20
331.4698125793156
 30
0.0
  0
ENDBLK
  5
AFF
330
AF4
100
AcDbEntity
  8
0
100
AcDbBlockEnd
  0
BLOCK
  5
B26
330
B1C
100
AcDbEntity
  8
0
100
AcDbBlockBegin
  2
*D3
 70
     1
 10
0.0
 20
0.0
 30
0.0
  3
*D3
  1

  0
LINE
  5
199F
330
B1C
100
AcDbEntity
  8
寸法
 62
     0
370
    -2
100
AcDbLine
 10
451.5322145070476
 20
295.4698125793155
 30
0.0
 11
451.5322145070476
 21
355.9698125793155
 31
0.0
  0
LINE
  5
19A0
330
B1C
100
AcDbEntity
  8
寸法
 62
     0
370
    -2
100
AcDbLine
 10
478.5322145070473
 20
295.4698125793157
 30
0.0
 11
478.5322145070473
 21
355.9698125793155
 31
0.0
  0
LINE
  5
19A1
330
B1C
100
AcDbEntity
  8
寸法
 62
     0
370
    -2
100
AcDbLine
 10
458.5322145070476
 20
352.4698125793156
 30
0.0
 11
471.5322145070473
 21
352.4698125793156
 31
0.0
  0
SOLID
  5
19A2
330
B1C
100
AcDbEntity
  8
寸法
 62
     0
100
AcDbTrace
 10
458.5322145070476
 20
353.6364792459822
 30
0.0
 11
458.5322145070476
 21
351.3031459126489
 31
0.0
 12
451.5322145070476
 22
352.4698125793156
 32
0.0
 13
451.5322145070476
 23
352.4698125793156
 33
0.0
  0
SOLID
  5
19A3
330
B1C
100
AcDbEntity
  8
寸法
 62
     0
100
AcDbTrace
 10
471.5322145070473
 20
353.6364792459822
 30
0.0
 11
471.5322145070473
 21
351.3031459126489
 31
0.0
 12
478.5322145070473
 22
352.4698125793156
 32
0.0
 13
478.5322145070473
 23
352.4698125793156
 33
0.0
  0
MTEXT
  5
19A4
330
B1C
100
AcDbEntity
  8
寸法
 62
     0
100
AcDbMText
 10
465.0322145070474
 20
356.3198125793156
 30
0.0
 40
4.899999999999999
 41
0.0
 71
     5
 72
     1
  1
27
 73
     1
 44
1.0
  0
POINT
  5
19A5
330
B1C
100
AcDbEntity
  8
Defpoints
 62
     0
100
AcDbPoint
 10
451.5322145070476
 20
288.4698125793156
 30
0.0
  0
POINT
  5
19A6
330
B1C
100
AcDbEntity
  8
Defpoints
 62
     0
100
AcDbPoint
 10
478.5322145070473
 20
288.4698125793157
 30
0.0
  0
POINT
  5
19A7
330
B1C
100
AcDbEntity
  8
Defpoints
 62
     0
100
AcDbPoint
 10
478.5322145070473
 20
352.4698125793156
 30
0.0
  0
ENDBLK
  5
B27
330
B1C
100
AcDbEntity
  8
0
100
AcDbBlockEnd
  0
BLOCK
  5
B4E
330
B44
100
AcDbEntity
  8
0
100
AcDbBlockBegin
  2
*D4
 70
     1
 10
0.0
 20
0.0
 30
0.0
  3
*D4
  1

  0
LINE
  5
1965
330
B44
100
AcDbEntity
  8
寸法
 62
     0
370
    -2
100
AcDbLine
 10
447.1198049484459
 20
284.4698125793156
 30
0.0
 11
425.1070669582274
 21
284.4698125793156
 31
0.0
  0
LINE
  5
1966
330
B44
100
AcDbEntity
  8
寸法
 62
     0
370
    -2
100
AcDbLine
 10
446.0322145070477
 20
194.4698125793154
 30
0.0
 11
425.1070669582274
 21
194.4698125793154
 31
0.0
  0
LINE
  5
1967
330
B44
100
AcDbEntity
  8
寸法
 62
     0
370
    -2
100
AcDbLine
 10
428.6070669582273
 20
277.4698125793156
 30
0.0
 11
428.6070669582273
 21
201.4698125793154
 31
0.0
  0
SOLID
  5
1968
330
B44
100
AcDbEntity
  8
寸法
 62
     0
100
AcDbTrace
 10
427.4404002915606
 20
277.4698125793156
 30
0.0
 11
429.7737336248941
 21
277.4698125793156
 31
0.0
 12
428.6070669582273
 22
284.4698125793156
 32
0.0
 13
428.6070669582273
 23
284.4698125793156
 33
0.0
  0
SOLID
  5
1969
330
B44
100
AcDbEntity
  8
寸法
 62
     0
100
AcDbTrace
 10
427.4404002915606
 20
201.4698125793154
 30
0.0
 11
429.7737336248941
 21
201.4698125793154
 31
0.0
 12
428.6070669582273
 22
194.4698125793154
 32
0.0
 13
428.6070669582273
 23
194.4698125793154
 33
0.0
  0
MTEXT
  5
196A
330
B44
100
AcDbEntity
  8
寸法
 62
     0
100
AcDbMText
 10
424.7570669582272
 20
239.4698125793155
 30
0.0
 40
4.899999999999999
 41
0.0
 71
     5
 72
     1
  1
90
 11
0.0000000000000001
 21
1.0
 31
0.0
 73
     1
 44
1.0
  0
POINT
  5
196B
330
B44
100
AcDbEntity
  8
Defpoints
 62
     0
100
AcDbPoint
 10
454.1198049484458
 20
284.4698125793156
 30
0.0
  0
POINT
  5
196C
330
B44
100
AcDbEntity
  8
Defpoints
 62
     0
100
AcDbPoint
 10
453.0322145070477
 20
194.4698125793154
 30
0.0
  0
POINT
  5
196D
330
B44
100
AcDbEntity
  8
Defpoints
 62
     0
100
AcDbPoint
 10
428.6070669582273
 20
194.4698125793154
 30
0.0
  0
ENDBLK
  5
B4F
330
B44
100
AcDbEntity
  8
0
100
AcDbBlockEnd
  0
BLOCK
  5
B7F
330
B75
100
AcDbEntity
  8
0
100
AcDbBlockBegin
  2
*D5
 70
     1
 10
0.0
 20
0.0
 30
0.0
  3
*D5
  1

  0
LINE
  5
195C
330
B75
100
AcDbEntity
  8
寸法
 62
     0
370
    -2
100
AcDbLine
 10
445.5322145070476
 20
289.4698125793156
 30
0.0
 11
404.1070669582273
 21
289.4698125793156
 31
0.0
  0
LINE
  5
195D
330
B75
100
AcDbEntity
  8
寸法
 62
     0
370
    -2
100
AcDbLine
 10
445.5322145070477
 20
189.4698125793154
 30
0.0
 11
404.1070669582273
 21
189.4698125793154
 31
0.0
  0
LINE
  5
195E
330
B75
100
AcDbEntity
  8
寸法
 62
     0
370
    -2
100
AcDbLine
 10
407.6070669582273
 20
282.4698125793156
 30
0.0
 11
407.6070669582273
 21
196.4698125793154
 31
0.0
  0
SOLID
  5
195F
330
B75
100
AcDbEntity
  8
寸法
 62
     0
100
AcDbTrace
 10
406.4404002915606
 20
282.4698125793156
 30
0.0
 11
408.773733624894
 21
282.4698125793156
 31
0.0
 12
407.6070669582273
 22
289.4698125793156
 32
0.0
 13
407.6070669582273
 23
289.4698125793156
 33
0.0
  0
SOLID
  5
1960
330
B75
100
AcDbEntity
  8
寸法
 62
     0
100
AcDbTrace
 10
406.4404002915606
 20
196.4698125793154
 30
0.0
 11
408.773733624894
 21
196.4698125793154
 31
0.0
 12
407.6070669582273
 22
189.4698125793154
 32
0.0
 13
407.6070669582273
 23
189.4698125793154
 33
0.0
  0
MTEXT
  5
1961
330
B75
100
AcDbEntity
  8
寸法
 62
     0
100
AcDbMText
 10
403.7570669582272
 20
239.4698125793156
 30
0.0
 40
4.899999999999999
 41
0.0
 71
     5
 72
     1
  1
100
 11
0.0000000000000001
 21
1.0
 31
0.0
 73
     1
 44
1.0
  0
POINT
  5
1962
330
B75
100
AcDbEntity
  8
Defpoints
 62
     0
100
AcDbPoint
 10
452.5322145070476
 20
289.4698125793156
 30
0.0
  0
POINT
  5
1963
330
B75
100
AcDbEntity
  8
Defpoints
 62
     0
100
AcDbPoint
 10
452.5322145070477
 20
189.4698125793154
 30
0.0
  0
POINT
  5
1964
330
B75
100
AcDbEntity
  8
Defpoints
 62
     0
100
AcDbPoint
 10
407.6070669582273
 20
189.4698125793154
 30
0.0
  0
ENDBLK
  5
B80
330
B75
100
AcDbEntity
  8
0
100
AcDbBlockEnd
  0
BLOCK
  5
C18
330
C0E
100
AcDbEntity
  8
0
100
AcDbBlockBegin
  2
*D6
 70
     1
 10
0.0
 20
0.0
 30
0.0
  3
*D6
  1

  0
LINE
  5
1977
330
C0E
100
AcDbEntity
  8
寸法
 62
     0
370
    -2
100
AcDbLine
 10
478.0322145070475
 20
270.9698125793155
 30
0.0
 11
503.0322145070474
 21
270.9698125793155
 31
0.0
  0
LINE
  5
1978
330
C0E
100
AcDbEntity
  8
寸法
 62
     0
370
    -2
100
AcDbLine
 10
493.0233919162055
 20
239.4698125793155
 30
0.0
 11
503.0322145070474
 21
239.4698125793155
 31
0.0
  0
LINE
  5
1979
330
C0E
100
AcDbEntity
  8
寸法
 62
     0
370
    -2
100
AcDbLine
 10
499.5322145070474
 20
263.9698125793155
 30
0.0
 11
499.5322145070474
 21
246.4698125793155
 31
0.0
  0
SOLID
  5
197A
330
C0E
100
AcDbEntity
  8
寸法
 62
     0
100
AcDbTrace
 10
498.3655478403807
 20
263.9698125793155
 30
0.0
 11
500.6988811737141
 21
263.9698125793155
 31
0.0
 12
499.5322145070474
 22
270.9698125793155
 32
0.0
 13
499.5322145070474
 23
270.9698125793155
 33
0.0
  0
SOLID
  5
197B
330
C0E
100
AcDbEntity
  8
寸法
 62
     0
100
AcDbTrace
 10
498.3655478403807
 20
246.4698125793155
 30
0.0
 11
500.6988811737141
 21
246.4698125793155
 31
0.0
 12
499.5322145070474
 22
239.4698125793155
 32
0.0
 13
499.5322145070474
 23
239.4698125793155
 33
0.0
  0
MTEXT
  5
197C
330
C0E
100
AcDbEntity
  8
寸法
 62
     0
100
AcDbMText
 10
495.6822145070473
 20
255.2198125793156
 30
0.0
 40
4.899999999999999
 41
0.0
 71
     5
 72
     1
  1
31.5
 11
0.0000000000000001
 21
1.0
 31
0.0
 73
     1
 44
1.0
  0
POINT
  5
197D
330
C0E
100
AcDbEntity
  8
Defpoints
 62
     0
100
AcDbPoint
 10
471.0322145070476
 20
270.9698125793155
 30
0.0
  0
POINT
  5
197E
330
C0E
100
AcDbEntity
  8
Defpoints
 62
     0
100
AcDbPoint
 10
486.0233919162054
 20
239.4698125793155
 30
0.0
  0
POINT
  5
197F
330
C0E
100
AcDbEntity
  8
Defpoints
 62
     0
100
AcDbPoint
 10
499.5322145070474
 20
239.4698125793155
 30
0.0
  0
ENDBLK
  5
C19
330
C0E
100
AcDbEntity
  8
0
100
AcDbBlockEnd
  0
BLOCK
  5
C5C
330
C52
100
AcDbEntity
  8
0
100
AcDbBlockBegin
  2
*D7
 70
     1
 10
0.0
 20
0.0
 30
0.0
  3
*D7
  1

  0
LINE
  5
196E
330
C52
100
AcDbEntity
  8
寸法
 62
     0
370
    -2
100
AcDbLine
 10
493.2233919162055
 20
239.4698125793155
 30
0.0
 11
503.0322145070474
 21
239.4698125793155
 31
0.0
  0
LINE
  5
196F
330
C52
100
AcDbEntity
  8
寸法
 62
     0
370
    -2
100
AcDbLine
 10
478.0322145070477
 20
207.9698125793155
 30
0.0
 11
503.0322145070474
 21
207.9698125793155
 31
0.0
  0
LINE
  5
1970
330
C52
100
AcDbEntity
  8
寸法
 62
     0
370
    -2
100
AcDbLine
 10
499.5322145070474
 20
232.4698125793155
 30
0.0
 11
499.5322145070474
 21
214.9698125793155
 31
0.0
  0
SOLID
  5
1971
330
C52
100
AcDbEntity
  8
寸法
 62
     0
100
AcDbTrace
 10
498.3655478403807
 20
232.4698125793155
 30
0.0
 11
500.6988811737141
 21
232.4698125793155
 31
0.0
 12
499.5322145070474
 22
239.4698125793155
 32
0.0
 13
499.5322145070474
 23
239.4698125793155
 33
0.0
  0
SOLID
  5
1972
330
C52
100
AcDbEntity
  8
寸法
 62
     0
100
AcDbTrace
 10
498.3655478403807
 20
214.9698125793155
 30
0.0
 11
500.6988811737141
 21
214.9698125793155
 31
0.0
 12
499.5322145070474
 22
207.9698125793155
 32
0.0
 13
499.5322145070474
 23
207.9698125793155
 33
0.0
  0
MTEXT
  5
1973
330
C52
100
AcDbEntity
  8
寸法
 62
     0
100
AcDbMText
 10
495.6822145070473
 20
223.7198125793156
 30
0.0
 40
4.899999999999999
 41
0.0
 71
     5
 72
     1
  1
31.5
 11
0.0000000000000001
 21
1.0
 31
0.0
 73
     1
 44
1.0
  0
POINT
  5
1974
330
C52
100
AcDbEntity
  8
Defpoints
 62
     0
100
AcDbPoint
 10
486.2233919162055
 20
239.4698125793155
 30
0.0
  0
POINT
  5
1975
330
C52
100
AcDbEntity
  8
Defpoints
 62
     0
100
AcDbPoint
 10
471.0322145070477
 20
207.9698125793155
 30
0.0
  0
POINT
  5
1976
330
C52
100
AcDbEntity
  8
Defpoints
 62
     0
100
AcDbPoint
 10
499.5322145070474
 20
207.9698125793155
 30
0.0
  0
ENDBLK
  5
C5D
330
C52
100
AcDbEntity
  8
0
100
AcDbBlockEnd
  0
BLOCK
  5
C8F
330
C85
100
AcDbEntity
  8
0
100
AcDbBlockBegin
  2
*D8
 70
     1
 10
0.0
 20
0.0
 30
0.0
  3
*D8
  1

  0
LINE
  5
1980
330
C85
100
AcDbEntity
  8
寸法
 62
     0
370
    -2
100
AcDbLine
 10
471.0322145070477
 20
200.9698125793155
 30
0.0
 11
471.0322145070477
 21
164.9698125793154
 31
0.0
  0
LINE
  5
1981
330
C85
100
AcDbEntity
  8
寸法
 62
     0
370
    -2
100
AcDbLine
 10
459.0322145070476
 20
200.9698125793155
 30
0.0
 11
459.0322145070476
 21
164.9698125793154
 31
0.0
  0
LINE
  5
1982
330
C85
100
AcDbEntity
  8
寸法
 62
     0
370
    -2
100
AcDbLine
 10
478.0322145070477
 20
168.4698125793154
 30
0.0
 11
485.0322145070476
 21
168.4698125793154
 31
0.0
  0
LINE
  5
1983
330
C85
100
AcDbEntity
  8
寸法
 62
     0
370
    -2
100
AcDbLine
 10
452.0322145070476
 20
168.4698125793154
 30
0.0
 11
445.0322145070477
 21
168.4698125793154
 31
0.0
  0
LINE
  5
1984
330
C85
100
AcDbEntity
  8
寸法
 62
     0
370
    -2
100
AcDbLine
 10
471.0322145070477
 20
168.4698125793154
 30
0.0
 11
459.0322145070476
 21
168.4698125793154
 31
0.0
  0
SOLID
  5
1985
330
C85
100
AcDbEntity
  8
寸法
 62
     0
100
AcDbTrace
 10
478.0322145070477
 20
169.636479245982
 30
0.0
 11
478.0322145070477
 21
167.3031459126487
 31
0.0
 12
471.0322145070477
 22
168.4698125793154
 32
0.0
 13
471.0322145070477
 23
168.4698125793154
 33
0.0
  0
SOLID
  5
1986
330
C85
100
AcDbEntity
  8
寸法
 62
     0
100
AcDbTrace
 10
452.0322145070476
 20
169.636479245982
 30
0.0
 11
452.0322145070476
 21
167.3031459126487
 31
0.0
 12
459.0322145070476
 22
168.4698125793154
 32
0.0
 13
459.0322145070476
 23
168.4698125793154
 33
0.0
  0
MTEXT
  5
1987
330
C85
100
AcDbEntity
  8
寸法
 62
     0
100
AcDbMText
 10
465.0322145070476
 20
172.3198125793154
 30
0.0
 40
4.899999999999999
 41
0.0
 71
     5
 72
     1
  1
12
 73
     1
 44
1.0
  0
POINT
  5
1988
330
C85
100
AcDbEntity
  8
Defpoints
 62
     0
100
AcDbPoint
 10
471.0322145070477
 20
207.9698125793155
 30
0.0
  0
POINT
  5
1989
330
C85
100
AcDbEntity
  8
Defpoints
 62
     0
100
AcDbPoint
 10
459.0322145070476
 20
207.9698125793155
 30
0.0
  0
POINT
  5
198A
330
C85
100
AcDbEntity
  8
Defpoints
 62
     0
100
AcDbPoint
 10
459.0322145070476
 20
168.4698125793154
 30
0.0
  0
ENDBLK
  5
C90
330
C85
100
AcDbEntity
  8
0
100
AcDbBlockEnd
  0
BLOCK
  5
F11
330
F07
100
AcDbEntity
  8
0
100
AcDbBlockBegin
  2
*D9
 70
     1
 10
0.0
 20
0.0
 30
0.0
  3
*D9
  1

  0
LINE
  5
198B
330
F07
100
AcDbEntity
  8
寸法
 62
     0
370
    -2
100
AcDbLine
 10
530.6269473763931
 20
279.4698125793155
 30
0.0
 11
507.9067703245266
 21
279.4698125793155
 31
0.0
  0
LINE
  5
198C
330
F07
100
AcDbEntity
  8
寸法
 62
     0
370
    -2
100
AcDbLine
 10
530.6269473763931
 20
199.4698125793155
 30
0.0
 11
507.9067703245266
 21
199.4698125793155
 31
0.0
  0
LINE
  5
198D
330
F07
100
AcDbEntity
  8
寸法
 62
     0
370
    -2
100
AcDbLine
 10
511.4067703245266
 20
272.4698125793155
 30
0.0
 11
511.4067703245266
 21
206.4698125793155
 31
0.0
  0
SOLID
  5
198E
330
F07
100
AcDbEntity
  8
寸法
 62
     0
100
AcDbTrace
 10
510.2401036578599
 20
272.4698125793155
 30
0.0
 11
512.5734369911933
 21
272.4698125793155
 31
0.0
 12
511.4067703245266
 22
279.4698125793155
 32
0.0
 13
511.4067703245266
 23
279.4698125793155
 33
0.0
  0
SOLID
  5
198F
330
F07
100
AcDbEntity
  8
寸法
 62
     0
100
AcDbTrace
 10
510.2401036578599
 20
206.4698125793155
 30
0.0
 11
512.5734369911932
 21
206.4698125793155
 31
0.0
 12
511.4067703245266
 22
199.4698125793155
 32
0.0
 13
511.4067703245266
 23
199.4698125793155
 33
0.0
  0
MTEXT
  5
1990
330
F07
100
AcDbEntity
  8
寸法
 62
     0
100
AcDbMText
 10
507.5567703245265
 20
239.4698125793156
 30
0.0
 40
4.899999999999999
 41
0.0
 71
     5
 72
     1
  1
80
 11
0.0000000000000001
 21
1.0
 31
0.0
 73
     1
 44
1.0
  0
POINT
  5
1991
330
F07
100
AcDbEntity
  8
Defpoints
 62
     0
100
AcDbPoint
 10
537.626947376393
 20
279.4698125793155
 30
0.0
  0
POINT
  5
1992
330
F07
100
AcDbEntity
  8
Defpoints
 62
     0
100
AcDbPoint
 10
537.626947376393
 20
199.4698125793155
 30
0.0
  0
POINT
  5
1993
330
F07
100
AcDbEntity
  8
Defpoints
 62
     0
100
AcDbPoint
 10
511.4067703245266
 20
199.4698125793155
 30
0.0
  0
ENDBLK
  5
F12
330
F07
100
AcDbEntity
  8
0
100
AcDbBlockEnd
  0
ENDSEC
  0
SECTION
  2
ENTITIES
  0
LINE
  5
74A
330
1F
100
AcDbEntity
  8
外形
100
AcDbLine
 10
537.4067703245267
 20
279.4698125793155
 30
0.0
 11
558.406770324525
 21
279.4698125793155
 31
0.0
  0
LINE
  5
74C
330
1F
100
AcDbEntity
  8
外形
100
AcDbLine
 10
532.4067703245266
 20
280.4698125793155
 30
0.0
 11
537.4067703245267
 21
280.4698125793155
 31
0.0
  0
LINE
  5
74D
330
1F
100
AcDbEntity
  8
外形
100
AcDbLine
 10
532.4067703245266
 20
198.4698125793155
 30
0.0
 11
537.4067703245266
 21
198.4698125793156
 31
0.0
  0
LINE
  5
74E
330
1F
100
AcDbEntity
  8
外形
100
AcDbLine
 10
532.4067703245266
 20
280.4698125793155
 30
0.0
 11
532.4067703245266
 21
198.4698125793155
 31
0.0
  0
LINE
  5
74F
330
1F
100
AcDbEntity
  8
外形
100
AcDbLine
 10
537.4067703245267
 20
280.4698125793155
 30
0.0
 11
537.4067703245266
 21
198.4698125793156
 31
0.0
  0
LINE
  5
750
330
1F
100
AcDbEntity
  8
外形
100
AcDbLine
 10
553.4067703245267
 20
279.4698125793155
 30
0.0
 11
553.4067703245266
 21
199.4698125793155
 31
0.0
  0
LINE
  5
751
330
1F
100
AcDbEntity
  8
外形
100
AcDbLine
 10
558.3767475588651
 20
279.4698125793155
 30
0.0
 11
558.3767475588651
 21
199.4698125793155
 31
0.0
  0
LINE
  5
752
330
1F
100
AcDbEntity
  8
外形
100
AcDbLine
 10
559.5357240628727
 20
278.4698125793156
 30
0.0
 11
559.5357240628727
 21
200.4698125793155
 31
0.0
  0
LINE
  5
753
330
1F
100
AcDbEntity
  8
外形
100
AcDbLine
 10
562.5709159293578
 20
278.4698125793156
 30
0.0
 11
562.570915929358
 21
200.4698125793155
 31
0.0
  0
LINE
  5
75B
330
1F
100
AcDbEntity
  8
外形
100
AcDbLine
 10
559.5357240628725
 20
278.4698125793157
 30
0.0
 11
626.5445435990367
 21
278.4698125793155
 31
0.0
  0
LINE
  5
779
330
1F
100
AcDbEntity
  8
0
 62
   230
370
     0
100
AcDbLine
 10
632.3680675338746
 20
203.365126086313
 30
0.0
 11
632.3680675338746
 21
203.365126086313
 31
0.0
  0
LINE
  5
7AC
330
1F
100
AcDbEntity
  8
外形
100
AcDbLine
 10
559.5357240628727
 20
278.4698125793156
 30
0.0
 11
558.4067703245251
 21
279.4698125793155
 31
0.0
  0
LINE
  5
7AD
330
1F
100
AcDbEntity
  8
外形
100
AcDbLine
 10
559.5357240628727
 20
200.4698125793155
 30
0.0
 11
626.5445435990367
 21
200.4698125793156
 31
0.0
  0
LINE
  5
7AE
330
1F
100
AcDbEntity
  8
外形
100
AcDbLine
 10
537.4067703245266
 20
199.4698125793155
 30
0.0
 11
558.4067703245251
 21
199.4698125793155
 31
0.0
  0
LINE
  5
7AF
330
1F
100
AcDbEntity
  8
外形
100
AcDbLine
 10
559.5357240628727
 20
200.4698125793155
 30
0.0
 11
558.4067703245251
 21
199.4698125793155
 31
0.0
  0
LINE
  5
7B0
330
1F
100
AcDbEntity
  8
外形
100
AcDbLine
 10
626.5445435990367
 20
278.4698125793155
 30
0.0
 11
626.5445435990367
 21
200.4698125793156
 31
0.0
  0
LINE
  5
7C6
330
1F
100
AcDbEntity
  8
外形
100
AcDbLine
 10
632.4067703245266
 20
275.8486201699472
 30
0.0
 11
632.4067703245266
 21
288.9698125793157
 31
0.0
  0
LINE
  5
7C7
330
1F
100
AcDbEntity
  8
外形
100
AcDbLine
 10
630.4067703245266
 20
277.8486201699472
 30
0.0
 11
630.4067703245267
 21
288.9698125793157
 31
0.0
  0
LINE
  5
7C8
330
1F
100
AcDbEntity
  8
外形
100
AcDbLine
 10
626.5445435990366
 20
275.3486201699472
 30
0.0
 11
631.9067703245266
 21
275.3486201699472
 31
0.0
  0
LINE
  5
7C9
330
1F
100
AcDbEntity
  8
外形
100
AcDbLine
 10
626.5445435990366
 20
277.3486201699472
 30
0.0
 11
629.9067703245266
 21
277.3486201699472
 31
0.0
  0
LINE
  5
7D7
330
1F
100
AcDbEntity
  8
外形
100
AcDbLine
 10
630.9067703245267
 20
289.4698125793157
 30
0.0
 11
631.9067703245266
 21
289.4698125793157
 31
0.0
  0
ARC
  5
7D8
330
1F
100
AcDbEntity
  8
外形
100
AcDbCircle
 10
630.9067703245267
 20
288.9698125793157
 30
0.0
 40
0.5
100
AcDbArc
 50
90.0
 51
180.0
  0
ARC
  5
7D9
330
1F
100
AcDbEntity
  8
外形
100
AcDbCircle
 10
631.9067703245266
 20
288.9698125793157
 30
0.0
 40
0.5
100
AcDbArc
 50
359.9999999999994
 51
90.0
  0
ARC
  5
7DA
330
1F
100
AcDbEntity
  8
外形
100
AcDbCircle
 10
629.9067703245266
 20
277.8486201699472
 30
0.0
 40
0.5
100
AcDbArc
 50
270.0
 51
359.9999999999993
  0
ARC
  5
7DB
330
1F
100
AcDbEntity
  8
外形
100
AcDbCircle
 10
631.9067703245266
 20
275.8486201699472
 30
0.0
 40
0.5
100
AcDbArc
 50
270.0
 51
359.9999999999994
  0
ARC
  5
7DC
330
1F
100
AcDbEntity
  8
外形
100
AcDbCircle
 10
626.5445435990367
 20
252.5779772103288
 30
0.0
 40
1.75
100
AcDbArc
 50
270.0
 51
90.0
  0
ARC
  5
7DD
330
1F
100
AcDbEntity
  8
外形
100
AcDbCircle
 10
626.5445435990367
 20
226.3616479483022
 30
0.0
 40
1.75
100
AcDbArc
 50
270.0
 51
90.00000000000003
  0
LINE
  5
7DF
330
1F
100
AcDbEntity
  8
外形
100
AcDbLine
 10
630.9851147752204
 20
263.3308290502256
 30
0.0
 11
630.9851147752205
 21
255.2426581231054
 31
0.0
  0
LINE
  5
7E0
330
1F
100
AcDbEntity
  8
外形
100
AcDbLine
 10
626.5445435990367
 20
265.2013572327199
 30
0.0
 11
630.6463375410705
 21
263.8041230600881
 31
0.0
  0
LINE
  5
7E3
330
1F
100
AcDbEntity
  8
外形
100
AcDbLine
 10
629.8650973156235
 20
254.7426581231055
 30
0.0
 11
630.4851147752205
 21
254.7426581231054
 31
0.0
  0
LINE
  5
7E4
330
1F
100
AcDbEntity
  8
外形
100
AcDbLine
 10
626.5445435990367
 20
256.1452677521266
 30
0.0
 11
628.2848288226463
 21
256.1452677521266
 31
0.0
  0
LINE
  5
7E5
330
1F
100
AcDbEntity
  8
外形
100
AcDbLine
 10
628.6794548707725
 20
255.9523024116364
 30
0.0
 11
629.4704712674973
 21
254.9356234635957
 31
0.0
  0
ARC
  5
7E6
330
1F
100
AcDbEntity
  8
外形
100
AcDbCircle
 10
630.4851147752203
 20
263.3308290502256
 30
0.0
 40
0.5
100
AcDbArc
 50
0.0
 51
71.18911507734238
  0
ARC
  5
7E7
330
1F
100
AcDbEntity
  8
外形
100
AcDbCircle
 10
630.4851147752205
 20
255.2426581231054
 30
0.0
 40
0.5
100
AcDbArc
 50
270.0
 51
0.0
  0
ARC
  5
7E8
330
1F
100
AcDbEntity
  8
外形
100
AcDbCircle
 10
629.8650973156235
 20
255.2426581231054
 30
0.0
 40
0.5
100
AcDbArc
 50
217.8843264384439
 51
270.0
  0
ARC
  5
7E9
330
1F
100
AcDbEntity
  8
外形
100
AcDbCircle
 10
628.2848288226463
 20
255.6452677521266
 30
0.0
 40
0.5
100
AcDbArc
 50
37.88432643845024
 51
90.0
  0
LINE
  5
7EA
330
1F
100
AcDbEntity
  8
外形
100
AcDbLine
 10
618.7367036686362
 20
198.4698125793156
 30
0.0
 11
629.9067703245267
 21
198.4698125793156
 31
0.0
  0
LINE
  5
7EB
330
1F
100
AcDbEntity
  8
外形
100
AcDbLine
 10
618.2367036686363
 20
200.4698125793155
 30
0.0
 11
618.2367036686362
 21
198.9698125793156
 31
0.0
  0
LINE
  5
7EC
330
1F
100
AcDbEntity
  8
外形
100
AcDbLine
 10
626.5445435990366
 20
203.5910049886838
 30
0.0
 11
631.9067703245266
 21
203.5910049886838
 31
0.0
  0
LINE
  5
7ED
330
1F
100
AcDbEntity
  8
外形
100
AcDbLine
 10
626.5445435990366
 20
201.5910049886838
 30
0.0
 11
629.9067703245266
 21
201.5910049886838
 31
0.0
  0
LINE
  5
7EE
330
1F
100
AcDbEntity
  8
外形
100
AcDbLine
 10
632.4067703245266
 20
203.0910049886838
 30
0.0
 11
632.4067703245266
 21
189.9698125793153
 31
0.0
  0
LINE
  5
7EF
330
1F
100
AcDbEntity
  8
外形
100
AcDbLine
 10
630.4067703245266
 20
201.0910049886838
 30
0.0
 11
630.4067703245267
 21
198.9698125793156
 31
0.0
  0
ARC
  5
7F0
330
1F
100
AcDbEntity
  8
外形
100
AcDbCircle
 10
629.9067703245266
 20
201.0910049886838
 30
0.0
 40
0.5
100
AcDbArc
 50
0.0000000000006247
 51
90.00000000000003
  0
ARC
  5
7F1
330
1F
100
AcDbEntity
  8
外形
100
AcDbCircle
 10
631.9067703245266
 20
203.0910049886838
 30
0.0
 40
0.5
100
AcDbArc
 50
0.0000000000005229
 51
90.00000000000003
  0
LINE
  5
7F2
330
1F
100
AcDbEntity
  8
外形
100
AcDbLine
 10
630.9067703245267
 20
189.4698125793153
 30
0.0
 11
631.9067703245266
 21
189.4698125793153
 31
0.0
  0
ARC
  5
7F3
330
1F
100
AcDbEntity
  8
外形
100
AcDbCircle
 10
630.9067703245267
 20
189.9698125793153
 30
0.0
 40
0.5
100
AcDbArc
 50
180.0
 51
270.0
  0
ARC
  5
7F4
330
1F
100
AcDbEntity
  8
外形
100
AcDbCircle
 10
631.9067703245266
 20
189.9698125793153
 30
0.0
 40
0.5
100
AcDbArc
 50
270.0
 51
0.0000000000005229
  0
LINE
  5
7F5
330
1F
100
AcDbEntity
  8
外形
100
AcDbLine
 10
628.4067703245266
 20
201.0910049886838
 30
0.0
 11
628.4067703245267
 21
200.9698125793156
 31
0.0
  0
ARC
  5
7F6
330
1F
100
AcDbEntity
  8
外形
100
AcDbCircle
 10
618.7367036686362
 20
198.9698125793156
 30
0.0
 40
0.5
100
AcDbArc
 50
180.0
 51
270.0000000000002
  0
ARC
  5
7F8
330
1F
100
AcDbEntity
  8
外形
100
AcDbCircle
 10
629.9067703245267
 20
198.9698125793156
 30
0.0
 40
0.5
100
AcDbArc
 50
270.0000000000002
 51
0.0000000000006234
  0
LINE
  5
7F9
330
1F
100
AcDbEntity
  8
外形
100
AcDbLine
 10
630.4067703245267
 20
189.9698125793153
 30
0.0
 11
630.4067703245266
 21
201.0910049886838
 31
0.0
  0
LINE
  5
7FB
330
1F
100
AcDbEntity
  8
外形
100
AcDbLine
 10
626.5445435990367
 20
200.4698125793156
 30
0.0
 11
627.9067703245267
 21
200.4698125793156
 31
0.0
  0
ARC
  5
7FC
330
1F
100
AcDbEntity
  8
外形
100
AcDbCircle
 10
627.9067703245267
 20
200.9698125793156
 30
0.0
 40
0.5
100
AcDbArc
 50
270.0
 51
0.0000000000006234
  0
LINE
  5
7FD
330
1F
100
AcDbEntity
  8
外形
100
AcDbLine
 10
628.4067703245266
 20
201.0304087839997
 30
0.0
 11
628.4067703245266
 21
201.5910049886838
 31
0.0
  0
LINE
  5
7FE
330
1F
100
AcDbEntity
  8
外形
100
AcDbLine
 10
626.5445435990366
 20
222.770793595383
 30
0.0
 11
629.7064843719525
 21
222.770793595383
 31
0.0
  0
LINE
  5
7FF
330
1F
100
AcDbEntity
  8
外形
100
AcDbLine
 10
630.1011104200786
 20
222.9637589358732
 30
0.0
 11
630.8921268168035
 21
223.9804378839139
 31
0.0
  0
ARC
  5
800
330
1F
100
AcDbEntity
  8
外形
100
AcDbCircle
 10
631.9067703245266
 20
223.6734032244042
 30
0.0
 40
0.5
100
AcDbArc
 50
0.0
 51
90.00000000000003
  0
LINE
  5
801
330
1F
100
AcDbEntity
  8
外形
100
AcDbLine
 10
631.2867528649296
 20
224.1734032244042
 30
0.0
 11
631.9067703245266
 21
224.1734032244042
 31
0.0
  0
ARC
  5
802
330
1F
100
AcDbEntity
  8
外形
100
AcDbCircle
 10
631.2867528649296
 20
223.6734032244042
 30
0.0
 40
0.5
100
AcDbArc
 50
90.00000000000003
 51
142.115673561556
  0
ARC
  5
803
330
1F
100
AcDbEntity
  8
外形
100
AcDbCircle
 10
629.7064843719525
 20
223.270793595383
 30
0.0
 40
0.5
100
AcDbArc
 50
270.0
 51
322.1156735615497
  0
LINE
  5
804
330
1F
100
AcDbEntity
  8
外形
100
AcDbLine
 10
632.4067703245266
 20
203.0910049886838
 30
0.0
 11
632.4067703245265
 21
223.6734032244042
 31
0.0
  0
LINE
  5
9E9
330
1F
100
AcDbEntity
  8
外形
  6
CENTER
 62
     1
 48
0.2
100
AcDbLine
 10
465.0322145070475
 20
285.8848473995005
 30
0.0
 11
465.0322145070476
 21
193.0547777591305
 31
0.0
  0
LINE
  5
9EA
330
1F
100
AcDbEntity
  8
外形
  6
CENTER
 62
     1
 48
0.2
100
AcDbLine
 10
446.0157752747811
 20
239.4698125793155
 30
0.0
 11
486.0233919162054
 21
239.4698125793155
 31
0.0
  0
LINE
  5
A4C
330
1F
100
AcDbEntity
  8
外形
100
AcDbLine
 10
451.5322145070475
 20
279.4698125793154
 30
0.0
 11
478.5322145070474
 21
279.4698125793155
 31
0.0
  0
LINE
  5
A50
330
1F
100
AcDbEntity
  8
外形
100
AcDbLine
 10
451.5322145070476
 20
280.4698125793155
 30
0.0
 11
451.5322145070476
 21
288.4698125793156
 31
0.0
  0
LINE
  5
A54
330
1F
100
AcDbEntity
  8
外形
100
AcDbLine
 10
461.2017080926524
 20
288.7290731312436
 30
0.0
 11
463.0487302497142
 21
279.4698125793155
 31
0.0
  0
ARC
  5
A5C
330
1F
100
AcDbEntity
  8
外形
100
AcDbCircle
 10
452.5322145070476
 20
280.4698125793155
 30
0.0
 40
1.0
100
AcDbArc
 50
180.0
 51
270.0000000000001
  0
LINE
  5
A60
330
1F
100
AcDbEntity
  8
外形
  6
CENTER
 62
     1
 48
0.2
100
AcDbLine
 10
454.1198049484458
 20
284.4698125793156
 30
0.0
 11
460.9446240656492
 21
284.4698125793156
 31
0.0
  0
LINE
  5
A61
330
1F
100
AcDbEntity
  8
外形
  6
CENTER
 62
     1
 48
0.2
100
AcDbLine
 10
457.5322145070475
 20
287.8822221379172
 30
0.0
 11
457.5322145070475
 21
281.0574030207139
 31
0.0
  0
CIRCLE
  5
A62
330
1F
100
AcDbEntity
  8
外形
100
AcDbCircle
 10
457.5322145070475
 20
284.4698125793156
 30
0.0
 40
2.299999999999999
  0
CIRCLE
  5
A92
330
1F
100
AcDbEntity
  8
外形
100
AcDbCircle
 10
459.0322145070476
 20
207.9698125793155
 30
0.0
 40
4.0
  0
DIMENSION
  5
A96
330
1F
100
AcDbEntity
  8
寸法
 62
     5
100
AcDbDimension
  2
*D0
 10
632.4067703245266
 20
311.8882188131979
 30
0.0
 11
582.4067703245266
 21
315.7382188131979
 31
0.0
 70
    32
 71
     5
 42
100.0
  3
ISO-25
100
AcDbAlignedDimension
 13
532.4067703245266
 23
280.4698125793155
 33
0.0
 14
632.4067703245266
 24
288.9698125793157
 34
0.0
100
AcDbRotatedDimension
  0
DIMENSION
  5
AB5
330
1F
100
AcDbEntity
  8
寸法
 62
     5
100
AcDbDimension
  2
*D1
 10
471.0322145070476
 20
310.4698125793156
 30
0.0
 11
465.0322145070475
 21
314.3198125793156
 31
0.0
 70
    32
 71
     5
 42
12.0
  3
ISO-25
100
AcDbAlignedDimension
 13
459.0322145070476
 23
270.9698125793155
 33
0.0
 14
471.0322145070476
 24
270.9698125793155
 34
0.0
100
AcDbRotatedDimension
  0
DIMENSION
  5
AF3
330
1F
100
AcDbEntity
  8
寸法
 62
     5
100
AcDbDimension
  2
*D2
 10
472.5322145070473
 20
331.4698125793156
 30
0.0
 11
465.0322145070474
 21
335.3198125793156
 31
0.0
 70
    32
 71
     5
 42
14.99999999999977
  3
ISO-25
100
AcDbAlignedDimension
 13
457.5322145070475
 23
287.8822221379172
 33
0.0
 14
472.5322145070473
 24
287.8822221379173
 34
0.0
100
AcDbRotatedDimension
  0
DIMENSION
  5
B1B
330
1F
100
AcDbEntity
  8
寸法
 62
     5
100
AcDbDimension
  2
*D3
 10
478.5322145070473
 20
352.4698125793156
 30
0.0
 11
465.0322145070474
 21
356.3198125793156
 31
0.0
 70
    32
 71
     5
 42
26.99999999999971
  3
ISO-25
100
AcDbAlignedDimension
 13
451.5322145070476
 23
288.4698125793156
 33
0.0
 14
478.5322145070473
 24
288.4698125793157
 34
0.0
100
AcDbRotatedDimension
  0
DIMENSION
  5
B43
330
1F
100
AcDbEntity
  8
寸法
 62
     5
100
AcDbDimension
  2
*D4
 10
428.6070669582273
 20
194.4698125793154
 30
0.0
 11
424.7570669582272
 21
239.4698125793155
 31
0.0
 70
    32
 71
     5
 42
90.00000000000017
  3
ISO-25
100
AcDbAlignedDimension
 13
454.1198049484458
 23
284.4698125793156
 33
0.0
 14
453.0322145070477
 24
194.4698125793154
 34
0.0
 50
90.0
100
AcDbRotatedDimension
  0
DIMENSION
  5
B74
330
1F
100
AcDbEntity
  8
寸法
 62
     5
100
AcDbDimension
  2
*D5
 10
407.6070669582273
 20
189.4698125793154
 30
0.0
 11
403.7570669582272
 21
239.4698125793156
 31
0.0
 70
    32
 71
     5
 42
100.0000000000002
  3
ISO-25
100
AcDbAlignedDimension
 13
452.5322145070476
 23
289.4698125793156
 33
0.0
 14
452.5322145070477
 24
189.4698125793154
 34
0.0
 50
90.0
100
AcDbRotatedDimension
1001
ACAD
1000
DSTYLE
1002
{
1070
   140
1040
0.7
1002
}
  0
LINE
  5
BA5
330
1F
100
AcDbEntity
  8
外形
100
AcDbLine
 10
452.5322145070476
 20
289.4698125793155
 30
0.0
 11
460.2359006759208
 21
289.4698125793155
 31
0.0
  0
ARC
  5
BA7
330
1F
100
AcDbEntity
  8
外形
 48
0.2
100
AcDbCircle
 10
452.5322145070476
 20
288.4698125793156
 30
0.0
 40
1.0
100
AcDbArc
 50
90.0
 51
180.0
  0
ARC
  5
BA8
330
1F
100
AcDbEntity
  8
外形
 48
0.2
100
AcDbCircle
 10
460.2359006759208
 20
288.4698125793156
 30
0.0
 40
1.0
100
AcDbArc
 50
15.02619044568444
 51
90.0
  0
DIMENSION
  5
C0D
330
1F
100
AcDbEntity
  8
寸法
 62
     5
100
AcDbDimension
  2
*D6
 10
499.5322145070474
 20
239.4698125793155
 30
0.0
 11
495.6822145070473
 21
255.2198125793156
 31
0.0
 70
    32
 71
     5
 42
31.5
  3
ISO-25
100
AcDbAlignedDimension
 13
471.0322145070476
 23
270.9698125793155
 33
0.0
 14
486.0233919162054
 24
239.4698125793155
 34
0.0
 50
270.0
100
AcDbRotatedDimension
  0
DIMENSION
  5
C51
330
1F
100
AcDbEntity
  8
寸法
 62
     5
100
AcDbDimension
  2
*D7
 10
499.5322145070474
 20
207.9698125793155
 30
0.0
 11
495.6822145070473
 21
223.7198125793156
 31
0.0
 70
    32
 71
     5
 42
31.5
  3
ISO-25
100
AcDbAlignedDimension
 13
486.2233919162055
 23
239.4698125793155
 33
0.0
 14
471.0322145070477
 24
207.9698125793155
 34
0.0
 50
270.0
100
AcDbRotatedDimension
  0
DIMENSION
  5
C84
330
1F
100
AcDbEntity
  8
寸法
 62
     5
100
AcDbDimension
  2
*D8
 10
459.0322145070476
 20
168.4698125793154
 30
0.0
 11
465.0322145070476
 21
172.3198125793154
 31
0.0
 70
    32
 71
     5
 42
12.0
  3
ISO-25
100
AcDbAlignedDimension
 13
471.0322145070477
 23
207.9698125793155
 33
0.0
 14
459.0322145070476
 24
207.9698125793155
 34
0.0
 50
180.0
100
AcDbRotatedDimension
  0
MTEXT
  5
D5E
330
1F
100
AcDbEntity
  8
外形
100
AcDbMText
 10
650.4435992916931
 20
228.0661539435903
 30
0.0
 40
4.9
 41
0.0
 71
     4
 72
     1
  1
{\fMS UI Gothic|b0|i0|c128|p17;\U+203B締付トルク\P　 M4端子　　　　1.5N ・ ｍ （ＭＡＸ）\P\fMS UI Gothic|b0|i0|c128|p49;　 M5端子　　　　2.0N ・ ｍ （ＭＡＸ）\P　 本体ケース　　 1.5N ・ ｍ （ＭＡＸ）}
 73
     2
 44
1.0
  0
MTEXT
  5
D8C
330
1F
100
AcDbEntity
  8
外形
100
AcDbMText
 10
436.8166084313377
 20
382.7492907036449
 30
0.0
 40
17.5
 41
131.7264260507736
 71
     5
 72
     5
  1
{\fMS UI Gothic|b0|i0|c128|p17;外形寸法}
 73
     1
 44
1.0
  0
LEADER
  5
E29
330
1F
100
AcDbEntity
  8
寸法
 62
     5
100
AcDbLeader
  3
ISO-25
 76
     3
 10
474.1889735450864
 20
286.0651650450347
 30
0.0
 10
486.6156856688689
 20
298.031290095376
 30
0.0
 10
512.0428736049539
 20
298.031290095376
 30
0.0
1001
ACAD
1000
DSTYLE
1002
{
1070
   140
1040
2.0
1002
}
  0
MTEXT
  5
E2A
330
1F
100
AcDbEntity
  8
寸法
 62
     5
100
AcDbMText
 10
499.6966953916303
 20
298.2852246223948
 30
0.0
 40
4.9
 41
0.0
 71
     8
 72
     1
  1
{\fMS UI Gothic|b0|i0|c128|p17;2-φ4.6}
 73
     2
 44
1.0
  0
MTEXT
  5
E2D
330
1F
100
AcDbEntity
  8
外形
100
AcDbMText
 10
459.4085610502919
 20
261.3480469928212
 30
0.0
 40
4.9
 41
1.0
 71
     5
 72
     5
  1
{\fＭＳ ゴシック|b0|i0|c128|p49;1}
 73
     1
 44
1.0
  0
MTEXT
  5
E2E
330
1F
100
AcDbEntity
  8
外形
100
AcDbMText
 10
470.9533408209287
 20
261.3480469928212
 30
0.0
 40
4.9
 41
1.0
 71
     5
 72
     5
  1
{\fＭＳ ゴシック|b0|i0|c128|p49;2}
 73
     1
 44
1.0
  0
MTEXT
  5
E2F
330
1F
100
AcDbEntity
  8
外形
100
AcDbMText
 10
459.1434044059431
 20
217.0332296764438
 30
0.0
 40
4.9
 41
1.0
 71
     5
 72
     5
  1
{\fＭＳ ゴシック|b0|i0|c128|p49;4}
 73
     1
 44
1.0
  0
MTEXT
  5
E30
330
1F
100
AcDbEntity
  8
外形
100
AcDbMText
 10
470.903088745579
 20
217.0332296764438
 30
0.0
 40
4.9
 41
1.0
 71
     5
 72
     5
  1
{\fＭＳ ゴシック|b0|i0|c128|p49;3}
 73
     1
 44
1.0
  0
MTEXT
  5
E31
330
1F
100
AcDbEntity
  8
寸法
 62
     5
100
AcDbMText
 10
504.8180953809803
 20
188.1692007747229
 30
0.0
 40
4.9
 41
0.0
 71
     8
 72
     1
  1
{\fMS UI Gothic|b0|i0|c128|p17;2-M5X10}
 73
     2
 44
1.0
  0
LEADER
  5
E32
330
1F
100
AcDbEntity
  8
寸法
 62
     5
100
AcDbLeader
  3
ISO-25
 76
     3
 10
473.8259827684134
 20
205.1071461820934
 30
0.0
 10
490.6040916533733
 20
187.9152662477041
 30
0.0
 10
517.5304262125309
 20
187.9152662477041
 30
0.0
1001
ACAD
1000
DSTYLE
1002
{
1070
   140
1040
2.0
1002
}
  0
LEADER
  5
E33
330
1F
100
AcDbEntity
  8
寸法
 62
     5
100
AcDbLeader
  3
ISO-25
 76
     3
 10
474.0205598770483
 20
192.7162938142042
 30
0.0
 10
486.0229744792875
 20
178.5754501257132
 30
0.0
 10
517.5304262125309
 20
178.5754501257132
 30
0.0
1001
ACAD
1000
DSTYLE
1002
{
1070
   140
1040
2.0
1002
}
  0
MTEXT
  5
E34
330
1F
100
AcDbEntity
  8
寸法
 62
     5
100
AcDbMText
 10
504.6088541940134
 20
178.829384652732
 30
0.0
 40
4.9
 41
0.0
 71
     8
 72
     1
  1
{\fMS UI Gothic|b0|i0|c128|p17;2-M4X8}
 73
     2
 44
1.0
  0
DIMENSION
  5
F06
330
1F
100
AcDbEntity
  8
寸法
 62
     5
100
AcDbDimension
  2
*D9
 10
511.4067703245266
 20
199.4698125793155
 30
0.0
 11
507.5567703245265
 21
239.4698125793156
 31
0.0
 70
    32
 71
     5
 42
79.99999999999997
  3
ISO-25
100
AcDbAlignedDimension
 13
537.626947376393
 23
279.4698125793155
 33
0.0
 14
537.626947376393
 24
199.4698125793155
 34
0.0
 50
90.0
100
AcDbRotatedDimension
  0
LINE
  5
F62
330
1F
100
AcDbEntity
  8
外形
100
AcDbLine
 10
451.5322145070476
 20
199.4698125793155
 30
0.0
 11
478.5322145070477
 21
199.4698125793155
 31
0.0
  0
LINE
  5
11B4
330
1F
100
AcDbEntity
  8
外形
100
AcDbLine
 10
451.5322145070475
 20
279.4698125793154
 30
0.0
 11
451.5322145070476
 21
199.4698125793155
 31
0.0
  0
LINE
  5
11B5
330
1F
100
AcDbEntity
  8
外形
100
AcDbLine
 10
478.5322145070474
 20
279.4698125793155
 30
0.0
 11
478.5322145070477
 21
199.4698125793155
 31
0.0
  0
LINE
  5
11B8
330
1F
100
AcDbEntity
  8
外形
100
AcDbLine
 10
468.8627209214423
 20
288.7290731312436
 30
0.0
 11
467.0156987643808
 21
279.4698125793155
 31
0.0
  0
LINE
  5
11B9
330
1F
100
AcDbEntity
  8
外形
100
AcDbLine
 10
478.5322145070473
 20
280.4698125793156
 30
0.0
 11
478.5322145070472
 21
288.4698125793157
 31
0.0
  0
LINE
  5
11BA
330
1F
100
AcDbEntity
  8
外形
  6
CENTER
 62
     1
 48
0.2
100
AcDbLine
 10
472.5322145070473
 20
287.8822221379173
 30
0.0
 11
472.5322145070474
 21
281.0574030207139
 31
0.0
  0
CIRCLE
  5
11BB
330
1F
100
AcDbEntity
  8
外形
100
AcDbCircle
 10
472.5322145070474
 20
284.4698125793156
 30
0.0
 40
2.299999999999999
  0
ARC
  5
11BC
330
1F
100
AcDbEntity
  8
外形
100
AcDbCircle
 10
477.5322145070473
 20
280.4698125793155
 30
0.0
 40
1.0
100
AcDbArc
 50
270.0000000000005
 51
0.0000000000007308
  0
LINE
  5
11BD
330
1F
100
AcDbEntity
  8
外形
100
AcDbLine
 10
477.5322145070473
 20
289.4698125793157
 30
0.0
 11
469.828528338174
 21
289.4698125793156
 31
0.0
  0
LINE
  5
11BE
330
1F
100
AcDbEntity
  8
外形
  6
CENTER
 62
     1
 48
0.2
100
AcDbLine
 10
475.944624065649
 20
284.4698125793157
 30
0.0
 11
469.1198049484457
 21
284.4698125793156
 31
0.0
  0
ARC
  5
11BF
330
1F
100
AcDbEntity
  8
外形
 48
0.2
100
AcDbCircle
 10
477.5322145070473
 20
288.4698125793157
 30
0.0
 40
1.0
100
AcDbArc
 50
0.0000000000007308
 51
90.00000000000072
  0
ARC
  5
11C0
330
1F
100
AcDbEntity
  8
外形
 48
0.2
100
AcDbCircle
 10
469.828528338174
 20
288.4698125793156
 30
0.0
 40
1.0
100
AcDbArc
 50
90.00000000000072
 51
164.9738095543162
  0
CIRCLE
  5
1202
330
1F
100
AcDbEntity
  8
寸法
100
AcDbCircle
 10
471.0322145070476
 20
270.9698125793155
 30
0.0
 40
4.0
  0
CIRCLE
  5
1203
330
1F
100
AcDbEntity
  8
寸法
100
AcDbCircle
 10
459.0322145070476
 20
270.9698125793155
 30
0.0
 40
4.0
  0
CIRCLE
  5
1204
330
1F
100
AcDbEntity
  8
外形
100
AcDbCircle
 10
471.0322145070477
 20
207.9698125793155
 30
0.0
 40
4.0
  0
LINE
  5
1206
330
1F
100
AcDbEntity
  8
外形
100
AcDbLine
 10
461.2017080926526
 20
190.2105520273874
 30
0.0
 11
463.0487302497143
 21
199.4698125793154
 31
0.0
  0
LINE
  5
1207
330
1F
100
AcDbEntity
  8
外形
100
AcDbLine
 10
451.5322145070476
 20
198.4698125793155
 30
0.0
 11
451.5322145070477
 21
190.4698125793154
 31
0.0
  0
ARC
  5
120A
330
1F
100
AcDbEntity
  8
外形
100
AcDbCircle
 10
452.5322145070476
 20
198.4698125793155
 30
0.0
 40
1.0
100
AcDbArc
 50
89.99999999999998
 51
180.0000000000001
  0
LINE
  5
120B
330
1F
100
AcDbEntity
  8
外形
100
AcDbLine
 10
452.5322145070477
 20
189.4698125793154
 30
0.0
 11
460.2359006759209
 21
189.4698125793154
 31
0.0
  0
ARC
  5
120D
330
1F
100
AcDbEntity
  8
外形
 48
0.2
100
AcDbCircle
 10
452.5322145070477
 20
190.4698125793154
 30
0.0
 40
1.0
100
AcDbArc
 50
180.0000000000001
 51
270.0000000000001
  0
ARC
  5
120E
330
1F
100
AcDbEntity
  8
外形
 48
0.2
100
AcDbCircle
 10
460.2359006759209
 20
190.4698125793154
 30
0.0
 40
1.0
100
AcDbArc
 50
270.0000000000001
 51
344.9738095543156
  0
LINE
  5
1210
330
1F
100
AcDbEntity
  8
外形
  6
CENTER
 62
     1
 48
0.2
100
AcDbLine
 10
472.5322145070474
 20
189.9698125793154
 30
0.0
 11
472.5322145070474
 21
198.9698125793154
 31
0.0
  0
LINE
  5
1211
330
1F
100
AcDbEntity
  8
外形
100
AcDbLine
 10
478.5322145070474
 20
198.4698125793154
 30
0.0
 11
478.5322145070473
 21
190.4698125793153
 31
0.0
  0
LINE
  5
1212
330
1F
100
AcDbEntity
  8
外形
100
AcDbLine
 10
468.8627209214425
 20
190.2105520273873
 30
0.0
 11
467.0156987643808
 21
199.4698125793154
 31
0.0
  0
ARC
  5
1213
330
1F
100
AcDbEntity
  8
外形
100
AcDbCircle
 10
477.5322145070474
 20
198.4698125793154
 30
0.0
 40
1.0
100
AcDbArc
 50
359.9999999999993
 51
89.99999999999957
  0
LINE
  5
1214
330
1F
100
AcDbEntity
  8
外形
  6
CENTER
 62
     1
 48
0.2
100
AcDbLine
 10
477.0322145070474
 20
194.4698125793153
 30
0.0
 11
468.0322145070475
 21
194.4698125793153
 31
0.0
  0
LINE
  5
1215
330
1F
100
AcDbEntity
  8
外形
100
AcDbLine
 10
477.5322145070473
 20
189.4698125793153
 30
0.0
 11
469.8285283381742
 21
189.4698125793153
 31
0.0
  0
ARC
  5
1216
330
1F
100
AcDbEntity
  8
外形
 48
0.2
100
AcDbCircle
 10
469.8285283381742
 20
190.4698125793153
 30
0.0
 40
1.0
100
AcDbArc
 50
195.0261904456838
 51
269.9999999999993
  0
ARC
  5
1217
330
1F
100
AcDbEntity
  8
外形
 48
0.2
100
AcDbCircle
 10
477.5322145070473
 20
190.4698125793153
 30
0.0
 40
1.0
100
AcDbArc
 50
269.9999999999993
 51
359.9999999999993
  0
LINE
  5
125D
330
1F
100
AcDbEntity
  8
外形
100
AcDbLine
 10
630.4067708175535
 20
350.6901541027156
 30
0.0
 11
632.4067715975295
 21
350.6901541027156
 31
0.0
  0
LINE
  5
1261
330
1F
100
AcDbEntity
  8
外形
100
AcDbLine
 10
623.080075949305
 20
353.3032720872637
 30
0.0
 11
623.0799481534504
 21
343.585451573164
 31
0.0
  0
LINE
  5
1264
330
1F
100
AcDbEntity
  8
外形
100
AcDbLine
 10
553.4067703245267
 20
357.0854515731641
 30
0.0
 11
553.4067703245267
 21
330.0854515731641
 31
0.0
  0
LINE
  5
1266
330
1F
100
AcDbEntity
  8
外形
100
AcDbLine
 10
532.4416528803442
 20
356.0854515731641
 30
0.0
 11
532.4416528803441
 21
331.085451573164
 31
0.0
  0
LINE
  5
1267
330
1F
100
AcDbEntity
  8
外形
100
AcDbLine
 10
534.4416528803441
 20
356.0854515731641
 30
0.0
 11
534.4416528803443
 21
331.085451573164
 31
0.0
  0
LINE
  5
126C
330
1F
100
AcDbEntity
  8
外形
100
AcDbLine
 10
567.2271794579387
 20
330.375314812608
 30
0.0
 11
566.4466635918928
 21
331.1141968785086
 31
0.0
  0
LINE
  5
126E
330
1F
100
AcDbEntity
  8
外形
100
AcDbLine
 10
535.4416528803441
 20
330.0854515731641
 30
0.0
 11
558.9954038051647
 21
330.0854515731641
 31
0.0
  0
LINE
  5
126F
330
1F
100
AcDbEntity
  8
外形
100
AcDbLine
 10
534.9416528803441
 20
331.085451573164
 30
0.0
 11
532.4416528803441
 21
331.085451573164
 31
0.0
  0
ARC
  5
1274
330
1F
100
AcDbEntity
  8
外形
100
AcDbCircle
 10
534.9416528803441
 20
331.5854515731641
 30
0.0
 40
0.5
100
AcDbArc
 50
180.0
 51
270.0
  0
ARC
  5
1275
330
1F
100
AcDbEntity
  8
外形
100
AcDbCircle
 10
534.9416528803441
 20
330.5854515731641
 30
0.0
 40
0.5
100
AcDbArc
 50
359.9999999999998
 51
90.00000000000003
  0
LINE
  5
1276
330
1F
100
AcDbEntity
  8
外形
100
AcDbLine
 10
534.9416528803441
 20
331.0854515731641
 30
0.0
 11
534.9416528803441
 21
331.0854515731641
 31
0.0
  0
LINE
  5
1277
330
1F
100
AcDbEntity
  8
外形
100
AcDbLine
 10
535.4416528803441
 20
330.0854515731641
 30
0.0
 11
535.4416528803441
 21
330.5854515731641
 31
0.0
  0
LINE
  5
1278
330
1F
100
AcDbEntity
  8
外形
100
AcDbLine
 10
561.1495854309487
 20
331.1403664831448
 30
0.0
 11
560.1588173883913
 21
330.3417146488273
 31
0.0
  0
ARC
  5
1279
330
1F
100
AcDbEntity
  8
外形
100
AcDbCircle
 10
558.701087064845
 20
334.1906589095254
 30
0.0
 40
4.115744114755782
100
AcDbArc
 50
265.8992804604931
 51
290.7434361133903
  0
LINE
  5
127A
330
1F
100
AcDbEntity
  8
外形
100
AcDbLine
 10
562.2271794579387
 20
330.375314812608
 30
0.0
 11
561.8071136887427
 21
331.1141968785086
 31
0.0
  0
ARC
  5
127B
330
1F
100
AcDbEntity
  8
外形
100
AcDbCircle
 10
561.4633772173236
 20
330.7510918823761
 30
0.0
 40
0.5
100
AcDbArc
 50
46.56959820837754
 51
128.8720670740568
  0
ARC
  5
127C
330
1F
100
AcDbEntity
  8
外形
100
AcDbCircle
 10
565.0709159293578
 20
330.7384198087405
 30
0.0
 40
0.5
100
AcDbArc
 50
226.5695982083762
 51
308.8720670740569
  0
ARC
  5
127D
330
1F
100
AcDbEntity
  8
外形
100
AcDbCircle
 10
563.6029271204737
 20
330.7510918823761
 30
0.0
 40
0.5
100
AcDbArc
 50
46.56959820837754
 51
128.8720670740568
  0
ARC
  5
127E
330
1F
100
AcDbEntity
  8
外形
100
AcDbCircle
 10
562.5709159293578
 20
330.7384198087405
 30
0.0
 40
0.5
100
AcDbArc
 50
226.5695982083762
 51
308.8720670740569
  0
LINE
  5
127F
330
1F
100
AcDbEntity
  8
外形
100
AcDbLine
 10
563.2891353340989
 20
331.1403664831448
 30
0.0
 11
562.8847077157327
 21
330.3491452079717
 31
0.0
  0
LINE
  5
1280
330
1F
100
AcDbEntity
  8
外形
100
AcDbLine
 10
564.7271794579387
 20
330.375314812608
 30
0.0
 11
563.9466635918928
 21
331.1141968785086
 31
0.0
  0
LINE
  5
1281
330
1F
100
AcDbEntity
  8
外形
100
AcDbLine
 10
565.7891353340988
 20
331.1403664831448
 30
0.0
 11
565.3847077157327
 21
330.3491452079717
 31
0.0
  0
ARC
  5
1282
330
1F
100
AcDbEntity
  8
外形
100
AcDbCircle
 10
566.1029271204737
 20
330.7510918823761
 30
0.0
 40
0.5
100
AcDbArc
 50
46.56959820837754
 51
128.8720670740568
  0
LINE
  5
1284
330
1F
100
AcDbEntity
  8
外形
100
AcDbLine
 10
581.4987852780906
 20
331.4591823762869
 30
0.0
 11
600.5846118200638
 21
331.4591823762869
 31
0.0
  0
LINE
  5
1285
330
1F
100
AcDbEntity
  8
外形
100
AcDbLine
 10
573.2891353340988
 20
331.1403664831448
 30
0.0
 11
572.8847077157326
 21
330.3491452079717
 31
0.0
  0
LINE
  5
1286
330
1F
100
AcDbEntity
  8
外形
100
AcDbLine
 10
568.2891353340989
 20
331.1403664831448
 30
0.0
 11
567.8847077157326
 21
330.3491452079717
 31
0.0
  0
ARC
  5
1287
330
1F
100
AcDbEntity
  8
外形
100
AcDbCircle
 10
567.5709159293578
 20
330.7384198087405
 30
0.0
 40
0.5
100
AcDbArc
 50
226.5695982083762
 51
308.8720670740569
  0
LINE
  5
1288
330
1F
100
AcDbEntity
  8
外形
100
AcDbLine
 10
570.7891353340989
 20
331.1403664831448
 30
0.0
 11
570.3847077157327
 21
330.3491452079717
 31
0.0
  0
LINE
  5
1289
330
1F
100
AcDbEntity
  8
外形
100
AcDbLine
 10
569.7271794579387
 20
330.375314812608
 30
0.0
 11
568.9466635918928
 21
331.1141968785086
 31
0.0
  0
ARC
  5
128A
330
1F
100
AcDbEntity
  8
外形
100
AcDbCircle
 10
568.6029271204737
 20
330.7510918823761
 30
0.0
 40
0.5
100
AcDbArc
 50
46.56959820837754
 51
128.8720670740568
  0
ARC
  5
128B
330
1F
100
AcDbEntity
  8
外形
100
AcDbCircle
 10
570.0709159293579
 20
330.7384198087405
 30
0.0
 40
0.5
100
AcDbArc
 50
226.5695982083762
 51
308.8720670740569
  0
ARC
  5
128C
330
1F
100
AcDbEntity
  8
外形
100
AcDbCircle
 10
571.1029271204737
 20
330.7510918823761
 30
0.0
 40
0.5
100
AcDbArc
 50
46.56959820837754
 51
128.8720670740568
  0
LINE
  5
128D
330
1F
100
AcDbEntity
  8
外形
100
AcDbLine
 10
572.2271794579387
 20
330.375314812608
 30
0.0
 11
571.4466635918928
 21
331.1141968785086
 31
0.0
  0
ARC
  5
128E
330
1F
100
AcDbEntity
  8
外形
100
AcDbCircle
 10
572.5709159293578
 20
330.7384198087405
 30
0.0
 40
0.5
100
AcDbArc
 50
226.5695982083762
 51
308.8720670740569
  0
ARC
  5
128F
330
1F
100
AcDbEntity
  8
外形
100
AcDbCircle
 10
573.6029271204737
 20
330.7510918823761
 30
0.0
 40
0.5
100
AcDbArc
 50
46.56959820837754
 51
128.8720670740568
  0
LINE
  5
1290
330
1F
100
AcDbEntity
  8
外形
100
AcDbLine
 10
575.7891353340989
 20
331.1403664831448
 30
0.0
 11
575.3847077157327
 21
330.3491452079717
 31
0.0
  0
ARC
  5
1291
330
1F
100
AcDbEntity
  8
外形
100
AcDbCircle
 10
575.0709159293578
 20
330.7384198087405
 30
0.0
 40
0.5
100
AcDbArc
 50
226.5695982083762
 51
308.8720670740569
  0
LINE
  5
1292
330
1F
100
AcDbEntity
  8
外形
100
AcDbLine
 10
574.7271794579387
 20
330.375314812608
 30
0.0
 11
573.9466635918928
 21
331.1141968785086
 31
0.0
  0
ARC
  5
1293
330
1F
100
AcDbEntity
  8
外形
100
AcDbCircle
 10
577.5709159293578
 20
330.7384198087405
 30
0.0
 40
0.5
100
AcDbArc
 50
226.5695982083762
 51
314.9999999999976
  0
LINE
  5
1294
330
1F
100
AcDbEntity
  8
外形
100
AcDbLine
 10
577.2271794579387
 20
330.375314812608
 30
0.0
 11
576.4466635918928
 21
331.1141968785086
 31
0.0
  0
LINE
  5
1295
330
1F
100
AcDbEntity
  8
外形
100
AcDbLine
 10
577.924469319951
 20
330.3848664181472
 30
0.0
 11
578.2891353340988
 21
331.1403664831448
 31
0.0
  0
ARC
  5
1296
330
1F
100
AcDbEntity
  8
外形
100
AcDbCircle
 10
576.1029271204737
 20
330.7510918823761
 30
0.0
 40
0.5
100
AcDbArc
 50
46.56959820837754
 51
128.8720670740568
  0
ARC
  5
12AE
330
1F
100
AcDbEntity
  8
外形
100
AcDbCircle
 10
624.0798203568587
 20
333.8675499863098
 30
0.0
 40
1.0
100
AcDbArc
 50
179.999446038543
 51
314.2799834524934
  0
LINE
  5
12BB
330
1F
100
AcDbEntity
  8
外形
100
AcDbLine
 10
625.9761507813086
 20
330.3601977337888
 30
0.0
 11
624.3843502331233
 21
330.3601977337887
 31
0.0
  0
LINE
  5
12BD
330
1F
100
AcDbEntity
  8
外形
100
AcDbLine
 10
626.4761507813086
 20
332.4356766169941
 30
0.0
 11
626.4761507813086
 21
330.8601977337888
 31
0.0
  0
ARC
  5
12BE
330
1F
100
AcDbEntity
  8
外形
100
AcDbCircle
 10
625.9761507813086
 20
330.8601977337888
 30
0.0
 40
0.5
100
AcDbArc
 50
270.0
 51
0.0000000000012354
  0
LINE
  5
12C3
330
1F
100
AcDbEntity
  8
外形
100
AcDbLine
 10
534.4416528803442
 20
354.5527973407359
 30
0.0
 11
544.4416528803441
 21
354.5527973407361
 31
0.0
  0
LINE
  5
12C7
330
1F
100
AcDbEntity
  8
外形
100
AcDbLine
 10
535.4416528803441
 20
357.0854515731641
 30
0.0
 11
558.9954038051637
 21
357.0854515731641
 31
0.0
  0
LINE
  5
12C8
330
1F
100
AcDbEntity
  8
外形
100
AcDbLine
 10
541.6353715214671
 20
349.9383691315127
 30
0.0
 11
541.6353715214673
 21
352.1289487418584
 31
0.0
  0
ARC
  5
12D5
330
1F
100
AcDbEntity
  8
外形
100
AcDbCircle
 10
540.6273336891429
 20
352.1289487418584
 30
0.0
 40
0.5
100
AcDbArc
 50
90.0
 51
180.0
  0
ARC
  5
12D6
330
1F
100
AcDbEntity
  8
外形
100
AcDbCircle
 10
541.1353715214672
 20
352.1289487418584
 30
0.0
 40
0.5
100
AcDbArc
 50
0.0
 51
90.0
  0
LINE
  5
12D7
330
1F
100
AcDbEntity
  8
外形
100
AcDbLine
 10
540.1273336891429
 20
352.1289487418584
 30
0.0
 11
540.1273336891428
 21
350.4383691315128
 31
0.0
  0
ARC
  5
12D9
330
1F
100
AcDbEntity
  8
外形
100
AcDbCircle
 10
540.6273336891428
 20
350.4383691315128
 30
0.0
 40
0.5
100
AcDbArc
 50
180.0
 51
270.0
  0
LINE
  5
12DA
330
1F
100
AcDbEntity
  8
外形
100
AcDbLine
 10
541.6353715214673
 20
351.5449563960921
 30
0.0
 11
542.3030347012428
 21
351.544956396092
 31
0.0
  0
LINE
  5
12DB
330
1F
100
AcDbEntity
  8
外形
100
AcDbLine
 10
534.9416528803441
 20
356.0854515731641
 30
0.0
 11
532.4416528803443
 21
356.0854515731641
 31
0.0
  0
LINE
  5
12DC
330
1F
100
AcDbEntity
  8
外形
100
AcDbLine
 10
541.1353715214672
 20
352.6289487418583
 30
0.0
 11
540.6273336891429
 21
352.6289487418583
 31
0.0
  0
ARC
  5
12DD
330
1F
100
AcDbEntity
  8
外形
100
AcDbCircle
 10
534.9416528803441
 20
356.5854515731641
 30
0.0
 40
0.5
100
AcDbArc
 50
270.0
 51
0.0000000000001272
  0
LINE
  5
12DE
330
1F
100
AcDbEntity
  8
外形
100
AcDbLine
 10
535.4416528803441
 20
357.0854515731641
 30
0.0
 11
535.4416528803441
 21
356.5854515731641
 31
0.0
  0
ARC
  5
12DF
330
1F
100
AcDbEntity
  8
外形
100
AcDbCircle
 10
534.9416528803441
 20
355.5854515731641
 30
0.0
 40
0.5
100
AcDbArc
 50
90.0
 51
180.0
  0
LINE
  5
12E0
330
1F
100
AcDbEntity
  8
外形
100
AcDbLine
 10
534.9416528803441
 20
356.0854515731641
 30
0.0
 11
534.9416528803441
 21
356.0854515731641
 31
0.0
  0
LINE
  5
12E1
330
1F
100
AcDbEntity
  8
外形
100
AcDbLine
 10
544.4416528803441
 20
354.5527973407361
 30
0.0
 11
544.4416528803441
 21
349.9383691315127
 31
0.0
  0
ARC
  5
12E3
330
1F
100
AcDbEntity
  8
外形
100
AcDbCircle
 10
558.701087064845
 20
352.9802442368027
 30
0.0
 40
4.115744114755782
100
AcDbArc
 50
69.25656388660968
 51
94.10071953950684
  0
LINE
  5
12F0
330
1F
100
AcDbEntity
  8
外形
100
AcDbLine
 10
581.4987852780907
 20
355.7117207700413
 30
0.0
 11
600.5846118200638
 21
355.7117207700413
 31
0.0
  0
LINE
  5
1305
330
1F
100
AcDbEntity
  8
外形
100
AcDbLine
 10
630.4067703245262
 20
357.0854515731641
 30
0.0
 11
630.4067712654677
 21
344.8800418071904
 31
0.0
  0
LINE
  5
1306
330
1F
100
AcDbEntity
  8
寸法
100
AcDbLine
 10
627.682632302803
 20
344.8800418071905
 30
0.0
 11
627.682632302803
 21
343.5854515731641
 31
0.0
  0
LINE
  5
131B
330
1F
100
AcDbEntity
  8
寸法
100
AcDbLine
 10
623.0800689628965
 20
352.4186436527717
 30
0.0
 11
630.4067706843006
 21
352.4186436527716
 31
0.0
  0
ARC
  5
131C
330
1F
100
AcDbEntity
  8
外形
100
AcDbCircle
 10
624.0800759492582
 20
353.3032624188124
 30
0.0
 40
1.0
100
AcDbArc
 50
70.45396231223661
 51
179.999446038543
  0
LINE
  5
1328
330
1F
100
AcDbEntity
  8
外形
100
AcDbLine
 10
624.4146401217932
 20
354.2456353887431
 30
0.0
 11
625.8088686950411
 21
353.7506520394567
 31
0.0
  0
LINE
  5
1329
330
1F
100
AcDbEntity
  8
外形
100
AcDbLine
 10
625.9761507813086
 20
356.8107054125395
 30
0.0
 11
624.3843502331233
 21
356.8107054125395
 31
0.0
  0
LINE
  5
132A
330
1F
100
AcDbEntity
  8
外形
100
AcDbLine
 10
626.4761507813086
 20
355.8602535874068
 30
0.0
 11
630.4067704189795
 21
355.8602535874067
 31
0.0
  0
ARC
  5
132B
330
1F
100
AcDbEntity
  8
外形
100
AcDbCircle
 10
625.9761507813086
 20
356.3107054125395
 30
0.0
 40
0.5
100
AcDbArc
 50
359.9999999999987
 51
90.0
  0
LINE
  5
132C
330
1F
100
AcDbEntity
  8
外形
100
AcDbLine
 10
626.4761507813086
 20
354.2218385244221
 30
0.0
 11
626.4761507813086
 21
356.3107054125395
 31
0.0
  0
ARC
  5
132D
330
1F
100
AcDbEntity
  8
外形
100
AcDbCircle
 10
625.9761507813086
 20
354.2218385244221
 30
0.0
 40
0.5
100
AcDbArc
 50
250.4539623122375
 51
0.0
  0
LINE
  5
132E
330
1F
100
AcDbEntity
  8
外形
100
AcDbLine
 10
632.4067703245265
 20
343.5854515731641
 30
0.0
 11
632.4067703245266
 21
357.0854515731641
 31
0.0
  0
LINE
  5
132F
330
1F
100
AcDbEntity
  8
外形
100
AcDbLine
 10
632.4067703245266
 20
357.0854515731641
 30
0.0
 11
632.4067703245265
 21
343.5854515731641
 31
0.0
  0
LINE
  5
1331
330
1F
100
AcDbEntity
  8
寸法
100
AcDbLine
 10
630.4067703245264
 20
357.0854515731642
 30
0.0
 11
632.4067703245266
 21
357.0854515731641
 31
0.0
  0
LINE
  5
133B
330
1F
100
AcDbEntity
  8
外形
100
AcDbLine
 10
544.4416528803441
 20
349.9383691315127
 30
0.0
 11
544.4416528803441
 21
349.9383691315127
 31
0.0
  0
LINE
  5
1353
330
1F
100
AcDbEntity
  8
寸法
100
AcDbLine
 10
623.0799703385843
 20
344.8800418071905
 30
0.0
 11
632.4067703245265
 21
344.8800418071904
 31
0.0
  0
LINE
  5
1354
330
1F
100
AcDbEntity
  8
寸法
100
AcDbLine
 10
630.4067703245267
 20
330.0854515731642
 30
0.0
 11
632.4067703245271
 21
330.0854515731643
 31
0.0
  0
LINE
  5
1355
330
1F
100
AcDbEntity
  8
外形
100
AcDbLine
 10
630.4067708175538
 20
336.4807490436128
 30
0.0
 11
632.4067715975298
 21
336.4807490436128
 31
0.0
  0
LINE
  5
1356
330
1F
100
AcDbEntity
  8
外形
100
AcDbLine
 10
630.4067703245267
 20
330.0854515731642
 30
0.0
 11
630.4067712654677
 21
342.290861339138
 31
0.0
  0
LINE
  5
1357
330
1F
100
AcDbEntity
  8
外形
100
AcDbLine
 10
632.4067703245271
 20
330.0854515731643
 30
0.0
 11
632.4067703245265
 21
343.5854515731644
 31
0.0
  0
LINE
  5
1358
330
1F
100
AcDbEntity
  8
外形
100
AcDbLine
 10
632.4067703245265
 20
343.5854515731644
 30
0.0
 11
632.4067703245271
 21
330.0854515731643
 31
0.0
  0
LINE
  5
1359
330
1F
100
AcDbEntity
  8
寸法
100
AcDbLine
 10
623.0800689628968
 20
334.7522594935564
 30
0.0
 11
630.4067706843007
 21
334.7522594935568
 31
0.0
  0
LINE
  5
135A
330
1F
100
AcDbEntity
  8
外形
100
AcDbLine
 10
626.476150781309
 20
331.3106495589214
 30
0.0
 11
630.4067704189797
 21
331.3106495589217
 31
0.0
  0
LINE
  5
135B
330
1F
100
AcDbEntity
  8
外形
100
AcDbLine
 10
623.0800423142053
 20
333.8464818722954
 30
0.0
 11
623.0799481534504
 21
343.5854515731641
 31
0.0
  0
LINE
  5
135C
330
1F
100
AcDbEntity
  8
寸法
100
AcDbLine
 10
623.0799703385843
 20
342.2908613391376
 30
0.0
 11
632.4067703245265
 21
342.2908613391379
 31
0.0
  0
LINE
  5
135D
330
1F
100
AcDbEntity
  8
寸法
100
AcDbLine
 10
627.682632302803
 20
342.2908613391379
 30
0.0
 11
627.682632302803
 21
343.5854515731642
 31
0.0
  0
ARC
  5
135E
330
1F
100
AcDbEntity
  8
外形
100
AcDbCircle
 10
625.4761507813086
 20
332.4356766169941
 30
0.0
 40
1.0
100
AcDbArc
 50
0.0
 51
134.2799834524933
  0
LINE
  5
1361
330
1F
100
AcDbEntity
  8
外形
100
AcDbLine
 10
541.6353715214673
 20
348.3317818669334
 30
0.0
 11
542.3042175251533
 21
348.3317818669334
 31
0.0
  0
LINE
  5
1362
330
1F
100
AcDbEntity
  8
外形
100
AcDbLine
 10
540.1273336891429
 20
347.7477895211673
 30
0.0
 11
540.1273336891428
 21
349.4383691315129
 31
0.0
  0
LINE
  5
1363
330
1F
100
AcDbEntity
  8
外形
100
AcDbLine
 10
541.1353715214672
 20
347.2477895211673
 30
0.0
 11
540.6273336891429
 21
347.2477895211673
 31
0.0
  0
ARC
  5
1364
330
1F
100
AcDbEntity
  8
外形
100
AcDbCircle
 10
541.1353715214672
 20
347.7477895211673
 30
0.0
 40
0.5
100
AcDbArc
 50
270.0000000000008
 51
0.0000000000008547
  0
ARC
  5
1365
330
1F
100
AcDbEntity
  8
外形
100
AcDbCircle
 10
540.6273336891429
 20
347.7477895211673
 30
0.0
 40
0.5
100
AcDbArc
 50
180.0000000000008
 51
270.0000000000008
  0
ARC
  5
1366
330
1F
100
AcDbEntity
  8
外形
100
AcDbCircle
 10
540.6273336891428
 20
349.4383691315129
 30
0.0
 40
0.5
100
AcDbArc
 50
90.00000000000087
 51
180.0000000000008
  0
LINE
  5
1368
330
1F
100
AcDbEntity
  8
外形
100
AcDbLine
 10
541.6353715214671
 20
349.9383691315129
 30
0.0
 11
541.6353715214673
 21
347.7477895211673
 31
0.0
  0
LINE
  5
1369
330
1F
100
AcDbEntity
  8
外形
100
AcDbLine
 10
534.4416528803442
 20
345.3239409222895
 30
0.0
 11
544.4416528803441
 21
345.3239409222896
 31
0.0
  0
LINE
  5
136A
330
1F
100
AcDbEntity
  8
外形
100
AcDbLine
 10
544.4416528803441
 20
345.3239409222896
 30
0.0
 11
544.4416528803441
 21
349.9383691315129
 31
0.0
  0
ARC
  5
136C
330
1F
100
AcDbEntity
  8
寸法
100
AcDbCircle
 10
549.0272024009674
 20
349.9408441937061
 30
0.0
 40
6.912858107314476
100
AcDbArc
 50
138.1520768092385
 51
221.8069719278051
  0
ARC
  5
136D
330
1F
100
AcDbEntity
  8
寸法
100
AcDbCircle
 10
549.0272024009674
 20
337.2300589526221
 30
0.0
 40
6.912858107314476
100
AcDbArc
 50
138.1930280721948
 51
221.8479231907614
  0
LINE
  5
136E
330
1F
100
AcDbEntity
  8
外形
100
AcDbLine
 10
541.6353715214671
 20
337.2325340148154
 30
0.0
 11
541.6353715214673
 21
335.0419544044698
 31
0.0
  0
ARC
  5
136F
330
1F
100
AcDbEntity
  8
外形
100
AcDbCircle
 10
540.6273336891428
 20
336.7325340148154
 30
0.0
 40
0.5
100
AcDbArc
 50
90.00000000000003
 51
180.0
  0
LINE
  5
1370
330
1F
100
AcDbEntity
  8
外形
100
AcDbLine
 10
544.4416528803441
 20
332.6181058055922
 30
0.0
 11
544.4416528803441
 21
337.2325340148154
 31
0.0
  0
ARC
  5
1371
330
1F
100
AcDbEntity
  8
外形
100
AcDbCircle
 10
541.1353715214672
 20
339.423113625161
 30
0.0
 40
0.5
100
AcDbArc
 50
359.9999999999991
 51
89.99999999999914
  0
LINE
  5
1372
330
1F
100
AcDbEntity
  8
外形
100
AcDbLine
 10
534.4416528803442
 20
341.8469622240386
 30
0.0
 11
544.4416528803441
 21
341.8469622240386
 31
0.0
  0
LINE
  5
1373
330
1F
100
AcDbEntity
  8
外形
100
AcDbLine
 10
540.1273336891429
 20
339.423113625161
 30
0.0
 11
540.1273336891428
 21
337.7325340148154
 31
0.0
  0
ARC
  5
1374
330
1F
100
AcDbEntity
  8
外形
100
AcDbCircle
 10
540.6273336891429
 20
339.423113625161
 30
0.0
 40
0.5
100
AcDbArc
 50
89.99999999999914
 51
179.9999999999991
  0
LINE
  5
1375
330
1F
100
AcDbEntity
  8
外形
100
AcDbLine
 10
541.1353715214672
 20
339.923113625161
 30
0.0
 11
540.6273336891429
 21
339.923113625161
 31
0.0
  0
ARC
  5
1376
330
1F
100
AcDbEntity
  8
外形
100
AcDbCircle
 10
540.6273336891428
 20
337.7325340148154
 30
0.0
 40
0.5
100
AcDbArc
 50
179.9999999999991
 51
269.9999999999991
  0
LINE
  5
1377
330
1F
100
AcDbEntity
  8
外形
100
AcDbLine
 10
544.4416528803441
 20
341.8469622240386
 30
0.0
 11
544.4416528803441
 21
337.2325340148153
 31
0.0
  0
LINE
  5
1378
330
1F
100
AcDbEntity
  8
外形
100
AcDbLine
 10
541.6353715214671
 20
337.2325340148154
 30
0.0
 11
541.6353715214673
 21
339.423113625161
 31
0.0
  0
LINE
  5
1379
330
1F
100
AcDbEntity
  8
外形
100
AcDbLine
 10
541.6353715214673
 20
338.8391212793947
 30
0.0
 11
542.3042175251533
 21
338.8391212793947
 31
0.0
  0
LINE
  5
137A
330
1F
100
AcDbEntity
  8
外形
100
AcDbLine
 10
544.4416528803441
 20
337.2325340148154
 30
0.0
 11
544.4416528803441
 21
337.2325340148154
 31
0.0
  0
ARC
  5
137B
330
1F
100
AcDbEntity
  8
外形
100
AcDbCircle
 10
541.1353715214672
 20
335.0419544044698
 30
0.0
 40
0.5
100
AcDbArc
 50
270.0
 51
0.0
  0
LINE
  5
137C
330
1F
100
AcDbEntity
  8
外形
100
AcDbLine
 10
534.4416528803442
 20
332.6181058055922
 30
0.0
 11
544.4416528803441
 21
332.6181058055922
 31
0.0
  0
LINE
  5
137D
330
1F
100
AcDbEntity
  8
外形
100
AcDbLine
 10
540.1273336891429
 20
335.0419544044698
 30
0.0
 11
540.1273336891428
 21
336.7325340148154
 31
0.0
  0
LINE
  5
137E
330
1F
100
AcDbEntity
  8
外形
100
AcDbLine
 10
541.1353715214672
 20
334.5419544044698
 30
0.0
 11
540.6273336891429
 21
334.5419544044698
 31
0.0
  0
ARC
  5
137F
330
1F
100
AcDbEntity
  8
外形
100
AcDbCircle
 10
540.6273336891429
 20
335.0419544044698
 30
0.0
 40
0.5
100
AcDbArc
 50
180.0
 51
270.0
  0
LINE
  5
1380
330
1F
100
AcDbEntity
  8
外形
100
AcDbLine
 10
541.6353715214673
 20
335.6259467502361
 30
0.0
 11
542.3030347012428
 21
335.6259467502361
 31
0.0
  0
LWPOLYLINE
  5
1382
330
1F
100
AcDbEntity
  8
寸法
100
AcDbPolyline
 90
        4
 70
     1
 43
0.0
 10
562.5709159293578
 20
346.3805666356662
 10
587.5709159293578
 20
346.3805666356662
 10
587.5709159293578
 20
340.790336510662
 10
562.5709159293578
 20
340.790336510662
  0
LWPOLYLINE
  5
1383
330
1F
100
AcDbEntity
  8
寸法
100
AcDbPolyline
 90
        4
 70
     1
 43
0.0
 10
619.0445435990367
 20
346.3805666356663
 10
594.0445435990367
 20
346.3805666356663
 10
594.0445435990367
 20
340.7903365106621
 10
619.0445435990367
 20
340.7903365106621
  0
LWPOLYLINE
  5
1384
330
1F
100
AcDbEntity
  8
寸法
100
AcDbPolyline
 90
        4
 70
     1
 43
0.0
 10
562.5709159293578
 20
338.9077069257577
 10
587.5709159293578
 20
338.9077069257577
 10
587.5709159293578
 20
333.3174768007533
 10
562.5709159293578
 20
333.3174768007533
  0
LWPOLYLINE
  5
1385
330
1F
100
AcDbEntity
  8
寸法
100
AcDbPolyline
 90
        4
 70
     1
 43
0.0
 10
619.0445435990367
 20
338.9077069257577
 10
594.0445435990367
 20
338.9077069257577
 10
594.0445435990367
 20
333.3174768007534
 10
619.0445435990367
 20
333.3174768007534
  0
LWPOLYLINE
  5
1386
330
1F
100
AcDbEntity
  8
寸法
100
AcDbPolyline
 90
        4
 70
     1
 43
0.0
 10
562.5709159293578
 20
353.5469316944912
 10
587.5709159293578
 20
353.5469316944912
 10
587.5709159293578
 20
347.9567015694868
 10
562.5709159293578
 20
347.9567015694868
  0
LWPOLYLINE
  5
1387
330
1F
100
AcDbEntity
  8
寸法
100
AcDbPolyline
 90
        4
 70
     1
 43
0.0
 10
619.0445435990367
 20
353.5469316944912
 10
594.0445435990367
 20
353.5469316944912
 10
594.0445435990367
 20
347.9567015694868
 10
619.0445435990367
 20
347.9567015694868
  0
CIRCLE
  5
16F4
330
1F
100
AcDbEntity
  8
外形
100
AcDbCircle
 10
472.5322145070474
 20
194.4698125793154
 30
0.0
 40
3.5
  0
LINE
  5
16F5
330
1F
100
AcDbEntity
  8
外形
  6
CENTER
 62
     1
 48
0.2
100
AcDbLine
 10
457.5322145070477
 20
189.9698125793154
 30
0.0
 11
457.5322145070477
 21
198.9698125793155
 31
0.0
  0
LINE
  5
16F6
330
1F
100
AcDbEntity
  8
外形
  6
CENTER
 62
     1
 48
0.2
100
AcDbLine
 10
462.0322145070477
 20
194.4698125793154
 30
0.0
 11
453.0322145070477
 21
194.4698125793154
 31
0.0
  0
CIRCLE
  5
16F7
330
1F
100
AcDbEntity
  8
外形
100
AcDbCircle
 10
457.5322145070477
 20
194.4698125793154
 30
0.0
 40
3.5
  0
LINE
  5
19CD
330
1F
100
AcDbEntity
  8
外形
100
AcDbLine
 10
558.4067703245267
 20
357.0854515731641
 30
0.0
 11
558.4067703245267
 21
330.0854515731641
 31
0.0
  0
LINE
  5
19CF
330
1F
100
AcDbEntity
  8
外形
100
AcDbLine
 10
565.0709159293578
 20
278.4698125793156
 30
0.0
 11
565.070915929358
 21
200.4698125793155
 31
0.0
  0
LINE
  5
19D0
330
1F
100
AcDbEntity
  8
外形
100
AcDbLine
 10
567.5709159293578
 20
278.4698125793156
 30
0.0
 11
567.5709159293581
 21
200.4698125793155
 31
0.0
  0
LINE
  5
19D1
330
1F
100
AcDbEntity
  8
外形
100
AcDbLine
 10
570.0709159293579
 20
278.4698125793156
 30
0.0
 11
570.070915929358
 21
200.4698125793155
 31
0.0
  0
LINE
  5
19D2
330
1F
100
AcDbEntity
  8
外形
100
AcDbLine
 10
572.5709159293578
 20
278.4698125793156
 30
0.0
 11
572.5709159293581
 21
200.4698125793155
 31
0.0
  0
LINE
  5
19D3
330
1F
100
AcDbEntity
  8
外形
100
AcDbLine
 10
575.0709159293578
 20
278.4698125793156
 30
0.0
 11
575.070915929358
 21
200.4698125793155
 31
0.0
  0
LINE
  5
19D4
330
1F
100
AcDbEntity
  8
外形
100
AcDbLine
 10
577.5709159293578
 20
278.4698125793156
 30
0.0
 11
577.570915929358
 21
200.4698125793155
 31
0.0
  0
LINE
  5
19D5
330
1F
100
AcDbEntity
  8
外形
100
AcDbLine
 10
580.0709159293578
 20
278.4698125793156
 30
0.0
 11
580.0709159293581
 21
200.4698125793155
 31
0.0
  0
LINE
  5
19DF
330
1F
100
AcDbEntity
  8
外形
100
AcDbLine
 10
580.424469319951
 20
330.3848664181472
 30
0.0
 11
581.4987852780904
 21
331.4591823762869
 31
0.0
  0
LINE
  5
19E0
330
1F
100
AcDbEntity
  8
外形
100
AcDbLine
 10
579.7271794579387
 20
330.375314812608
 30
0.0
 11
578.9466635918928
 21
331.1141968785086
 31
0.0
  0
ARC
  5
19E1
330
1F
100
AcDbEntity
  8
外形
100
AcDbCircle
 10
580.0709159293578
 20
330.7384198087405
 30
0.0
 40
0.5
100
AcDbArc
 50
226.5695982083762
 51
314.9999999999976
  0
ARC
  5
19E2
330
1F
100
AcDbEntity
  8
外形
100
AcDbCircle
 10
578.6029271204737
 20
330.7510918823761
 30
0.0
 40
0.5
100
AcDbArc
 50
46.56959820837754
 51
128.8720670740568
  0
LINE
  5
19E3
330
1F
100
AcDbEntity
  8
外形
100
AcDbLine
 10
577.924469319951
 20
356.7860367281811
 30
0.0
 11
578.2891353340988
 21
356.0305366631834
 31
0.0
  0
LINE
  5
19E4
330
1F
100
AcDbEntity
  8
外形
100
AcDbLine
 10
579.7271794579387
 20
356.7955883337203
 30
0.0
 11
578.9466635918928
 21
356.0567062678197
 31
0.0
  0
LINE
  5
19E5
330
1F
100
AcDbEntity
  8
外形
100
AcDbLine
 10
580.424469319951
 20
356.7860367281811
 30
0.0
 11
581.4987852780904
 21
355.7117207700413
 31
0.0
  0
LINE
  5
19E6
330
1F
100
AcDbEntity
  8
外形
100
AcDbLine
 10
575.7891353340989
 20
356.0305366631834
 30
0.0
 11
575.3847077157327
 21
356.8217579383566
 31
0.0
  0
LINE
  5
19E7
330
1F
100
AcDbEntity
  8
外形
100
AcDbLine
 10
577.2271794579387
 20
356.7955883337203
 30
0.0
 11
576.4466635918928
 21
356.0567062678197
 31
0.0
  0
LINE
  5
19E8
330
1F
100
AcDbEntity
  8
外形
100
AcDbLine
 10
573.2891353340988
 20
356.0305366631834
 30
0.0
 11
572.8847077157326
 21
356.8217579383566
 31
0.0
  0
LINE
  5
19E9
330
1F
100
AcDbEntity
  8
外形
100
AcDbLine
 10
574.7271794579387
 20
356.7955883337203
 30
0.0
 11
573.9466635918928
 21
356.0567062678197
 31
0.0
  0
LINE
  5
19EA
330
1F
100
AcDbEntity
  8
外形
100
AcDbLine
 10
570.7891353340989
 20
356.0305366631834
 30
0.0
 11
570.3847077157327
 21
356.8217579383566
 31
0.0
  0
LINE
  5
19EB
330
1F
100
AcDbEntity
  8
外形
100
AcDbLine
 10
572.2271794579387
 20
356.7955883337203
 30
0.0
 11
571.4466635918928
 21
356.0567062678197
 31
0.0
  0
LINE
  5
19EC
330
1F
100
AcDbEntity
  8
外形
100
AcDbLine
 10
568.2891353340989
 20
356.0305366631834
 30
0.0
 11
567.8847077157326
 21
356.8217579383566
 31
0.0
  0
LINE
  5
19ED
330
1F
100
AcDbEntity
  8
外形
100
AcDbLine
 10
569.7271794579387
 20
356.7955883337203
 30
0.0
 11
568.9466635918928
 21
356.0567062678197
 31
0.0
  0
LINE
  5
19EE
330
1F
100
AcDbEntity
  8
外形
100
AcDbLine
 10
565.7891353340988
 20
356.0305366631834
 30
0.0
 11
565.3847077157327
 21
356.8217579383566
 31
0.0
  0
LINE
  5
19EF
330
1F
100
AcDbEntity
  8
外形
100
AcDbLine
 10
567.2271794579387
 20
356.7955883337203
 30
0.0
 11
566.4466635918928
 21
356.0567062678197
 31
0.0
  0
LINE
  5
19F0
330
1F
100
AcDbEntity
  8
外形
100
AcDbLine
 10
563.2891353340989
 20
356.0305366631834
 30
0.0
 11
562.8847077157327
 21
356.8217579383566
 31
0.0
  0
LINE
  5
19F1
330
1F
100
AcDbEntity
  8
外形
100
AcDbLine
 10
564.7271794579387
 20
356.7955883337203
 30
0.0
 11
563.9466635918928
 21
356.0567062678197
 31
0.0
  0
LINE
  5
19F2
330
1F
100
AcDbEntity
  8
外形
100
AcDbLine
 10
562.2271794579387
 20
356.7955883337203
 30
0.0
 11
561.8071136887427
 21
356.0567062678197
 31
0.0
  0
LINE
  5
19F3
330
1F
100
AcDbEntity
  8
外形
100
AcDbLine
 10
561.1495854309487
 20
356.0305366631834
 30
0.0
 11
560.1588173883913
 21
356.829188497501
 31
0.0
  0
ARC
  5
19F4
330
1F
100
AcDbEntity
  8
外形
100
AcDbCircle
 10
570.0709159293579
 20
356.4324833375878
 30
0.0
 40
0.5
100
AcDbArc
 50
51.12793292594308
 51
133.4304017916237
  0
ARC
  5
19F5
330
1F
100
AcDbEntity
  8
外形
100
AcDbCircle
 10
562.5709159293578
 20
356.4324833375878
 30
0.0
 40
0.5
100
AcDbArc
 50
51.12793292594308
 51
133.4304017916237
  0
ARC
  5
19F6
330
1F
100
AcDbEntity
  8
外形
100
AcDbCircle
 10
567.5709159293578
 20
356.4324833375878
 30
0.0
 40
0.5
100
AcDbArc
 50
51.12793292594308
 51
133.4304017916237
  0
ARC
  5
19F7
330
1F
100
AcDbEntity
  8
外形
100
AcDbCircle
 10
565.0709159293578
 20
356.4324833375878
 30
0.0
 40
0.5
100
AcDbArc
 50
51.12793292594308
 51
133.4304017916237
  0
ARC
  5
19F8
330
1F
100
AcDbEntity
  8
外形
100
AcDbCircle
 10
575.0709159293578
 20
356.4324833375878
 30
0.0
 40
0.5
100
AcDbArc
 50
51.12793292594308
 51
133.4304017916237
  0
ARC
  5
19F9
330
1F
100
AcDbEntity
  8
外形
100
AcDbCircle
 10
572.5709159293578
 20
356.4324833375878
 30
0.0
 40
0.5
100
AcDbArc
 50
51.12793292594308
 51
133.4304017916237
  0
ARC
  5
19FA
330
1F
100
AcDbEntity
  8
外形
100
AcDbCircle
 10
580.0709159293578
 20
356.4324833375878
 30
0.0
 40
0.5
100
AcDbArc
 50
45.00000000000236
 51
133.4304017916237
  0
ARC
  5
19FB
330
1F
100
AcDbEntity
  8
外形
100
AcDbCircle
 10
577.5709159293578
 20
356.4324833375878
 30
0.0
 40
0.5
100
AcDbArc
 50
45.00000000000236
 51
133.4304017916237
  0
ARC
  5
19FC
330
1F
100
AcDbEntity
  8
外形
100
AcDbCircle
 10
561.4633772173236
 20
356.4198112639522
 30
0.0
 40
0.5
100
AcDbArc
 50
231.1279329259431
 51
313.4304017916225
  0
ARC
  5
19FD
330
1F
100
AcDbEntity
  8
外形
100
AcDbCircle
 10
568.6029271204737
 20
356.4198112639522
 30
0.0
 40
0.5
100
AcDbArc
 50
231.1279329259431
 51
313.4304017916225
  0
ARC
  5
19FE
330
1F
100
AcDbEntity
  8
外形
100
AcDbCircle
 10
566.1029271204737
 20
356.4198112639522
 30
0.0
 40
0.5
100
AcDbArc
 50
231.1279329259431
 51
313.4304017916225
  0
ARC
  5
19FF
330
1F
100
AcDbEntity
  8
外形
100
AcDbCircle
 10
563.6029271204737
 20
356.4198112639522
 30
0.0
 40
0.5
100
AcDbArc
 50
231.1279329259431
 51
313.4304017916225
  0
ARC
  5
1A00
330
1F
100
AcDbEntity
  8
外形
100
AcDbCircle
 10
576.1029271204737
 20
356.4198112639522
 30
0.0
 40
0.5
100
AcDbArc
 50
231.1279329259431
 51
313.4304017916225
  0
ARC
  5
1A01
330
1F
100
AcDbEntity
  8
外形
100
AcDbCircle
 10
573.6029271204737
 20
356.4198112639522
 30
0.0
 40
0.5
100
AcDbArc
 50
231.1279329259431
 51
313.4304017916225
  0
ARC
  5
1A02
330
1F
100
AcDbEntity
  8
外形
100
AcDbCircle
 10
571.1029271204737
 20
356.4198112639522
 30
0.0
 40
0.5
100
AcDbArc
 50
231.1279329259431
 51
313.4304017916225
  0
ARC
  5
1A03
330
1F
100
AcDbEntity
  8
外形
100
AcDbCircle
 10
578.6029271204737
 20
356.4198112639522
 30
0.0
 40
0.5
100
AcDbArc
 50
231.1279329259431
 51
313.4304017916225
  0
LINE
  5
1A04
330
1F
100
AcDbEntity
  8
外形
100
AcDbLine
 10
619.0445435990367
 20
278.4698125793155
 30
0.0
 11
619.0445435990367
 21
200.4698125793156
 31
0.0
  0
LINE
  5
1A06
330
1F
100
AcDbEntity
  8
外形
100
AcDbLine
 10
619.0445435990367
 20
278.4698125793155
 30
0.0
 11
619.0445435990369
 21
200.4698125793154
 31
0.0
  0
LINE
  5
1A07
330
1F
100
AcDbEntity
  8
外形
100
AcDbLine
 10
616.5445435990367
 20
278.4698125793155
 30
0.0
 11
616.544543599037
 21
200.4698125793154
 31
0.0
  0
LINE
  5
1A08
330
1F
100
AcDbEntity
  8
外形
100
AcDbLine
 10
614.0445435990367
 20
278.4698125793155
 30
0.0
 11
614.0445435990369
 21
200.4698125793154
 31
0.0
  0
LINE
  5
1A09
330
1F
100
AcDbEntity
  8
外形
100
AcDbLine
 10
611.5445435990367
 20
278.4698125793155
 30
0.0
 11
611.5445435990369
 21
200.4698125793154
 31
0.0
  0
LINE
  5
1A0A
330
1F
100
AcDbEntity
  8
外形
100
AcDbLine
 10
609.0445435990367
 20
278.4698125793155
 30
0.0
 11
609.0445435990369
 21
200.4698125793154
 31
0.0
  0
LINE
  5
1A0B
330
1F
100
AcDbEntity
  8
外形
100
AcDbLine
 10
606.5445435990367
 20
278.4698125793155
 30
0.0
 11
606.5445435990369
 21
200.4698125793154
 31
0.0
  0
LINE
  5
1A0C
330
1F
100
AcDbEntity
  8
外形
100
AcDbLine
 10
604.0445435990367
 20
278.4698125793155
 30
0.0
 11
604.044543599037
 21
200.4698125793154
 31
0.0
  0
LINE
  5
1A0D
330
1F
100
AcDbEntity
  8
外形
100
AcDbLine
 10
601.5445435990367
 20
278.4698125793155
 30
0.0
 11
601.5445435990369
 21
200.4698125793154
 31
0.0
  0
LINE
  5
1A0E
330
1F
100
AcDbEntity
  8
外形
100
AcDbLine
 10
619.3980969896299
 20
330.3848664181472
 30
0.0
 11
620.4724129477694
 21
331.4591823762869
 31
0.0
  0
LINE
  5
1A0F
330
1F
100
AcDbEntity
  8
外形
100
AcDbLine
 10
616.8980969896299
 20
330.3848664181472
 30
0.0
 11
617.2627630037777
 21
331.1403664831448
 31
0.0
  0
LINE
  5
1A10
330
1F
100
AcDbEntity
  8
外形
100
AcDbLine
 10
618.7008071276176
 20
330.375314812608
 30
0.0
 11
617.9202912615717
 21
331.1141968785086
 31
0.0
  0
LINE
  5
1A11
330
1F
100
AcDbEntity
  8
外形
100
AcDbLine
 10
614.7627630037777
 20
331.1403664831448
 30
0.0
 11
614.3583353854116
 21
330.3491452079717
 31
0.0
  0
LINE
  5
1A12
330
1F
100
AcDbEntity
  8
外形
100
AcDbLine
 10
616.2008071276176
 20
330.375314812608
 30
0.0
 11
615.4202912615716
 21
331.1141968785086
 31
0.0
  0
LINE
  5
1A13
330
1F
100
AcDbEntity
  8
外形
100
AcDbLine
 10
612.2627630037777
 20
331.1403664831448
 30
0.0
 11
611.8583353854115
 21
330.3491452079717
 31
0.0
  0
LINE
  5
1A14
330
1F
100
AcDbEntity
  8
外形
100
AcDbLine
 10
613.7008071276176
 20
330.375314812608
 30
0.0
 11
612.9202912615717
 21
331.1141968785086
 31
0.0
  0
LINE
  5
1A15
330
1F
100
AcDbEntity
  8
外形
100
AcDbLine
 10
609.7627630037777
 20
331.1403664831448
 30
0.0
 11
609.3583353854115
 21
330.3491452079717
 31
0.0
  0
LINE
  5
1A16
330
1F
100
AcDbEntity
  8
外形
100
AcDbLine
 10
611.2008071276176
 20
330.375314812608
 30
0.0
 11
610.4202912615717
 21
331.1141968785086
 31
0.0
  0
LINE
  5
1A17
330
1F
100
AcDbEntity
  8
外形
100
AcDbLine
 10
607.2627630037778
 20
331.1403664831448
 30
0.0
 11
606.8583353854116
 21
330.3491452079717
 31
0.0
  0
LINE
  5
1A18
330
1F
100
AcDbEntity
  8
外形
100
AcDbLine
 10
608.7008071276176
 20
330.375314812608
 30
0.0
 11
607.9202912615717
 21
331.1141968785086
 31
0.0
  0
LINE
  5
1A19
330
1F
100
AcDbEntity
  8
外形
100
AcDbLine
 10
604.7627630037777
 20
331.1403664831448
 30
0.0
 11
604.3583353854115
 21
330.3491452079717
 31
0.0
  0
LINE
  5
1A1A
330
1F
100
AcDbEntity
  8
外形
100
AcDbLine
 10
606.2008071276176
 20
330.375314812608
 30
0.0
 11
605.4202912615717
 21
331.1141968785086
 31
0.0
  0
LINE
  5
1A1B
330
1F
100
AcDbEntity
  8
外形
100
AcDbLine
 10
602.2627630037777
 20
331.1403664831448
 30
0.0
 11
601.8583353854116
 21
330.3491452079717
 31
0.0
  0
LINE
  5
1A1C
330
1F
100
AcDbEntity
  8
外形
100
AcDbLine
 10
603.7008071276176
 20
330.375314812608
 30
0.0
 11
602.9202912615716
 21
331.1141968785086
 31
0.0
  0
LINE
  5
1A1D
330
1F
100
AcDbEntity
  8
外形
100
AcDbLine
 10
601.2008071276176
 20
330.375314812608
 30
0.0
 11
600.5846118200639
 21
331.459182376287
 31
0.0
  0
ARC
  5
1A1E
330
1F
100
AcDbEntity
  8
外形
100
AcDbCircle
 10
609.0445435990367
 20
330.7384198087405
 30
0.0
 40
0.5
100
AcDbArc
 50
226.5695982083762
 51
308.8720670740569
  0
ARC
  5
1A1F
330
1F
100
AcDbEntity
  8
外形
100
AcDbCircle
 10
601.5445435990367
 20
330.7384198087405
 30
0.0
 40
0.5
100
AcDbArc
 50
226.5695982083762
 51
308.8720670740569
  0
ARC
  5
1A20
330
1F
100
AcDbEntity
  8
外形
100
AcDbCircle
 10
606.5445435990367
 20
330.7384198087405
 30
0.0
 40
0.5
100
AcDbArc
 50
226.5695982083762
 51
308.8720670740569
  0
ARC
  5
1A21
330
1F
100
AcDbEntity
  8
外形
100
AcDbCircle
 10
604.0445435990367
 20
330.7384198087405
 30
0.0
 40
0.5
100
AcDbArc
 50
226.5695982083762
 51
308.8720670740569
  0
ARC
  5
1A22
330
1F
100
AcDbEntity
  8
外形
100
AcDbCircle
 10
614.0445435990367
 20
330.7384198087405
 30
0.0
 40
0.5
100
AcDbArc
 50
226.5695982083762
 51
308.8720670740569
  0
ARC
  5
1A23
330
1F
100
AcDbEntity
  8
外形
100
AcDbCircle
 10
611.5445435990367
 20
330.7384198087405
 30
0.0
 40
0.5
100
AcDbArc
 50
226.5695982083762
 51
308.8720670740569
  0
ARC
  5
1A24
330
1F
100
AcDbEntity
  8
外形
100
AcDbCircle
 10
619.0445435990367
 20
330.7384198087405
 30
0.0
 40
0.5
100
AcDbArc
 50
226.5695982083762
 51
314.9999999999976
  0
ARC
  5
1A25
330
1F
100
AcDbEntity
  8
外形
100
AcDbCircle
 10
616.5445435990367
 20
330.7384198087405
 30
0.0
 40
0.5
100
AcDbArc
 50
226.5695982083762
 51
314.9999999999976
  0
ARC
  5
1A27
330
1F
100
AcDbEntity
  8
外形
100
AcDbCircle
 10
607.5765547901526
 20
330.7510918823761
 30
0.0
 40
0.5
100
AcDbArc
 50
46.56959820837754
 51
128.8720670740568
  0
ARC
  5
1A28
330
1F
100
AcDbEntity
  8
外形
100
AcDbCircle
 10
605.0765547901526
 20
330.7510918823761
 30
0.0
 40
0.5
100
AcDbArc
 50
46.56959820837754
 51
128.8720670740568
  0
ARC
  5
1A29
330
1F
100
AcDbEntity
  8
外形
100
AcDbCircle
 10
602.5765547901526
 20
330.7510918823761
 30
0.0
 40
0.5
100
AcDbArc
 50
46.56959820837754
 51
128.8720670740568
  0
ARC
  5
1A2A
330
1F
100
AcDbEntity
  8
外形
100
AcDbCircle
 10
615.0765547901526
 20
330.7510918823761
 30
0.0
 40
0.5
100
AcDbArc
 50
46.56959820837754
 51
128.8720670740568
  0
ARC
  5
1A2B
330
1F
100
AcDbEntity
  8
外形
100
AcDbCircle
 10
612.5765547901526
 20
330.7510918823761
 30
0.0
 40
0.5
100
AcDbArc
 50
46.56959820837754
 51
128.8720670740568
  0
ARC
  5
1A2C
330
1F
100
AcDbEntity
  8
外形
100
AcDbCircle
 10
610.0765547901525
 20
330.7510918823761
 30
0.0
 40
0.5
100
AcDbArc
 50
46.56959820837754
 51
128.8720670740568
  0
ARC
  5
1A2D
330
1F
100
AcDbEntity
  8
外形
100
AcDbCircle
 10
617.5765547901526
 20
330.7510918823761
 30
0.0
 40
0.5
100
AcDbArc
 50
46.56959820837754
 51
128.8720670740568
  0
ARC
  5
1A2E
330
1F
100
AcDbEntity
  8
外形
100
AcDbCircle
 10
614.0445435990367
 20
356.4324833375878
 30
0.0
 40
0.5
100
AcDbArc
 50
51.12793292594308
 51
133.4304017916237
  0
LINE
  5
1A2F
330
1F
100
AcDbEntity
  8
外形
100
AcDbLine
 10
601.2008071276176
 20
356.7955883337203
 30
0.0
 11
600.5846118200639
 21
355.7117207700412
 31
0.0
  0
LINE
  5
1A30
330
1F
100
AcDbEntity
  8
外形
100
AcDbLine
 10
603.7008071276176
 20
356.7955883337203
 30
0.0
 11
602.9202912615716
 21
356.0567062678197
 31
0.0
  0
LINE
  5
1A31
330
1F
100
AcDbEntity
  8
外形
100
AcDbLine
 10
602.2627630037777
 20
356.0305366631834
 30
0.0
 11
601.8583353854116
 21
356.8217579383566
 31
0.0
  0
LINE
  5
1A32
330
1F
100
AcDbEntity
  8
外形
100
AcDbLine
 10
606.2008071276176
 20
356.7955883337203
 30
0.0
 11
605.4202912615717
 21
356.0567062678197
 31
0.0
  0
LINE
  5
1A33
330
1F
100
AcDbEntity
  8
外形
100
AcDbLine
 10
604.7627630037777
 20
356.0305366631834
 30
0.0
 11
604.3583353854115
 21
356.8217579383566
 31
0.0
  0
LINE
  5
1A34
330
1F
100
AcDbEntity
  8
外形
100
AcDbLine
 10
608.7008071276176
 20
356.7955883337203
 30
0.0
 11
607.9202912615717
 21
356.0567062678197
 31
0.0
  0
LINE
  5
1A35
330
1F
100
AcDbEntity
  8
外形
100
AcDbLine
 10
607.2627630037778
 20
356.0305366631834
 30
0.0
 11
606.8583353854116
 21
356.8217579383566
 31
0.0
  0
LINE
  5
1A36
330
1F
100
AcDbEntity
  8
外形
100
AcDbLine
 10
611.2008071276176
 20
356.7955883337203
 30
0.0
 11
610.4202912615717
 21
356.0567062678197
 31
0.0
  0
LINE
  5
1A37
330
1F
100
AcDbEntity
  8
外形
100
AcDbLine
 10
609.7627630037777
 20
356.0305366631834
 30
0.0
 11
609.3583353854115
 21
356.8217579383566
 31
0.0
  0
LINE
  5
1A38
330
1F
100
AcDbEntity
  8
外形
100
AcDbLine
 10
613.7008071276176
 20
356.7955883337203
 30
0.0
 11
612.9202912615717
 21
356.0567062678197
 31
0.0
  0
LINE
  5
1A39
330
1F
100
AcDbEntity
  8
外形
100
AcDbLine
 10
612.2627630037777
 20
356.0305366631834
 30
0.0
 11
611.8583353854115
 21
356.8217579383566
 31
0.0
  0
ARC
  5
1A3A
330
1F
100
AcDbEntity
  8
外形
100
AcDbCircle
 10
606.5445435990367
 20
356.4324833375878
 30
0.0
 40
0.5
100
AcDbArc
 50
51.12793292594308
 51
133.4304017916237
  0
ARC
  5
1A3B
330
1F
100
AcDbEntity
  8
外形
100
AcDbCircle
 10
604.0445435990367
 20
356.4324833375878
 30
0.0
 40
0.5
100
AcDbArc
 50
51.12793292594308
 51
133.4304017916237
  0
ARC
  5
1A3C
330
1F
100
AcDbEntity
  8
外形
100
AcDbCircle
 10
601.5445435990367
 20
356.4324833375878
 30
0.0
 40
0.5
100
AcDbArc
 50
51.12793292594308
 51
133.4304017916237
  0
ARC
  5
1A3D
330
1F
100
AcDbEntity
  8
外形
100
AcDbCircle
 10
611.5445435990367
 20
356.4324833375878
 30
0.0
 40
0.5
100
AcDbArc
 50
51.12793292594308
 51
133.4304017916237
  0
ARC
  5
1A3E
330
1F
100
AcDbEntity
  8
外形
100
AcDbCircle
 10
609.0445435990367
 20
356.4324833375878
 30
0.0
 40
0.5
100
AcDbArc
 50
51.12793292594308
 51
133.4304017916237
  0
ARC
  5
1A3F
330
1F
100
AcDbEntity
  8
外形
100
AcDbCircle
 10
602.5765547901526
 20
356.4198112639522
 30
0.0
 40
0.5
100
AcDbArc
 50
231.1279329259431
 51
313.4304017916225
  0
ARC
  5
1A40
330
1F
100
AcDbEntity
  8
外形
100
AcDbCircle
 10
605.0765547901526
 20
356.4198112639522
 30
0.0
 40
0.5
100
AcDbArc
 50
231.1279329259431
 51
313.4304017916225
  0
ARC
  5
1A41
330
1F
100
AcDbEntity
  8
外形
100
AcDbCircle
 10
610.0765547901525
 20
356.4198112639522
 30
0.0
 40
0.5
100
AcDbArc
 50
231.1279329259431
 51
313.4304017916225
  0
ARC
  5
1A42
330
1F
100
AcDbEntity
  8
外形
100
AcDbCircle
 10
612.5765547901526
 20
356.4198112639522
 30
0.0
 40
0.5
100
AcDbArc
 50
231.1279329259431
 51
313.4304017916225
  0
ARC
  5
1A43
330
1F
100
AcDbEntity
  8
外形
100
AcDbCircle
 10
607.5765547901526
 20
356.4198112639522
 30
0.0
 40
0.5
100
AcDbArc
 50
231.1279329259431
 51
313.4304017916225
  0
LINE
  5
1A44
330
1F
100
AcDbEntity
  8
外形
100
AcDbLine
 10
616.2008071276176
 20
356.7955883337203
 30
0.0
 11
615.4202912615716
 21
356.0567062678197
 31
0.0
  0
LINE
  5
1A45
330
1F
100
AcDbEntity
  8
外形
100
AcDbLine
 10
614.7627630037777
 20
356.0305366631834
 30
0.0
 11
614.3583353854116
 21
356.8217579383566
 31
0.0
  0
LINE
  5
1A46
330
1F
100
AcDbEntity
  8
外形
100
AcDbLine
 10
618.7008071276176
 20
356.7955883337203
 30
0.0
 11
617.9202912615717
 21
356.0567062678197
 31
0.0
  0
LINE
  5
1A47
330
1F
100
AcDbEntity
  8
外形
100
AcDbLine
 10
616.8980969896299
 20
356.7860367281811
 30
0.0
 11
617.2627630037777
 21
356.0305366631834
 31
0.0
  0
LINE
  5
1A48
330
1F
100
AcDbEntity
  8
外形
100
AcDbLine
 10
619.3980969896299
 20
356.7860367281811
 30
0.0
 11
620.4724129477694
 21
355.7117207700413
 31
0.0
  0
ARC
  5
1A49
330
1F
100
AcDbEntity
  8
外形
100
AcDbCircle
 10
616.5445435990367
 20
356.4324833375878
 30
0.0
 40
0.5
100
AcDbArc
 50
45.00000000000236
 51
133.4304017916237
  0
ARC
  5
1A4A
330
1F
100
AcDbEntity
  8
外形
100
AcDbCircle
 10
619.0445435990367
 20
356.4324833375878
 30
0.0
 40
0.5
100
AcDbArc
 50
45.00000000000236
 51
133.4304017916237
  0
ARC
  5
1A4B
330
1F
100
AcDbEntity
  8
外形
100
AcDbCircle
 10
617.5765547901526
 20
356.4198112639522
 30
0.0
 40
0.5
100
AcDbArc
 50
231.1279329259431
 51
313.4304017916225
  0
ARC
  5
1A4C
330
1F
100
AcDbEntity
  8
外形
100
AcDbCircle
 10
615.0765547901526
 20
356.4198112639522
 30
0.0
 40
0.5
100
AcDbArc
 50
231.1279329259431
 51
313.4304017916225
  0
ARC
  5
1A4E
330
1F
100
AcDbEntity
  8
外形
100
AcDbCircle
 10
620.7862047341441
 20
331.0699077755181
 30
0.0
 40
0.5
100
AcDbArc
 50
46.56959820837754
 51
128.8720670740568
  0
LINE
  5
1A4F
330
1F
100
AcDbEntity
  8
外形
100
AcDbLine
 10
621.1299412055632
 20
331.4330127716506
 30
0.0
 11
624.3843502331233
 21
330.3601977337887
 31
0.0
  0
ARC
  5
1A50
330
1F
100
AcDbEntity
  8
外形
100
AcDbCircle
 10
620.7862047341441
 20
356.1009953708101
 30
0.0
 40
0.5
100
AcDbArc
 50
231.1279329259431
 51
313.4304017916225
  0
LINE
  5
1A51
330
1F
100
AcDbEntity
  8
外形
100
AcDbLine
 10
621.1299412055632
 20
355.7378903746776
 30
0.0
 11
624.3843502331233
 21
356.8107054125395
 31
0.0
  0
MTEXT
  5
1A69
330
1F
100
AcDbEntity
  8
外形
100
AcDbMText
 10
123.9811571566844
 20
408.9895149451555
 30
0.0
 40
4.899999999999999
 41
138.0575
 71
     1
 72
     1
  1
??！\P\P日本成套??配管??公司\P?系人；? ? 小姐\PE-mail;   ryu@technosonic.ne.jp\PTEL:81-06-6120-7545\P
 73
     1
 44
1.0
  0
VIEWPORT
  5
2D8
102
{ACAD_XDICTIONARY
360
305
102
}
330
2D1
100
AcDbEntity
 67
     1
  8
0
 62
     5
100
AcDbViewport
 10
100.1722543522882
 20
143.6910295125843
 30
0.0
 40
361.472876048157
 41
290.5747785171664
 68
     2
 69
     1
 12
100.1722543522882
 22
143.6910295125843
 13
0.0
 23
0.0
 14
10.0
 24
10.0
 15
10.0
 25
10.0
 16
0.0
 26
0.0
 36
1.0
 17
0.0
 27
0.0
 37
0.0
 42
50.0
 43
0.0
 44
0.0
 45
290.5747785171664
 50
0.0
 51
0.0
 72
   100
 90
    32800
  1

281
     0
 71
     1
 74
     0
110
0.0
120
0.0
130
0.0
111
1.0
121
0.0
131
0.0
112
0.0
122
1.0
132
0.0
 79
     0
146
0.0
  0
VIEWPORT
  5
1391
330
2D1
100
AcDbEntity
 67
     1
  8
寸法
100
AcDbViewport
 10
100.1712510585784
 20
143.6899168491363
 30
0.0
 40
200.3425021171569
 41
287.3798336982726
 68
     1
 69
     2
 12
584.8535066121928
 22
283.6265906726189
 13
0.0
 23
0.0
 14
10.0
 24
10.0
 15
10.0
 25
10.0
 16
0.0
 26
0.0
 36
1.0
 17
0.0
 27
0.0
 37
0.0
 42
50.0
 43
0.0
 44
0.0
 45
497.9673530173867
 50
0.0
 51
0.0
 72
   100
 90
    32864
  1

281
     0
 71
     1
 74
     0
110
0.0
120
0.0
130
0.0
111
1.0
121
0.0
131
0.0
112
0.0
122
1.0
132
0.0
 79
     0
146
0.0
  0
ENDSEC
  0
SECTION
  2
OBJECTS
  0
DICTIONARY
  5
C
330
0
100
AcDbDictionary
281
     1
  3
ACAD_COLOR
350
2EC
  3
ACAD_GROUP
350
D
  3
ACAD_LAYOUT
350
1A
  3
ACAD_MATERIAL
350
2EB
  3
ACAD_MLINESTYLE
350
17
  3
ACAD_PLOTSETTINGS
350
19
  3
ACAD_PLOTSTYLENAME
350
E
  3
ACAD_TABLESTYLE
350
2F4
  3
AcDbVariableDictionary
350
309
  0
DICTIONARY
  5
305
330
2D8
100
AcDbDictionary
280
     1
281
     1
  3
ACAD_XREC_ROUNDTRIP
360
306
  0
DICTIONARY
  5
2EC
102
{ACAD_REACTORS
330
C
102
}
330
C
100
AcDbDictionary
281
     1
  0
DICTIONARY
  5
D
102
{ACAD_REACTORS
330
C
102
}
330
C
100
AcDbDictionary
281
     1
  0
DICTIONARY
  5
1A
102
{ACAD_REACTORS
330
C
102
}
330
C
100
AcDbDictionary
281
     1
  3
Model
350
22
  3
ﾚｲｱｳﾄ2
350
2D2
  0
DICTIONARY
  5
2EB
102
{ACAD_REACTORS
330
C
102
}
330
C
100
AcDbDictionary
281
     1
  0
DICTIONARY
  5
17
102
{ACAD_REACTORS
330
C
102
}
330
C
100
AcDbDictionary
281
     1
  3
Standard
350
18
  0
DICTIONARY
  5
19
102
{ACAD_REACTORS
330
C
102
}
330
C
100
AcDbDictionary
281
     1
  0
ACDBDICTIONARYWDFLT
  5
E
102
{ACAD_REACTORS
330
C
102
}
330
C
100
AcDbDictionary
281
     1
  3
Normal
350
F
100
AcDbDictionaryWithDefault
340
F
  0
DICTIONARY
  5
2F4
102
{ACAD_REACTORS
330
C
102
}
330
C
100
AcDbDictionary
281
     1
  3
Standard
350
2F5
  0
DICTIONARY
  5
309
102
{ACAD_REACTORS
330
C
102
}
330
C
100
AcDbDictionary
281
     1
  3
CTABLESTYLE
350
30A
  3
DIMASSOC
350
30B
  3
PROJECTNAME
350
30C
  0
XRECORD
  5
306
102
{ACAD_REACTORS
330
305
102
}
330
305
100
AcDbXrecord
280
     1
102
SHADEPLOT
 70
     0
  0
LAYOUT
  5
22
102
{ACAD_XDICTIONARY
360
301
102
}
102
{ACAD_REACTORS
330
1A
102
}
330
1A
100
AcDbPlotSettings
  1

  2
Canon LBP-1420(RYU)
  4
A4
  6
QQQQ
 40
5.873749732971191
 41
5.873747825622558
 42
5.873748779296875
 43
5.873748779296875
 44
209.9733276367187
 45
296.9259948730469
 46
38.35
 47
47.61999999999999
 48
382.313337685556
 49
151.7990114405241
140
762.178052975036
141
394.8651923374272
142
1.0
143
2.0
 70
 11428
 72
     1
 73
     1
 74
     4
  7
monochrome.ctb
 75
     0
147
0.5
148
-382.313337685556
149
-151.7990114405241
100
AcDbLayout
  1
Model
 70
     1
 71
     0
 10
0.0
 20
0.0
 11
12.0
 21
9.0
 12
0.0
 22
0.0
 32
0.0
 14
0.0
 24
0.0
 34
0.0
 15
0.0
 25
0.0
 35
0.0
146
0.0
 13
0.0
 23
0.0
 33
0.0
 16
1.0
 26
0.0
 36
0.0
 17
0.0
 27
1.0
 37
0.0
 76
     0
330
1F
  0
LAYOUT
  5
2D2
102
{ACAD_XDICTIONARY
360
303
102
}
102
{ACAD_REACTORS
330
1A
102
}
330
1A
100
AcDbPlotSettings
  1

  2
none_device
  4
none_user_media
  6

 40
4.773083209991455
 41
4.773089885711669
 42
4.857742309570312
 43
4.7730712890625
 44
209.9733276367187
 45
296.9259948730469
 46
0.0
 47
0.0
 48
0.0
 49
0.0
140
0.0
141
0.0
142
1.0
143
1.0
 70
   688
 72
     1
 73
     0
 74
     5
  7
monochrome.ctb
 75
    16
147
1.0
148
0.0
149
0.0
100
AcDbLayout
  1
ﾚｲｱｳﾄ2
 70
     1
 71
     1
 10
-4.773083209991455
 20
-4.773089885711669
 11
205.2002444267273
 21
292.1529049873352
 12
0.0
 22
0.0
 32
0.0
 14
-0.0022107197171408
 24
-0.0056219074012347
 34
-0.0015258207003583
 15
200.3467194242936
 25
287.3876809325698
 35
0.0000000349246037
146
0.0
 13
0.0
 23
0.0
 33
0.0
 16
1.0
 26
0.0
 36
0.0
 17
0.0
 27
1.0
 37
0.0
 76
     0
330
2D1
331
1391
  0
MLINESTYLE
  5
18
102
{ACAD_REACTORS
330
17
102
}
330
17
100
AcDbMlineStyle
  2
STANDARD
 70
     0
  3

 62
   256
 51
90.0
 52
90.0
 71
     2
 49
0.5
 62
   256
  6
BYLAYER
 49
-0.5
 62
   256
  6
BYLAYER
  0
ACDBPLACEHOLDER
  5
F
102
{ACAD_REACTORS
330
E
102
}
330
E
  0
ACAD_PROXY_OBJECT
  5
2F5
102
{ACAD_REACTORS
330
2F4
102
}
330
2F4
100
AcDbProxyObject
 90
      499
 91
      503
 95
   655383
 70
     0
 93
     1841
310
4214DD185B99185C9928000000000000F83F0000000000003E0FC00000000000004901028000000C1008070000C3001FDFF8000000C1003FBFF000000182007F7FE00000030400FEFFC00000060801FDFF8000000C1003FBFF000000182000000000000000C2020B0000001820100E000186003FBFF000000182007F7FE000
310
00030400FEFFC00000060801FDFF8000000C1003FBFF000000182007F7FE0000003040000000000000012404160000003040201C00030C007F7FE00000030400FEFFC00000060801FDFF8000000C1003FBFF000000182007F7FE00000030400FEFFC00000060804D
340
11
340
11
340
11
 94
        0
  0
DICTIONARYVAR
  5
30A
102
{ACAD_REACTORS
330
309
102
}
330
309
100
DictionaryVariables
280
     0
  1
STANDARD
  0
DICTIONARYVAR
  5
30B
102
{ACAD_REACTORS
330
309
102
}
330
309
100
DictionaryVariables
280
     0
  1
1
  0
DICTIONARYVAR
  5
30C
102
{ACAD_REACTORS
330
309
102
}
330
309
100
DictionaryVariables
280
     0
  1

  0
DICTIONARY
  5
301
330
22
100
AcDbDictionary
280
     1
281
     1
  3
ACAD_XREC_ROUNDTRIP
360
302
  0
DICTIONARY
  5
303
330
2D2
100
AcDbDictionary
280
     1
281
     1
  3
ACAD_XREC_ROUNDTRIP
360
304
  0
XRECORD
  5
302
102
{ACAD_REACTORS
330
301
102
}
330
301
100
AcDbXrecord
280
     1
102
SHADEPLOT
 70
     0
102
SHADEPLOTRESLEVEL
 70
     2
102
SHADEPLOTCUSTOMDPI
 70
   300
  0
XRECORD
  5
304
102
{ACAD_REACTORS
330
303
102
}
330
303
100
AcDbXrecord
280
     1
102
SHADEPLOT
 70
     0
102
SHADEPLOTRESLEVEL
 70
     2
102
SHADEPLOTCUSTOMDPI
 70
   300
  0
ENDSEC
  0
EOF
