  0
SECTION
  2
HEADER
  9
$ACADVER
  1
AC1015
  9
$ACADMAINTVER
 70
    10
  9
$DWGCODEPAGE
  3
ANSI_932
  9
$INSBASE
 10
165.9569808209453
 20
207.9513436970723
 30
0.0
  9
$EXTMIN
 10
484.1190283839069
 20
356.3032366600028
 30
0.0
  9
$EXTMAX
 10
567.0520564142367
 20
467.0477691272192
 30
0.0
  9
$LIMMIN
 10
0.0
 20
0.0
  9
$LIMMAX
 10
420.0
 20
297.0
  9
$ORTHOMODE
 70
     1
  9
$REGENMODE
 70
     1
  9
$FILLMODE
 70
     1
  9
$QTEXTMODE
 70
     0
  9
$MIRRTEXT
 70
     1
  9
$LTSCALE
 40
1.0
  9
$ATTMODE
 70
     1
  9
$TEXTSIZE
 40
2.5
  9
$TRACEWID
 40
1.0
  9
$TEXTSTYLE
  7
STANDARD
  9
$CLAYER
  8
0
  9
$CELTYPE
  6
BYLAYER
  9
$CECOLOR
 62
   256
  9
$CELTSCALE
 40
1.0
  9
$DISPSILH
 70
     0
  9
$DIMSCALE
 40
1.0
  9
$DIMASZ
 40
1.5
  9
$DIMEXO
 40
1.0
  9
$DIMDLI
 40
0.38
  9
$DIMRND
 40
0.0
  9
$DIMDLE
 40
0.0
  9
$DIMEXE
 40
2.0
  9
$DIMTP
 40
0.0
  9
$DIMTM
 40
0.0
  9
$DIMTXT
 40
1.5
  9
$DIMCEN
 40
0.09
  9
$DIMTSZ
 40
0.0
  9
$DIMTOL
 70
     0
  9
$DIMLIM
 70
     0
  9
$DIMTIH
 70
     0
  9
$DIMTOH
 70
     0
  9
$DIMSE1
 70
     0
  9
$DIMSE2
 70
     0
  9
$DIMTAD
 70
     1
  9
$DIMZIN
 70
     0
  9
$DIMBLK
  1

  9
$DIMASO
 70
     1
  9
$DIMSHO
 70
     1
  9
$DIMPOST
  1

  9
$DIMAPOST
  1

  9
$DIMALT
 70
     0
  9
$DIMALTD
 70
     2
  9
$DIMALTF
 40
25.4
  9
$DIMLFAC
 40
1.0
  9
$DIMTOFL
 70
     0
  9
$DIMTVP
 40
0.0
  9
$DIMTIX
 70
     0
  9
$DIMSOXD
 70
     0
  9
$DIMSAH
 70
     0
  9
$DIMBLK1
  1

  9
$DIMBLK2
  1

  9
$DIMSTYLE
  2
STANDARD
  9
$DIMCLRD
 70
     0
  9
$DIMCLRE
 70
     0
  9
$DIMCLRT
 70
     0
  9
$DIMTFAC
 40
1.0
  9
$DIMGAP
 40
1.0
  9
$DIMJUST
 70
     0
  9
$DIMSD1
 70
     0
  9
$DIMSD2
 70
     0
  9
$DIMTOLJ
 70
     1
  9
$DIMTZIN
 70
     0
  9
$DIMALTZ
 70
     0
  9
$DIMALTTZ
 70
     0
  9
$DIMUPT
 70
     0
  9
$DIMDEC
 70
     1
  9
$DIMTDEC
 70
     1
  9
$DIMALTU
 70
     2
  9
$DIMALTTD
 70
     2
  9
$DIMTXSTY
  7
STANDARD
  9
$DIMAUNIT
 70
     0
  9
$DIMADEC
 70
     0
  9
$DIMALTRND
 40
0.0
  9
$DIMAZIN
 70
     0
  9
$DIMDSEP
 70
    46
  9
$DIMATFIT
 70
     3
  9
$DIMFRAC
 70
     0
  9
$DIMLDRBLK
  1

  9
$DIMLUNIT
 70
     2
  9
$DIMLWD
 70
    -2
  9
$DIMLWE
 70
    -2
  9
$DIMTMOVE
 70
     0
  9
$LUNITS
 70
     2
  9
$LUPREC
 70
     4
  9
$SKETCHINC
 40
1.0
  9
$FILLETRAD
 40
2.0
  9
$AUNITS
 70
     0
  9
$AUPREC
 70
     0
  9
$MENU
  1
.
  9
$ELEVATION
 40
0.0
  9
$PELEVATION
 40
0.0
  9
$THICKNESS
 40
0.0
  9
$LIMCHECK
 70
     0
  9
$CHAMFERA
 40
10.0
  9
$CHAMFERB
 40
10.0
  9
$CHAMFERC
 40
20.0
  9
$CHAMFERD
 40
0.0
  9
$SKPOLY
 70
     0
  9
$TDCREATE
 40
2453046.352522453
  9
$TDUCREATE
 40
2453045.977522454
  9
$TDUPDATE
 40
2458956.606869016
  9
$TDUUPDATE
 40
2458956.231869016
  9
$TDINDWG
 40
0.8254888310
  9
$TDUSRTIMER
 40
0.8254876736
  9
$USRTIMER
 70
     1
  9
$ANGBASE
 50
0.0
  9
$ANGDIR
 70
     0
  9
$PDMODE
 70
     0
  9
$PDSIZE
 40
0.0
  9
$PLINEWID
 40
0.0
  9
$SPLFRAME
 70
     0
  9
$SPLINETYPE
 70
     6
  9
$SPLINESEGS
 70
     8
  9
$HANDSEED
  5
1709
  9
$SURFTAB1
 70
     6
  9
$SURFTAB2
 70
     6
  9
$SURFTYPE
 70
     6
  9
$SURFU
 70
     6
  9
$SURFV
 70
     6
  9
$UCSBASE
  2

  9
$UCSNAME
  2

  9
$UCSORG
 10
0.0
 20
0.0
 30
0.0
  9
$UCSXDIR
 10
1.0
 20
0.0
 30
0.0
  9
$UCSYDIR
 10
0.0
 20
1.0
 30
0.0
  9
$UCSORTHOREF
  2

  9
$UCSORTHOVIEW
 70
     0
  9
$UCSORGTOP
 10
0.0
 20
0.0
 30
0.0
  9
$UCSORGBOTTOM
 10
0.0
 20
0.0
 30
0.0
  9
$UCSORGLEFT
 10
0.0
 20
0.0
 30
0.0
  9
$UCSORGRIGHT
 10
0.0
 20
0.0
 30
0.0
  9
$UCSORGFRONT
 10
0.0
 20
0.0
 30
0.0
  9
$UCSORGBACK
 10
0.0
 20
0.0
 30
0.0
  9
$PUCSBASE
  2

  9
$PUCSNAME
  2

  9
$PUCSORG
 10
0.0
 20
0.0
 30
0.0
  9
$PUCSXDIR
 10
1.0
 20
0.0
 30
0.0
  9
$PUCSYDIR
 10
0.0
 20
1.0
 30
0.0
  9
$PUCSORTHOREF
  2

  9
$PUCSORTHOVIEW
 70
     0
  9
$PUCSORGTOP
 10
0.0
 20
0.0
 30
0.0
  9
$PUCSORGBOTTOM
 10
0.0
 20
0.0
 30
0.0
  9
$PUCSORGLEFT
 10
0.0
 20
0.0
 30
0.0
  9
$PUCSORGRIGHT
 10
0.0
 20
0.0
 30
0.0
  9
$PUCSORGFRONT
 10
0.0
 20
0.0
 30
0.0
  9
$PUCSORGBACK
 10
0.0
 20
0.0
 30
0.0
  9
$USERI1
 70
     0
  9
$USERI2
 70
     0
  9
$USERI3
 70
     0
  9
$USERI4
 70
     0
  9
$USERI5
 70
     0
  9
$USERR1
 40
0.0
  9
$USERR2
 40
0.0
  9
$USERR3
 40
0.0
  9
$USERR4
 40
0.0
  9
$USERR5
 40
0.0
  9
$WORLDVIEW
 70
     1
  9
$SHADEDGE
 70
     3
  9
$SHADEDIF
 70
    70
  9
$TILEMODE
 70
     1
  9
$MAXACTVP
 70
    64
  9
$PINSBASE
 10
0.0
 20
0.0
 30
0.0
  9
$PLIMCHECK
 70
     0
  9
$PEXTMIN
 10
28.52208261489868
 20
19.88608212471007
 30
0.0
  9
$PEXTMAX
 10
256.6987435340881
 20
178.9747391223905
 30
0.0
  9
$PLIMMIN
 10
-5.873748779296875
 20
-5.535083293914794
  9
$PLIMMAX
 10
291.1369018554686
 20
204.4805874824524
  9
$UNITMODE
 70
     0
  9
$VISRETAIN
 70
     1
  9
$PLINEGEN
 70
     0
  9
$PSLTSCALE
 70
     1
  9
$TREEDEPTH
 70
  3020
  9
$CMLSTYLE
  2
STANDARD
  9
$CMLJUST
 70
     0
  9
$CMLSCALE
 40
20.0
  9
$PROXYGRAPHICS
 70
     1
  9
$MEASUREMENT
 70
     1
  9
$CELWEIGHT
370
    -1
  9
$ENDCAPS
280
     0
  9
$JOINSTYLE
280
     0
  9
$LWDISPLAY
290
     0
  9
$INSUNITS
 70
     4
  9
$HYPERLINKBASE
  1

  9
$STYLESHEET
  1

  9
$XEDIT
290
     1
  9
$CEPSNTYPE
380
     0
  9
$PSTYLEMODE
290
     1
  9
$FINGERPRINTGUID
  2
{045722B2-35C6-410B-8BE8-2ADD7D1A9532}
  9
$VERSIONGUID
  2
{14AC9014-538F-4998-8121-F1F3A217E2B4}
  9
$EXTNAMES
290
     1
  9
$PSVPSCALE
 40
0.0
  9
$OLESTARTUP
290
     0
  0
ENDSEC
  0
SECTION
  2
CLASSES
  0
CLASS
  1
ACDBDICTIONARYWDFLT
  2
AcDbDictionaryWithDefault
  3
AutoCAD 2000
 90
        0
280
     0
281
     0
  0
CLASS
  1
ACDBPLACEHOLDER
  2
AcDbPlaceHolder
  3
AutoCAD 2000
 90
        0
280
     0
281
     0
  0
CLASS
  1
LAYOUT
  2
AcDbLayout
  3
AutoCAD 2000
 90
        0
280
     0
281
     0
  0
CLASS
  1
DICTIONARYVAR
  2
AcDbDictionaryVar
  3
AutoCAD 2000
 90
        0
280
     0
281
     0
  0
CLASS
  1
MATERIAL
  2
AcDbMaterial
  3
ObjectDBX Classes
 90
     1153
280
     0
281
     0
  0
CLASS
  1
VISUALSTYLE
  2
AcDbVisualStyle
  3
ObjectDBX Classes
 90
     4095
280
     0
281
     0
  0
CLASS
  1
TABLESTYLE
  2
AcDbTableStyle
  3
ObjectDBX Classes
 90
     4095
280
     0
281
     0
  0
CLASS
  1
SCALE
  2
AcDbScale
  3
ObjectDBX Classes
 90
     1153
280
     0
281
     0
  0
CLASS
  1
MLEADERSTYLE
  2
AcDbMLeaderStyle
  3
ACDB_MLEADERSTYLE_CLASS
 90
     4095
280
     0
281
     0
  0
CLASS
  1
SORTENTSTABLE
  2
AcDbSortentsTable
  3
AutoCAD 2000
 90
        0
280
     0
281
     0
  0
CLASS
  1
SOLID_BACKGROUND
  2
AcDbSolidBackground
  3
SCENEOE
 90
    36863
280
     0
281
     0
  0
CLASS
  1
NPOCOLLECTION
  2
AcDbImpNonPersistentObjectsCollection
  3
ObjectDBX Classes
 90
    33921
280
     0
281
     0
  0
CLASS
  1
CELLSTYLEMAP
  2
AcDbCellStyleMap
  3
ObjectDBX Classes
 90
     1152
280
     0
281
     0
  0
ENDSEC
  0
SECTION
  2
TABLES
  0
TABLE
  2
VPORT
  5
68A
330
0
100
AcDbSymbolTable
 70
     2
  0
VPORT
  5
1708
330
68A
100
AcDbSymbolTableRecord
100
AcDbViewportTableRecord
  2
*Active
 70
     0
 10
0.0
 20
0.0
 11
1.0
 21
1.0
 12
75.9476789472206
 22
-19.7093608601998
 13
0.0
 23
0.0
 14
10.0
 24
10.0
 15
10.0
 25
10.0
 16
0.0
 26
0.0
 36
37.71546700554135
 17
460.1298776540685
 27
428.0414147457366
 37
0.0
 40
158.7389420107
 41
2.190023752969121
 42
50.0
 43
0.0
 44
0.0
 50
0.0
 51
0.0
 71
     0
 72
   100
 73
     1
 74
     3
 75
     0
 76
     0
 77
     0
 78
     0
281
     0
 65
     1
110
0.0
120
0.0
130
0.0
111
1.0
121
0.0
131
0.0
112
0.0
122
1.0
132
0.0
 79
     0
146
0.0
  0
ENDTAB
  0
TABLE
  2
LTYPE
  5
685
330
0
100
AcDbSymbolTable
 70
     3
  0
LTYPE
  5
686
330
685
100
AcDbSymbolTableRecord
100
AcDbLinetypeTableRecord
  2
BYBLOCK
 70
     0
  3

 72
    65
 73
     0
 40
0.0
  0
LTYPE
  5
687
330
685
100
AcDbSymbolTableRecord
100
AcDbLinetypeTableRecord
  2
BYLAYER
 70
     0
  3

 72
    65
 73
     0
 40
0.0
  0
LTYPE
  5
8
330
685
100
AcDbSymbolTableRecord
100
AcDbLinetypeTableRecord
  2
CONTINUOUS
 70
     0
  3
Solid line
 72
    65
 73
     0
 40
0.0
  0
LTYPE
  5
3C
330
685
100
AcDbSymbolTableRecord
100
AcDbLinetypeTableRecord
  2
CENTER
 70
     0
  3
____ _ ____ _ ____ _ ____ _ ____ _ ____ _ ____
 72
    65
 73
     4
 40
2.0
 49
1.25
 74
     0
 49
-0.25
 74
     0
 49
0.25
 74
     0
 49
-0.25
 74
     0
  0
LTYPE
  5
2BD
330
685
100
AcDbSymbolTableRecord
100
AcDbLinetypeTableRecord
  2
C6CONTINUOUS
 70
     0
  3
----------------
 72
    65
 73
     0
 40
0.0
  0
ENDTAB
  0
TABLE
  2
LAYER
  5
67F
102
{ACAD_XDICTIONARY
360
680
102
}
330
0
100
AcDbSymbolTable
 70
     3
  0
LAYER
  5
4
102
{ACAD_XDICTIONARY
360
D96
102
}
330
67F
100
AcDbSymbolTableRecord
100
AcDbLayerTableRecord
  2
0
 70
     0
 62
     7
  6
CONTINUOUS
370
    -3
390
5
  0
LAYER
  5
18
330
67F
100
AcDbSymbolTableRecord
100
AcDbLayerTableRecord
  2
DEFPOINTS
 70
     0
 62
     7
  6
CONTINUOUS
290
     0
370
    -3
390
5
  0
LAYER
  5
73
102
{ACAD_XDICTIONARY
360
D98
102
}
330
67F
100
AcDbSymbolTableRecord
100
AcDbLayerTableRecord
  2
センタ_
 70
     0
 62
     1
  6
CENTER
370
    -3
390
5
  0
ENDTAB
  0
TABLE
  2
STYLE
  5
683
330
0
100
AcDbSymbolTable
 70
     1
  0
STYLE
  5
A
330
683
100
AcDbSymbolTableRecord
100
AcDbTextStyleTableRecord
  2
STANDARD
 70
     0
 40
0.0
 41
1.0
 50
0.0
 71
     0
 42
2.5
  3
txt
  4

  0
ENDTAB
  0
TABLE
  2
VIEW
  5
688
330
0
100
AcDbSymbolTable
 70
     0
  0
ENDTAB
  0
TABLE
  2
UCS
  5
689
330
0
100
AcDbSymbolTable
 70
     0
  0
ENDTAB
  0
TABLE
  2
APPID
  5
68C
330
0
100
AcDbSymbolTable
 70
    10
  0
APPID
  5
85
330
68C
100
AcDbSymbolTableRecord
100
AcDbRegAppTableRecord
  2
ACAD
 70
     0
  0
APPID
  5
8BF
330
68C
100
AcDbSymbolTableRecord
100
AcDbRegAppTableRecord
  2
CONTENTBLOCKICON
 70
     0
  0
APPID
  5
983
330
68C
100
AcDbSymbolTableRecord
100
AcDbRegAppTableRecord
  2
ACAD_NAV_VCDISPLAY
 70
     0
  0
APPID
  5
9A6
330
68C
100
AcDbSymbolTableRecord
100
AcDbRegAppTableRecord
  2
ACAD_EXEMPT_FROM_CAD_STANDARDS
 70
     0
  0
APPID
  5
A44
330
68C
100
AcDbSymbolTableRecord
100
AcDbRegAppTableRecord
  2
ACAD_DSTYLE_DIMJAG
 70
     0
  0
APPID
  5
A45
330
68C
100
AcDbSymbolTableRecord
100
AcDbRegAppTableRecord
  2
ACAD_DSTYLE_DIMTALN
 70
     0
  0
APPID
  5
AC9
330
68C
100
AcDbSymbolTableRecord
100
AcDbRegAppTableRecord
  2
ACAD_PSEXT
 70
     0
  0
APPID
  5
D84
330
68C
100
AcDbSymbolTableRecord
100
AcDbRegAppTableRecord
  2
GradientColor1ACI
 70
     0
  0
APPID
  5
D85
330
68C
100
AcDbSymbolTableRecord
100
AcDbRegAppTableRecord
  2
GradientColor2ACI
 70
     0
  0
APPID
  5
E1A
330
68C
100
AcDbSymbolTableRecord
100
AcDbRegAppTableRecord
  2
ACAD_MLEADERVER
 70
     0
  0
ENDTAB
  0
TABLE
  2
DIMSTYLE
  5
68D
330
0
100
AcDbSymbolTable
 70
     3
100
AcDbDimStyleTable
 71
     2
340
9
340
84
  0
DIMSTYLE
105
9
102
{ACAD_REACTORS
330
101D
330
1033
330
1229
330
12AC
330
12CB
330
149D
330
14CF
330
1528
330
1563
102
}
330
68D
100
AcDbSymbolTableRecord
100
AcDbDimStyleTableRecord
  2
STANDARD
 70
     0
 41
1.5
 42
1.0
 44
2.0
 73
     0
 74
     0
 77
     1
140
1.5
147
1.0
271
     1
272
     1
340
A
  0
DIMSTYLE
105
68E
330
68D
100
AcDbSymbolTableRecord
100
AcDbDimStyleTableRecord
  2
ｺﾋ___-_STANDARD
 70
     0
 41
2.0
 42
1.0
 44
3.0
 73
     0
 74
     0
 77
     1
140
3.0
147
1.0
271
     1
272
     1
340
A
  0
DIMSTYLE
105
84
330
68D
100
AcDbSymbolTableRecord
100
AcDbDimStyleTableRecord
  2
ｺﾋ___2__-_STANDARD
 70
     0
 41
2.0
 42
1.0
 44
3.0
 77
     1
140
3.0
147
1.0
271
     1
272
     1
340
A
1001
ACAD_DSTYLE_DIMJAG
1070
   388
1040
1.5
1001
ACAD_DSTYLE_DIMTALN
1070
   392
1070
     0
  0
ENDTAB
  0
TABLE
  2
BLOCK_RECORD
  5
1
330
0
100
AcDbSymbolTable
 70
    47
  0
BLOCK_RECORD
  5
2
102
{ACAD_XDICTIONARY
360
8BD
102
}
330
1
100
AcDbSymbolTableRecord
100
AcDbBlockTableRecord
  2
*MODEL_SPACE
340
90E
  0
BLOCK_RECORD
  5
67B
102
{ACAD_XDICTIONARY
360
8C1
102
}
330
1
100
AcDbSymbolTableRecord
100
AcDbBlockTableRecord
  2
*PAPER_SPACE
340
90F
  0
BLOCK_RECORD
  5
B
330
1
100
AcDbSymbolTableRecord
100
AcDbBlockTableRecord
  2
_DOT
340
0
  0
BLOCK_RECORD
  5
4B
330
1
100
AcDbSymbolTableRecord
100
AcDbBlockTableRecord
  2
*D1
340
0
  0
BLOCK_RECORD
  5
3E
330
1
100
AcDbSymbolTableRecord
100
AcDbBlockTableRecord
  2
*D2
340
0
  0
BLOCK_RECORD
  5
34B
330
1
100
AcDbSymbolTableRecord
100
AcDbBlockTableRecord
  2
*D3
340
0
  0
BLOCK_RECORD
  5
2BB
330
1
100
AcDbSymbolTableRecord
100
AcDbBlockTableRecord
  2
G
340
0
310
28000000200000002000000001000800000000000004000000000000000000000000000000000000000000004000000080000000FF000000002000004020000080200000FF200000004000004040000080400000FF400000006000004060000080600000FF600000008000004080000080800000FF80000000A0000040A000
310
0080A00000FFA0000000C0000040C0000080C00000FFC0000000FF000040FF000080FF0000FFFF0000000020004000200080002000FF002000002020004020200080202000FF202000004020004040200080402000FF402000006020004060200080602000FF602000008020004080200080802000FF80200000A0200040A0
310
200080A02000FFA0200000C0200040C0200080C02000FFC0200000FF200040FF200080FF2000FFFF2000000040004000400080004000FF004000002040004020400080204000FF204000004040004040400080404000FF404000006040004060400080604000FF604000008040004080400080804000FF80400000A0400040
310
A0400080A04000FFA0400000C0400040C0400080C04000FFC0400000FF400040FF400080FF4000FFFF4000000060004000600080006000FF006000002060004020600080206000FF206000004060004040600080406000FF406000006060004060600080606000FF606000008060004080600080806000FF80600000A06000
310
40A0600080A06000FFA0600000C0600040C0600080C06000FFC0600000FF600040FF600080FF6000FFFF6000000080004000800080008000FF008000002080004020800080208000FF208000004080004040800080408000FF408000006080004060800080608000FF608000008080004080800080808000FF80800000A080
310
0040A0800080A08000FFA0800000C0800040C0800080C08000FFC0800000FF800040FF800080FF8000FFFF80000000A0004000A0008000A000FF00A0000020A0004020A0008020A000FF20A0000040A0004040A0008040A000FF40A0000060A0004060A0008060A000FF60A0000080A0004080A0008080A000FF80A00000A0
310
A00040A0A00080A0A000FFA0A00000C0A00040C0A00080C0A000FFC0A00000FFA00040FFA00080FFA000FFFFA0000000C0004000C0008000C000FF00C0000020C0004020C0008020C000FF20C0000040C0004040C0008040C000FF40C0000060C0004060C0008060C000FF60C0000080C0004080C0008080C000FF80C00000
310
A0C00040A0C00080A0C000FFA0C00000C0C00040C0C00080C0C000FFC0C00000FFC00040FFC00080FFC000FFFFC0000000FF004000FF008000FF00FF00FF000020FF004020FF008020FF00FF20FF000040FF004040FF008040FF00FF40FF000060FF004060FF008060FF00FF60FF000080FF004080FF008080FF00FF80FF00
310
00A0FF0040A0FF0080A0FF00FFA0FF0000C0FF0040C0FF0080C0FF00FFC0FF0000FFFF0040FFFF0080FFFF00FFFFFF00FFFFFFFFFFFFFFFFFFFFFFFFFFFFFFFFFFFFFFFFFFFFFFFFFFFFFFFFFFFFFFFFFFFFFFFFFFFFFFFFFFFF000000FFFFFFFFFFFFFFFFFFFFFFFFFFFFFFFFFFFFFFFFFFFFFFFFFFFFFFFFFF00FF000000
310
0000FFFFFFFFFFFFFFFFFFFFFFFFFFFFFFFFFFFFFFFFFFFFFFFFFF00FF00FFFFFF00FFFFFFFFFFFFFFFFFFFFFFFFFFFFFFFFFFFFFFFFFFFFFFFFFF00FF0000000000FFFF000000FFFFFFFFFFFFFFFFFFFFFFFFFFFFFFFFFFFFFFFF00000000000000000000FF00FFFFFFFFFFFFFFFFFFFFFFFFFFFFFFFFFFFFFFFF00FF0000
310
000000000000FF00FFFFFFFFFFFFFFFFFFFFFFFFFFFFFFFFFFFFFFFF00FF00FFFFFFFFFFFF00FF00FFFFFFFFFFFFFFFFFFFFFFFFFFFFFFFFFFFFFFFF00FF0000000000000000FF00FFFFFFFFFFFFFFFFFFFFFFFFFFFFFFFFFFFFFFFF00FF00FFFFFFFFFFFF00FF00FFFFFFFFFFFFFFFFFFFFFFFFFFFFFFFFFFFFFFFF00FF00
310
FFFFFFFFFFFF00FF00FFFFFFFFFFFFFFFFFFFFFFFFFFFFFFFFFFFFFFFF00FF00FFFFFFFFFFFF00FF00FFFFFFFFFFFFFFFFFFFFFFFFFFFFFFFFFFFFFFFF00FF00FFFFFFFFFFFF00FF00FFFFFFFFFFFFFFFFFFFFFFFFFFFFFFFFFFFFFFFF00FF0000000000000000FF00FFFFFFFFFFFFFFFFFFFFFFFFFFFFFFFFFFFFFFFF00FF
310
00FFFFFFFFFFFF00FF00FFFFFFFFFFFFFFFFFFFFFFFFFFFFFFFFFFFFFFFF00FF00000000000000000000FFFFFFFFFFFFFFFFFFFFFFFFFFFFFFFFFFFFFFFF00FF00FFFFFFFFFFFFFFFF00FFFFFFFFFFFFFFFFFFFFFFFFFFFFFFFFFFFFFFFF00FF00FFFFFFFFFFFFFFFF00FFFFFFFFFFFFFFFFFFFFFFFFFFFFFFFFFFFFFFFF00
310
FF00FFFFFFFFFFFFFFFF00FFFFFFFFFFFFFFFFFFFFFFFFFFFFFFFFFFFFFFFF00FF00FFFFFFFFFFFFFFFF00FFFFFFFFFFFFFFFFFFFFFFFFFFFFFFFFFFFFFFFF00FF00FFFFFFFFFFFFFFFF00FFFFFFFFFFFFFFFFFFFFFFFFFFFFFFFFFFFFFFFF00FF00FFFFFFFFFFFFFFFF00FFFFFFFFFFFFFFFFFFFFFFFFFFFFFFFFFFFFFFFF
310
00FF00FFFFFFFFFFFFFFFF00FFFFFFFFFFFFFFFFFFFFFFFFFFFFFFFFFFFFFFFF00FF00FFFFFFFFFFFFFFFF00FFFFFFFFFFFFFFFFFFFFFFFFFFFFFFFFFFFFFFFF00FF00FFFFFFFFFFFFFFFF00FFFFFFFFFFFFFFFFFFFFFFFFFFFFFFFFFFFFFFFF00FF00000000000000000000FFFFFFFFFFFFFFFFFFFFFFFFFFFFFFFFFFFFFF
310
FF00FF00FFFFFFFFFFFF00FF00FFFFFFFFFFFFFFFFFFFFFFFFFFFFFFFFFFFFFFFF00FF0000000000FFFF000000FFFFFFFFFFFFFFFFFFFFFFFFFFFFFFFFFFFFFFFF00FF00FFFFFF00FFFFFFFFFFFFFFFFFFFFFFFFFFFFFFFFFFFFFFFFFFFFFFFFFF00FF0000000000FFFFFFFFFFFFFFFFFFFFFFFFFFFFFFFFFFFFFFFFFFFFFF
310
FFFF000000FFFFFFFFFFFFFFFFFFFFFFFFFFFFFFFFFFFFFFFFFFFFFFFFFFFFFFFFFFFFFFFFFFFFFFFFFFFFFFFFFFFFFFFFFFFFFFFFFFFFFF
1001
ACAD
1000
DesignCenter Data
1002
{
1070
     1
1070
     4
1002
}
  0
BLOCK_RECORD
  5
22
330
1
100
AcDbSymbolTableRecord
100
AcDbBlockTableRecord
  2
*D5
340
0
  0
BLOCK_RECORD
  5
2F
330
1
100
AcDbSymbolTableRecord
100
AcDbBlockTableRecord
  2
*D6
340
0
  0
BLOCK_RECORD
  5
617
330
1
100
AcDbSymbolTableRecord
100
AcDbBlockTableRecord
  2
1
340
0
310
28000000200000002000000001000800000000000004000000000000000000000000000000000000000000004000000080000000FF000000002000004020000080200000FF200000004000004040000080400000FF400000006000004060000080600000FF600000008000004080000080800000FF80000000A0000040A000
310
0080A00000FFA0000000C0000040C0000080C00000FFC0000000FF000040FF000080FF0000FFFF0000000020004000200080002000FF002000002020004020200080202000FF202000004020004040200080402000FF402000006020004060200080602000FF602000008020004080200080802000FF80200000A0200040A0
310
200080A02000FFA0200000C0200040C0200080C02000FFC0200000FF200040FF200080FF2000FFFF2000000040004000400080004000FF004000002040004020400080204000FF204000004040004040400080404000FF404000006040004060400080604000FF604000008040004080400080804000FF80400000A0400040
310
A0400080A04000FFA0400000C0400040C0400080C04000FFC0400000FF400040FF400080FF4000FFFF4000000060004000600080006000FF006000002060004020600080206000FF206000004060004040600080406000FF406000006060004060600080606000FF606000008060004080600080806000FF80600000A06000
310
40A0600080A06000FFA0600000C0600040C0600080C06000FFC0600000FF600040FF600080FF6000FFFF6000000080004000800080008000FF008000002080004020800080208000FF208000004080004040800080408000FF408000006080004060800080608000FF608000008080004080800080808000FF80800000A080
310
0040A0800080A08000FFA0800000C0800040C0800080C08000FFC0800000FF800040FF800080FF8000FFFF80000000A0004000A0008000A000FF00A0000020A0004020A0008020A000FF20A0000040A0004040A0008040A000FF40A0000060A0004060A0008060A000FF60A0000080A0004080A0008080A000FF80A00000A0
310
A00040A0A00080A0A000FFA0A00000C0A00040C0A00080C0A000FFC0A00000FFA00040FFA00080FFA000FFFFA0000000C0004000C0008000C000FF00C0000020C0004020C0008020C000FF20C0000040C0004040C0008040C000FF40C0000060C0004060C0008060C000FF60C0000080C0004080C0008080C000FF80C00000
310
A0C00040A0C00080A0C000FFA0C00000C0C00040C0C00080C0C000FFC0C00000FFC00040FFC00080FFC000FFFFC0000000FF004000FF008000FF00FF00FF000020FF004020FF008020FF00FF20FF000040FF004040FF008040FF00FF40FF000060FF004060FF008060FF00FF60FF000080FF004080FF008080FF00FF80FF00
310
00A0FF0040A0FF0080A0FF00FFA0FF0000C0FF0040C0FF0080C0FF00FFC0FF0000FFFF0040FFFF0080FFFF00FFFFFF00FFFFFFFFFFFFFFFFFFFFFFFFFFFFFFFFFFFFFFFFFFFFFFFFFFFFFFFFFFFFFFFFFFFFFFFFFFFFFFFFFFFF00000000000000000000FFFFFFFFFFFFFFFFFFFFFFFFFFFFFFFFFFFFFFFFFFFF00FFFFFFFF
310
000000000000FFFFFFFFFFFFFFFFFFFFFFFFFFFFFFFFFFFFFFFFFF0000000000000000000000FFFFFFFFFFFFFFFFFFFFFFFFFFFFFFFFFFFFFFFFFF0000000000000000000000FFFFFFFFFFFFFFFFFFFFFFFFFFFFFFFFFFFFFFFFFF0000000000000000FFFF00FFFFFFFFFFFFFFFFFFFFFFFFFFFFFFFFFFFFFFFFFF00FFFFFF
310
FF000000000000FFFFFFFFFFFFFFFFFFFFFFFFFFFFFFFFFFFFFFFFFF0000FFFFFF00000000FF00FFFFFFFFFFFFFFFFFFFFFFFFFFFFFFFFFFFFFFFFFFFFFF00FFFFFFFFFF000000FFFFFFFFFFFFFFFFFFFFFFFFFFFFFFFFFFFFFFFFFFFFFF000000000000FFFF00FFFFFFFFFFFFFFFFFFFFFFFFFFFFFFFFFFFFFFFFFFFFFF00
310
000000000000FF00FFFFFFFFFFFFFFFFFFFFFFFFFFFFFFFFFFFFFFFFFFFFFFFFFFFFFFFFFF000000FFFFFFFFFFFFFFFFFFFFFFFFFFFFFFFFFFFFFFFFFFFFFFFFFFFFFFFFFF000000FFFFFFFFFFFFFFFFFFFFFFFFFFFFFFFFFFFFFFFFFFFFFFFFFFFFFFFFFF000000FFFFFFFFFFFFFFFFFFFFFFFFFFFFFFFFFFFFFFFFFFFFFF
310
FFFFFFFFFFFF000000FFFFFFFFFFFFFFFFFFFFFFFFFFFFFFFFFFFFFFFFFFFFFFFFFFFFFFFFFF000000FFFFFFFFFFFFFFFFFFFFFFFFFFFFFFFFFFFFFFFFFFFFFFFFFFFFFFFFFF000000FFFFFFFFFFFFFFFFFFFFFFFFFFFFFFFFFFFFFFFFFFFFFFFFFFFFFFFFFF000000FFFFFFFFFFFFFFFFFFFFFFFFFFFFFFFFFFFFFFFFFFFF
310
FFFFFFFFFFFFFF00FF00FFFFFFFFFFFFFFFFFFFFFFFFFFFFFFFFFFFFFFFFFFFFFF00000000000000FF00FFFFFFFFFFFFFFFFFFFFFFFFFFFFFFFFFFFFFFFFFFFFFF000000000000000000FFFFFFFFFFFFFFFFFFFFFFFFFFFFFFFFFFFFFFFFFFFFFF000000000000000000FFFFFFFFFFFFFFFFFFFFFFFFFFFFFFFFFFFFFFFFFF
310
0000FF0000000000000000FFFFFFFFFFFFFFFFFFFFFFFFFFFFFFFFFFFFFFFFFF00000000000000FFFFFF00FFFFFFFFFFFFFFFFFFFFFFFFFFFFFFFFFFFFFFFFFF0000000000000000000000FFFFFFFFFFFFFFFFFFFFFFFFFFFFFFFFFFFFFFFFFFFFFFFFFF00000000000000FFFFFFFFFFFFFFFFFFFFFFFFFFFFFFFFFFFFFFFF
310
FFFFFFFFFF00000000000000FFFFFFFFFFFFFFFFFFFFFFFFFFFFFFFFFFFFFFFFFFFFFFFFFF00000000FFFF00FFFFFFFFFFFFFFFFFFFFFFFFFFFFFFFFFFFFFFFFFFFFFFFFFF0000000000FF00FFFFFFFFFFFFFFFFFFFFFFFFFFFFFFFFFFFFFFFFFFFFFFFFFF00000000000000FFFFFFFFFFFFFFFFFFFFFFFFFFFFFFFFFFFFFF
310
FFFFFFFFFFFFFF0000000000FFFFFFFFFFFFFFFFFFFFFFFFFFFFFFFFFFFFFFFFFFFFFFFFFFFFFFFFFFFFFFFFFFFFFFFFFFFFFFFFFFFFFFFF
1001
ACAD
1000
DesignCenter Data
1002
{
1070
     1
1070
     4
1002
}
  0
BLOCK_RECORD
  5
6B0
330
1
100
AcDbSymbolTableRecord
100
AcDbBlockTableRecord
  2
*D8
340
0
  0
BLOCK_RECORD
  5
6BC
330
1
100
AcDbSymbolTableRecord
100
AcDbBlockTableRecord
  2
*D9
340
0
  0
BLOCK_RECORD
  5
709
330
1
100
AcDbSymbolTableRecord
100
AcDbBlockTableRecord
  2
*D10
340
0
  0
BLOCK_RECORD
  5
71F
330
1
100
AcDbSymbolTableRecord
100
AcDbBlockTableRecord
  2
*D11
340
0
  0
BLOCK_RECORD
  5
735
330
1
100
AcDbSymbolTableRecord
100
AcDbBlockTableRecord
  2
*D12
340
0
  0
BLOCK_RECORD
  5
74B
330
1
100
AcDbSymbolTableRecord
100
AcDbBlockTableRecord
  2
*D13
340
0
  0
BLOCK_RECORD
  5
757
330
1
100
AcDbSymbolTableRecord
100
AcDbBlockTableRecord
  2
*D14
340
0
  0
BLOCK_RECORD
  5
763
330
1
100
AcDbSymbolTableRecord
100
AcDbBlockTableRecord
  2
*D15
340
0
  0
BLOCK_RECORD
  5
82B
330
1
100
AcDbSymbolTableRecord
100
AcDbBlockTableRecord
  2
*D16
340
0
  0
BLOCK_RECORD
  5
977
330
1
100
AcDbSymbolTableRecord
100
AcDbBlockTableRecord
  2
*D17
340
0
  0
BLOCK_RECORD
  5
9B1
330
1
100
AcDbSymbolTableRecord
100
AcDbBlockTableRecord
  2
*D18
340
0
  0
BLOCK_RECORD
  5
9BD
330
1
100
AcDbSymbolTableRecord
100
AcDbBlockTableRecord
  2
*D19
340
0
  0
BLOCK_RECORD
  5
9E7
330
1
100
AcDbSymbolTableRecord
100
AcDbBlockTableRecord
  2
*D20
340
0
  0
BLOCK_RECORD
  5
F3A
330
1
100
AcDbSymbolTableRecord
100
AcDbBlockTableRecord
  2
*D21
340
0
  0
BLOCK_RECORD
  5
F47
330
1
100
AcDbSymbolTableRecord
100
AcDbBlockTableRecord
  2
*D22
340
0
  0
BLOCK_RECORD
  5
F5D
330
1
100
AcDbSymbolTableRecord
100
AcDbBlockTableRecord
  2
*D23
340
0
  0
BLOCK_RECORD
  5
F6A
330
1
100
AcDbSymbolTableRecord
100
AcDbBlockTableRecord
  2
*D24
340
0
  0
BLOCK_RECORD
  5
F76
330
1
100
AcDbSymbolTableRecord
100
AcDbBlockTableRecord
  2
*D25
340
0
  0
BLOCK_RECORD
  5
F82
330
1
100
AcDbSymbolTableRecord
100
AcDbBlockTableRecord
  2
*D26
340
0
  0
BLOCK_RECORD
  5
FBC
330
1
100
AcDbSymbolTableRecord
100
AcDbBlockTableRecord
  2
*D27
340
0
  0
BLOCK_RECORD
  5
1011
330
1
100
AcDbSymbolTableRecord
100
AcDbBlockTableRecord
  2
*D28
340
0
  0
BLOCK_RECORD
  5
101E
330
1
100
AcDbSymbolTableRecord
100
AcDbBlockTableRecord
  2
*D29
340
0
  0
BLOCK_RECORD
  5
1034
330
1
100
AcDbSymbolTableRecord
100
AcDbBlockTableRecord
  2
*D30
340
0
  0
BLOCK_RECORD
  5
104A
330
1
100
AcDbSymbolTableRecord
100
AcDbBlockTableRecord
  2
*D31
340
0
  0
BLOCK_RECORD
  5
1130
330
1
100
AcDbSymbolTableRecord
100
AcDbBlockTableRecord
  2
*D32
340
0
  0
BLOCK_RECORD
  5
122A
330
1
100
AcDbSymbolTableRecord
100
AcDbBlockTableRecord
  2
*D33
340
0
  0
BLOCK_RECORD
  5
12AD
330
1
100
AcDbSymbolTableRecord
100
AcDbBlockTableRecord
  2
*D34
340
0
  0
BLOCK_RECORD
  5
12CC
330
1
100
AcDbSymbolTableRecord
100
AcDbBlockTableRecord
  2
*D35
340
0
  0
BLOCK_RECORD
  5
12D9
330
1
100
AcDbSymbolTableRecord
100
AcDbBlockTableRecord
  2
*D36
340
0
  0
BLOCK_RECORD
  5
13A8
330
1
100
AcDbSymbolTableRecord
100
AcDbBlockTableRecord
  2
*D37
340
0
  0
BLOCK_RECORD
  5
13C0
330
1
100
AcDbSymbolTableRecord
100
AcDbBlockTableRecord
  2
*D38
340
0
  0
BLOCK_RECORD
  5
13EC
330
1
100
AcDbSymbolTableRecord
100
AcDbBlockTableRecord
  2
*D39
340
0
  0
BLOCK_RECORD
  5
1404
330
1
100
AcDbSymbolTableRecord
100
AcDbBlockTableRecord
  2
*D40
340
0
  0
BLOCK_RECORD
  5
1412
330
1
100
AcDbSymbolTableRecord
100
AcDbBlockTableRecord
  2
*D41
340
0
  0
BLOCK_RECORD
  5
149E
330
1
100
AcDbSymbolTableRecord
100
AcDbBlockTableRecord
  2
*D42
340
0
  0
BLOCK_RECORD
  5
14D0
330
1
100
AcDbSymbolTableRecord
100
AcDbBlockTableRecord
  2
*D43
340
0
  0
BLOCK_RECORD
  5
1529
330
1
100
AcDbSymbolTableRecord
100
AcDbBlockTableRecord
  2
*D44
340
0
  0
BLOCK_RECORD
  5
1564
330
1
100
AcDbSymbolTableRecord
100
AcDbBlockTableRecord
  2
*D45
340
0
  0
BLOCK_RECORD
  5
15AD
330
1
100
AcDbSymbolTableRecord
100
AcDbBlockTableRecord
  2
*D46
340
0
  0
ENDTAB
  0
ENDSEC
  0
SECTION
  2
BLOCKS
  0
BLOCK
  5
677
330
2
100
AcDbEntity
  8
0
100
AcDbBlockBegin
  2
*MODEL_SPACE
 70
     0
 10
0.0
 20
0.0
 30
0.0
  3
*MODEL_SPACE
  1

  0
ENDBLK
  5
678
330
2
100
AcDbEntity
  8
0
100
AcDbBlockEnd
  0
BLOCK
  5
67C
330
67B
100
AcDbEntity
 67
     1
  8
0
100
AcDbBlockBegin
  2
*PAPER_SPACE
 70
     0
 10
0.0
 20
0.0
 30
0.0
  3
*PAPER_SPACE
  1

  0
ENDBLK
  5
67D
330
67B
100
AcDbEntity
 67
     1
  8
0
100
AcDbBlockEnd
  0
BLOCK
  5
E
330
B
100
AcDbEntity
  8
0
100
AcDbBlockBegin
  2
_DOT
 70
     0
 10
0.0
 20
0.0
 30
0.0
  3
_DOT
  1

  0
LWPOLYLINE
  5
C
330
B
100
AcDbEntity
  8
0
  6
ByBlock
 62
     0
100
AcDbPolyline
 90
        2
 70
     1
 43
0.5
 10
-0.25
 20
0.0
 42
1.0
 10
0.25
 20
0.0
 42
1.0
  0
LINE
  5
D
330
B
100
AcDbEntity
  8
0
  6
ByBlock
 62
     0
100
AcDbLine
 10
-0.5
 20
0.0
 30
0.0
 11
-1.0
 21
0.0
 31
0.0
  0
ENDBLK
  5
F
330
B
100
AcDbEntity
  8
0
100
AcDbBlockEnd
  0
BLOCK
  5
55
330
4B
100
AcDbEntity
  8
0
 62
     5
100
AcDbBlockBegin
  2
*D1
 70
     1
 10
0.0
 20
0.0
 30
0.0
  3
*D1
  1

  0
LINE
  5
4C
330
4B
100
AcDbEntity
  8
0
 62
     0
100
AcDbLine
 10
307.4444793447943
 20
417.3503261372866
 30
0.0
 11
307.4444793447943
 21
350.4583930959408
 31
0.0
  0
LINE
  5
4D
330
4B
100
AcDbEntity
  8
0
 62
     0
100
AcDbLine
 10
170.9569793447944
 20
367.5503261372869
 30
0.0
 11
170.9569793447944
 21
350.4583930959408
 31
0.0
  0
LINE
  5
4E
330
4B
100
AcDbEntity
  8
0
 62
     0
100
AcDbLine
 10
304.4444793447944
 20
353.4583930959407
 30
0.0
 11
173.9569793447943
 21
353.4583930959407
 31
0.0
  0
SOLID
  5
4F
330
4B
100
AcDbEntity
  8
0
 62
     0
100
AcDbTrace
 10
304.4444793447944
 20
353.9583930959407
 30
0.0
 11
304.4444793447944
 21
352.9583930959407
 31
0.0
 12
307.4444793447943
 22
353.4583930959407
 32
0.0
 13
307.4444793447943
 23
353.4583930959407
 33
0.0
  0
SOLID
  5
50
330
4B
100
AcDbEntity
  8
0
 62
     0
100
AcDbTrace
 10
173.9569793447943
 20
353.9583930959407
 30
0.0
 11
173.9569793447943
 21
352.9583930959407
 31
0.0
 12
170.9569793447944
 22
353.4583930959407
 32
0.0
 13
170.9569793447944
 23
353.4583930959407
 33
0.0
  0
MTEXT
  5
51
330
4B
100
AcDbEntity
  8
0
 62
     0
100
AcDbMText
 10
238.6180579253919
 20
355.9583930959407
 30
0.0
 40
3.0
 41
0.0
 71
     5
 72
     1
  1
\A1;136.5
 73
     1
 44
1.0
1001
ACAD
1000
MTEXTBEGIN
1070
    73
1070
     1
1070
    44
1040
1.0
1070
    74
1070
     0
1000
MTEXTEND
  0
POINT
  5
52
330
4B
100
AcDbEntity
  8
DEFPOINTS
 62
     0
100
AcDbPoint
 10
307.4444793447943
 20
418.3503261372866
 30
0.0
  0
POINT
  5
53
330
4B
100
AcDbEntity
  8
DEFPOINTS
 62
     0
100
AcDbPoint
 10
170.9569793447944
 20
368.5503261372868
 30
0.0
  0
POINT
  5
54
330
4B
100
AcDbEntity
  8
DEFPOINTS
 62
     0
100
AcDbPoint
 10
170.9569793447944
 20
353.4583930959407
 30
0.0
  0
ENDBLK
  5
56
330
4B
100
AcDbEntity
  8
0
 62
     5
100
AcDbBlockEnd
  0
BLOCK
  5
48
330
3E
100
AcDbEntity
  8
0
 62
     5
100
AcDbBlockBegin
  2
*D2
 70
     1
 10
0.0
 20
0.0
 30
0.0
  3
*D2
  1

  0
LINE
  5
3F
330
3E
100
AcDbEntity
  8
0
 62
     0
100
AcDbLine
 10
299.4444793447943
 20
409.0753261372869
 30
0.0
 11
299.4444793447943
 21
359.104437410801
 31
0.0
  0
LINE
  5
40
330
3E
100
AcDbEntity
  8
0
 62
     0
100
AcDbLine
 10
170.9569793447944
 20
367.5503261372869
 30
0.0
 11
170.9569793447944
 21
359.104437410801
 31
0.0
  0
LINE
  5
41
330
3E
100
AcDbEntity
  8
0
 62
     0
100
AcDbLine
 10
296.4444793447944
 20
362.1044374108011
 30
0.0
 11
173.9569793447943
 21
362.1044374108011
 31
0.0
  0
SOLID
  5
42
330
3E
100
AcDbEntity
  8
0
 62
     0
100
AcDbTrace
 10
296.4444793447944
 20
362.6044374108011
 30
0.0
 11
296.4444793447944
 21
361.6044374108007
 31
0.0
 12
299.4444793447943
 22
362.1044374108011
 32
0.0
 13
299.4444793447943
 23
362.1044374108011
 33
0.0
  0
SOLID
  5
43
330
3E
100
AcDbEntity
  8
0
 62
     0
100
AcDbTrace
 10
173.9569793447943
 20
362.6044374108011
 30
0.0
 11
173.9569793447943
 21
361.6044374108007
 31
0.0
 12
170.9569793447944
 22
362.1044374108011
 32
0.0
 13
170.9569793447944
 23
362.1044374108011
 33
0.0
  0
MTEXT
  5
44
330
3E
100
AcDbEntity
  8
0
 62
     0
100
AcDbMText
 10
235.2007293447943
 20
364.6044374108011
 30
0.0
 40
3.0
 41
0.0
 71
     5
 72
     1
  1
\A1;128.5
 73
     1
 44
1.0
1001
ACAD
1000
MTEXTBEGIN
1070
    73
1070
     1
1070
    44
1040
1.0
1070
    74
1070
     0
1000
MTEXTEND
  0
POINT
  5
45
330
3E
100
AcDbEntity
  8
DEFPOINTS
 62
     0
100
AcDbPoint
 10
299.4444793447943
 20
410.0753261372869
 30
0.0
  0
POINT
  5
46
330
3E
100
AcDbEntity
  8
DEFPOINTS
 62
     0
100
AcDbPoint
 10
170.9569793447944
 20
368.5503261372868
 30
0.0
  0
POINT
  5
47
330
3E
100
AcDbEntity
  8
DEFPOINTS
 62
     0
100
AcDbPoint
 10
170.9569793447944
 20
362.1044374108011
 30
0.0
  0
ENDBLK
  5
49
330
3E
100
AcDbEntity
  8
0
 62
     5
100
AcDbBlockEnd
  0
BLOCK
  5
355
330
34B
100
AcDbEntity
  8
0
 62
     5
100
AcDbBlockBegin
  2
*D3
 70
     1
 10
0.0
 20
0.0
 30
0.0
  3
*D3
  1

  0
LINE
  5
34C
330
34B
100
AcDbEntity
  8
0
 62
     0
100
AcDbLine
 10
315.0713477013169
 20
315.8359689187302
 30
0.0
 11
324.8928323575213
 21
315.8359689187302
 31
0.0
  0
LINE
  5
34D
330
34B
100
AcDbEntity
  8
0
 62
     0
100
AcDbLine
 10
303.0113477013169
 20
225.8359689187301
 30
0.0
 11
324.8928323575213
 21
225.8359689187301
 31
0.0
  0
LINE
  5
34E
330
34B
100
AcDbEntity
  8
0
 62
     0
100
AcDbLine
 10
321.8928323575213
 20
312.8359689187302
 30
0.0
 11
321.8928323575213
 21
228.8359689187302
 31
0.0
  0
SOLID
  5
34F
330
34B
100
AcDbEntity
  8
0
 62
     0
100
AcDbTrace
 10
321.3928323575213
 20
312.8359689187302
 30
0.0
 11
322.3928323575213
 21
312.8359689187302
 31
0.0
 12
321.8928323575213
 22
315.8359689187302
 32
0.0
 13
321.8928323575213
 23
315.8359689187302
 33
0.0
  0
SOLID
  5
350
330
34B
100
AcDbEntity
  8
0
 62
     0
100
AcDbTrace
 10
321.3928323575213
 20
228.8359689187302
 30
0.0
 11
322.3928323575213
 21
228.8359689187302
 31
0.0
 12
321.8928323575213
 22
225.8359689187301
 32
0.0
 13
321.8928323575213
 23
225.8359689187301
 33
0.0
  0
MTEXT
  5
351
330
34B
100
AcDbEntity
  8
0
 62
     0
100
AcDbMText
 10
319.3928323575213
 20
270.8359689187302
 30
0.0
 40
3.0
 41
0.0
 71
     5
 72
     1
  1
\A1;90.0
 11
0.0000000000000001
 21
1.0
 31
0.0
 73
     1
 44
1.0
1001
ACAD
1000
MTEXTBEGIN
1070
    73
1070
     1
1070
    44
1040
1.0
1070
    74
1070
     0
1000
MTEXTEND
  0
POINT
  5
352
330
34B
100
AcDbEntity
  8
DEFPOINTS
 62
     0
100
AcDbPoint
 10
314.0713477013166
 20
315.8359689187302
 30
0.0
  0
POINT
  5
353
330
34B
100
AcDbEntity
  8
DEFPOINTS
 62
     0
100
AcDbPoint
 10
302.0113477013168
 20
225.8359689187301
 30
0.0
  0
POINT
  5
354
330
34B
100
AcDbEntity
  8
DEFPOINTS
 62
     0
100
AcDbPoint
 10
321.8928323575213
 20
225.8359689187301
 30
0.0
  0
ENDBLK
  5
356
330
34B
100
AcDbEntity
  8
0
 62
     5
100
AcDbBlockEnd
  0
BLOCK
  5
2D4
330
2BB
100
AcDbEntity
  8
0
 62
     0
100
AcDbBlockBegin
  2
G
 70
     0
 10
0.0
 20
0.0
 30
0.0
  3
G
  1

  0
LINE
  5
2BC
330
2BB
100
AcDbEntity
  8
0
  6
C6CONTINUOUS
 62
     7
100
AcDbLine
 10
106.1279550143078
 20
508.8863823913427
 30
0.0
 11
106.1279550143078
 21
491.686382343659
 31
0.0
  0
LINE
  5
2BE
330
2BB
100
AcDbEntity
  8
0
  6
C6CONTINUOUS
 62
     7
100
AcDbLine
 10
98.72795491894043
 20
489.5863822006078
 30
0.0
 11
98.72795491894043
 21
510.9863822959753
 31
0.0
  0
LINE
  5
2BF
330
2BB
100
AcDbEntity
  8
0
  6
C6CONTINUOUS
 62
     7
100
AcDbLine
 10
97.1279550143079
 20
510.9863822959753
 30
0.0
 11
97.1279550143079
 21
489.5863822006078
 31
0.0
  0
LINE
  5
2C0
330
2BB
100
AcDbEntity
  8
0
  6
C6CONTINUOUS
 62
     7
100
AcDbLine
 10
106.1279550143078
 20
491.686382343659
 30
0.0
 11
104.5279551096752
 21
491.686382343659
 31
0.0
  0
LINE
  5
2C1
330
2BB
100
AcDbEntity
  8
0
  6
C6CONTINUOUS
 62
     7
100
AcDbLine
 10
98.72795491894043
 20
499.7863822482916
 30
0.0
 11
106.1279550143078
 21
499.7863822482916
 31
0.0
  0
LINE
  5
2C2
330
2BB
100
AcDbEntity
  8
0
  6
C6CONTINUOUS
 62
     7
100
AcDbLine
 10
104.5279551096752
 20
491.686382343659
 30
0.0
 11
104.5279551096752
 21
499.7887323402258
 31
0.0
  0
LINE
  5
2C3
330
2BB
100
AcDbEntity
  8
0
  6
C6CONTINUOUS
 62
     7
100
AcDbLine
 10
98.72795491894043
 20
491.3863823913427
 30
0.0
 11
101.9279549666239
 21
491.3863823913427
 31
0.0
  0
LINE
  5
2C4
330
2BB
100
AcDbEntity
  8
0
  6
C6CONTINUOUS
 62
     7
100
AcDbLine
 10
101.9279549666239
 20
489.7863822482916
 30
0.0
 11
98.72795491894043
 21
489.7863822482916
 31
0.0
  0
LINE
  5
2C5
330
2BB
100
AcDbEntity
  8
0
  6
C6CONTINUOUS
 62
     7
100
AcDbLine
 10
98.72795491894043
 20
494.3863823913426
 30
0.0
 11
104.5279551096752
 21
494.3863823913426
 31
0.0
  0
LINE
  5
2C6
330
2BB
100
AcDbEntity
  8
0
  6
C6CONTINUOUS
 62
     7
100
AcDbLine
 10
104.5279551096752
 20
492.7863822482914
 30
0.0
 11
98.72795491894043
 21
492.7863822482914
 31
0.0
  0
LINE
  5
2C7
330
2BB
100
AcDbEntity
  8
0
  6
C6CONTINUOUS
 62
     7
100
AcDbLine
 10
104.5279551096752
 20
492.686382343659
 30
0.0
 11
97.1279550143079
 21
492.686382343659
 31
0.0
  0
LINE
  5
2C8
330
2BB
100
AcDbEntity
  8
0
  6
C6CONTINUOUS
 62
     7
100
AcDbLine
 10
97.1279550143079
 20
489.5863822006078
 30
0.0
 11
98.72795491894043
 21
489.5863822006078
 31
0.0
  0
LINE
  5
2C9
330
2BB
100
AcDbEntity
  8
0
  6
C6CONTINUOUS
 62
     7
100
AcDbLine
 10
98.72795491894043
 20
492.686382343659
 30
0.0
 11
98.72795491894043
 21
491.3863823913427
 31
0.0
  0
LINE
  5
2CA
330
2BB
100
AcDbEntity
  8
0
  6
C6CONTINUOUS
 62
     7
100
AcDbLine
 10
101.9279549666239
 20
491.3863823913427
 30
0.0
 11
101.9279549666239
 21
489.7863822482916
 31
0.0
  0
LINE
  5
2CB
330
2BB
100
AcDbEntity
  8
0
  6
C6CONTINUOUS
 62
     7
100
AcDbLine
 10
104.5279551096752
 20
498.5863822006079
 30
0.0
 11
98.72795491894043
 21
498.5863822006079
 31
0.0
  0
LINE
  5
2CC
330
2BB
100
AcDbEntity
  8
0
  6
C6CONTINUOUS
 62
     7
100
AcDbLine
 10
106.1279550143078
 20
508.8863823913427
 30
0.0
 11
104.5279551096752
 21
508.8863823913427
 31
0.0
  0
LINE
  5
2CD
330
2BB
100
AcDbEntity
  8
0
  6
C6CONTINUOUS
 62
     7
100
AcDbLine
 10
106.1279550143078
 20
507.6863823436589
 30
0.0
 11
98.72795491894043
 21
507.6863823436589
 31
0.0
  0
LINE
  5
2CE
330
2BB
100
AcDbEntity
  8
0
  6
C6CONTINUOUS
 62
     7
100
AcDbLine
 10
104.5279551096752
 20
507.7863822482916
 30
0.0
 11
98.72795491894043
 21
507.7863822482916
 31
0.0
  0
LINE
  5
2CF
330
2BB
100
AcDbEntity
  8
0
  6
C6CONTINUOUS
 62
     7
100
AcDbLine
 10
101.9279549666239
 20
509.186382343659
 30
0.0
 11
98.72795491894043
 21
509.186382343659
 31
0.0
  0
LINE
  5
2D0
330
2BB
100
AcDbEntity
  8
0
  6
C6CONTINUOUS
 62
     7
100
AcDbLine
 10
98.72795491894043
 20
510.7863822482916
 30
0.0
 11
101.9279549666239
 21
510.7863822482916
 31
0.0
  0
LINE
  5
2D1
330
2BB
100
AcDbEntity
  8
0
  6
C6CONTINUOUS
 62
     7
100
AcDbLine
 10
97.1279550143079
 20
510.9863822959753
 30
0.0
 11
98.72795491894043
 21
510.9863822959753
 31
0.0
  0
LINE
  5
2D2
330
2BB
100
AcDbEntity
  8
0
  6
C6CONTINUOUS
 62
     7
100
AcDbLine
 10
104.5279551096752
 20
508.8863823913427
 30
0.0
 11
104.5279551096752
 21
507.6863823436589
 31
0.0
  0
LINE
  5
2D3
330
2BB
100
AcDbEntity
  8
0
  6
C6CONTINUOUS
 62
     7
100
AcDbLine
 10
101.9279549666239
 20
510.7863822482916
 30
0.0
 11
101.9279549666239
 21
509.186382343659
 31
0.0
  0
ENDBLK
  5
2D5
330
2BB
100
AcDbEntity
  8
0
 62
     0
100
AcDbBlockEnd
  0
BLOCK
  5
2C
330
22
100
AcDbEntity
  8
0
 62
     1
100
AcDbBlockBegin
  2
*D5
 70
     1
 10
0.0
 20
0.0
 30
0.0
  3
*D5
  1

  0
LINE
  5
23
330
22
100
AcDbEntity
  8
0
 62
     0
100
AcDbLine
 10
262.1069793447943
 20
488.0012830821492
 30
0.0
 11
262.1069793447943
 21
526.0941897689145
 31
0.0
  0
LINE
  5
24
330
22
100
AcDbEntity
  8
0
 62
     0
100
AcDbLine
 10
171.1569793447945
 20
500.4745939935906
 30
0.0
 11
171.1569793447945
 21
526.0941897689145
 31
0.0
  0
LINE
  5
25
330
22
100
AcDbEntity
  8
0
 62
     0
100
AcDbLine
 10
259.1069793447942
 20
523.0941897689147
 30
0.0
 11
174.1569793447945
 21
523.0941897689147
 31
0.0
  0
SOLID
  5
26
330
22
100
AcDbEntity
  8
0
 62
     0
100
AcDbTrace
 10
259.1069793447942
 20
523.5941897689147
 30
0.0
 11
259.1069793447942
 21
522.5941897689144
 31
0.0
 12
262.1069793447943
 22
523.0941897689147
 32
0.0
 13
262.1069793447943
 23
523.0941897689147
 33
0.0
  0
SOLID
  5
27
330
22
100
AcDbEntity
  8
0
 62
     0
100
AcDbTrace
 10
174.1569793447945
 20
523.5941897689147
 30
0.0
 11
174.1569793447945
 21
522.5941897689144
 31
0.0
 12
171.1569793447945
 22
523.0941897689147
 32
0.0
 13
171.1569793447945
 23
523.0941897689147
 33
0.0
  0
MTEXT
  5
28
330
22
100
AcDbEntity
  8
0
 62
     0
100
AcDbMText
 10
216.6319793447943
 20
525.5941897689146
 30
0.0
 40
3.0
 41
0.0
 71
     5
 72
     1
  1
\A1;91.0
 73
     1
 44
1.0
1001
ACAD
1000
MTEXTBEGIN
1070
    73
1070
     1
1070
    44
1040
1.0
1070
    74
1070
     0
1000
MTEXTEND
  0
POINT
  5
29
330
22
100
AcDbEntity
  8
DEFPOINTS
 62
     0
100
AcDbPoint
 10
262.1069793447943
 20
487.0012830821492
 30
0.0
  0
POINT
  5
2A
330
22
100
AcDbEntity
  8
DEFPOINTS
 62
     0
100
AcDbPoint
 10
171.1569793447945
 20
499.4745939935906
 30
0.0
  0
POINT
  5
2B
330
22
100
AcDbEntity
  8
DEFPOINTS
 62
     0
100
AcDbPoint
 10
171.1569793447945
 20
523.0941897689147
 30
0.0
  0
ENDBLK
  5
2D
330
22
100
AcDbEntity
  8
0
 62
     1
100
AcDbBlockEnd
  0
BLOCK
  5
39
330
2F
100
AcDbEntity
  8
0
 62
     1
100
AcDbBlockBegin
  2
*D6
 70
     1
 10
0.0
 20
0.0
 30
0.0
  3
*D6
  1

  0
LINE
  5
30
330
2F
100
AcDbEntity
  8
0
 62
     0
100
AcDbLine
 10
257.7569793447945
 20
498.8745933643074
 30
0.0
 11
257.7569793447945
 21
515.1118897407712
 31
0.0
  0
LINE
  5
31
330
2F
100
AcDbEntity
  8
0
 62
     0
100
AcDbLine
 10
171.1569793447945
 20
500.4745939935906
 30
0.0
 11
171.1569793447945
 21
515.1118897407712
 31
0.0
  0
LINE
  5
32
330
2F
100
AcDbEntity
  8
0
 62
     0
100
AcDbLine
 10
254.7569793447943
 20
512.111889740771
 30
0.0
 11
174.1569793447945
 21
512.111889740771
 31
0.0
  0
SOLID
  5
33
330
2F
100
AcDbEntity
  8
0
 62
     0
100
AcDbTrace
 10
254.7569793447943
 20
512.611889740771
 30
0.0
 11
254.7569793447943
 21
511.611889740771
 31
0.0
 12
257.7569793447945
 22
512.111889740771
 32
0.0
 13
257.7569793447945
 23
512.111889740771
 33
0.0
  0
SOLID
  5
34
330
2F
100
AcDbEntity
  8
0
 62
     0
100
AcDbTrace
 10
174.1569793447945
 20
512.611889740771
 30
0.0
 11
174.1569793447945
 21
511.611889740771
 31
0.0
 12
171.1569793447945
 22
512.111889740771
 32
0.0
 13
171.1569793447945
 23
512.111889740771
 33
0.0
  0
MTEXT
  5
35
330
2F
100
AcDbEntity
  8
0
 62
     0
100
AcDbMText
 10
214.4569793447943
 20
514.6118897407712
 30
0.0
 40
3.0
 41
0.0
 71
     5
 72
     1
  1
\A1;86.6
 73
     1
 44
1.0
1001
ACAD
1000
MTEXTBEGIN
1070
    73
1070
     1
1070
    44
1040
1.0
1070
    74
1070
     0
1000
MTEXTEND
  0
POINT
  5
36
330
2F
100
AcDbEntity
  8
DEFPOINTS
 62
     0
100
AcDbPoint
 10
257.7569793447945
 20
497.8745933643074
 30
0.0
  0
POINT
  5
37
330
2F
100
AcDbEntity
  8
DEFPOINTS
 62
     0
100
AcDbPoint
 10
171.1569793447945
 20
499.4745939935906
 30
0.0
  0
POINT
  5
38
330
2F
100
AcDbEntity
  8
DEFPOINTS
 62
     0
100
AcDbPoint
 10
171.1569793447945
 20
512.111889740771
 30
0.0
  0
ENDBLK
  5
3A
330
2F
100
AcDbEntity
  8
0
 62
     1
100
AcDbBlockEnd
  0
BLOCK
  5
674
330
617
100
AcDbEntity
  8
0
 62
     5
100
AcDbBlockBegin
  2
1
 70
     0
 10
0.0
 20
0.0
 30
0.0
  3
1
  1

  0
ARC
  5
618
330
617
100
AcDbEntity
  8
0
100
AcDbCircle
 10
148.1543524830559
 20
275.2574424934822
 30
0.0
 40
0.3
100
AcDbArc
 50
179.9999999999934
 51
270.0000000000094
  0
LINE
  5
619
330
617
100
AcDbEntity
  8
0
100
AcDbLine
 10
161.0543301048306
 20
246.8775424934821
 30
0.0
 11
161.0543301048306
 21
290.5774407190629
 31
0.0
  0
MTEXT
  5
61A
330
617
100
AcDbEntity
  8
0
100
AcDbMText
 10
148.6648613798585
 20
258.9617761673279
 30
0.0
 40
1.5
 41
9.554199999999999
 71
     1
 72
     5
  1
{\fＭＳ ゴシック|b0|i0|c128|p49;IP1-C225}
 73
     1
 44
1.0
1001
ACAD
1000
MTEXTBEGIN
1070
    73
1070
     1
1070
    44
1040
1.0
1070
    74
1070
     0
1000
MTEXTEND
  0
LINE
  5
61B
330
617
100
AcDbEntity
  8
0
100
AcDbLine
 10
148.1517524830558
 20
274.9574424934821
 30
0.0
 11
157.7543524830558
 21
274.9574424934821
 31
0.0
  0
LINE
  5
61C
330
617
100
AcDbEntity
  8
0
100
AcDbLine
 10
157.7543524830558
 20
259.447442493482
 30
0.0
 11
148.1543524830559
 21
259.447442493482
 31
0.0
  0
LINE
  5
61D
330
617
100
AcDbEntity
  8
0
100
AcDbLine
 10
144.604333928953
 20
244.8775149222826
 30
0.0
 11
158.9543653715745
 21
244.8775149222826
 31
0.0
  0
MTEXT
  5
61E
330
617
100
AcDbEntity
  8
0
100
AcDbMText
 10
145.0043339289529
 20
249.6228828818156
 30
0.0
 40
1.5
 41
13.00259999999999
 71
     4
 72
     5
  1
{\fＭＳ ゴシック|b0|i0|c128|p49;IN:20mA/5VDC\POUT:265V,25AAC}
 73
     1
 44
1.0
1001
ACAD
1000
MTEXTBEGIN
1070
    73
1070
     1
1070
    44
1040
1.0
1070
    74
1070
     0
1000
MTEXTEND
  0
ARC
  5
61F
330
617
100
AcDbEntity
  8
0
100
AcDbCircle
 10
145.354352483056
 20
257.5274424934821
 30
0.0
 40
2.5
100
AcDbArc
 50
269.9999999999964
 51
0.0000000000016284
  0
LINE
  5
620
330
617
100
AcDbEntity
  8
0
100
AcDbLine
 10
145.354352483056
 20
255.0274424934821
 30
0.0
 11
144.604333928953
 21
255.0274424934821
 31
0.0
  0
ARC
  5
621
330
617
100
AcDbEntity
  8
0
100
AcDbCircle
 10
144.604333928953
 20
254.727442493482
 30
0.0
 40
0.3
100
AcDbArc
 50
89.99999999999024
 51
180.0000000000094
  0
ARC
  5
622
330
617
100
AcDbEntity
  8
0
100
AcDbCircle
 10
144.604333928953
 20
245.1775149222827
 30
0.0
 40
0.3
100
AcDbArc
 50
179.9999999999886
 51
270.0000000000094
  0
LINE
  5
623
330
617
100
AcDbEntity
  8
0
100
AcDbLine
 10
144.3043339289529
 20
254.727442493482
 30
0.0
 11
144.3043339289529
 21
245.1775149222827
 31
0.0
  0
ARC
  5
624
330
617
100
AcDbEntity
  8
0
100
AcDbCircle
 10
148.1543524830559
 20
259.1474424934821
 30
0.0
 40
0.3
100
AcDbArc
 50
89.99999999999024
 51
180.0000000000045
  0
LINE
  5
625
330
617
100
AcDbEntity
  8
0
100
AcDbLine
 10
147.854352483056
 20
257.5274424934821
 30
0.0
 11
147.854352483056
 21
259.1474424934821
 31
0.0
  0
LINE
  5
626
330
617
100
AcDbEntity
  8
0
100
AcDbLine
 10
157.7443524830728
 20
252.4874924934823
 30
0.0
 11
161.0543301048306
 21
252.4874924934823
 31
0.0
  0
LINE
  5
627
330
617
100
AcDbEntity
  8
0
100
AcDbLine
 10
157.7443524830556
 20
256.0275117168151
 30
0.0
 11
161.0543301048306
 21
256.0275117168151
 31
0.0
  0
ARC
  5
628
330
617
100
AcDbEntity
  8
0
100
AcDbCircle
 10
158.9543653715745
 20
245.1775149222827
 30
0.0
 40
0.3
100
AcDbArc
 50
269.9999999999902
 51
0.0000000000065138
  0
LINE
  5
629
330
617
100
AcDbEntity
  8
0
100
AcDbLine
 10
157.4443524830559
 20
252.7874924934823
 30
0.0
 11
157.4443524830555
 21
255.7275117168151
 31
0.0
  0
ARC
  5
62A
330
617
100
AcDbEntity
  8
0
100
AcDbCircle
 10
157.744352483056
 20
252.787492493482
 30
0.0
 40
0.3
100
AcDbArc
 50
179.9999999999886
 51
270.0000000000094
  0
MTEXT
  5
62B
330
617
100
AcDbEntity
  8
0
100
AcDbMText
 10
157.1443524830554
 20
254.2080499875159
 30
0.0
 40
1.5
 41
10.0
 71
     6
 72
     5
  1
{\fＭＳ ゴシック|b0|i0|c128|p49;INPUT}
 73
     1
 44
1.0
1001
ACAD
1000
MTEXTBEGIN
1070
    73
1070
     1
1070
    44
1040
1.0
1070
    74
1070
     0
1000
MTEXTEND
  0
ARC
  5
62C
330
617
100
AcDbEntity
  8
0
100
AcDbCircle
 10
157.7443524830556
 20
255.7275117168151
 30
0.0
 40
0.3
100
AcDbArc
 50
89.99999999999024
 51
180.0000000000045
  0
MTEXT
  5
62D
330
617
100
AcDbEntity
  8
0
100
AcDbMText
 10
155.2273210503614
 20
246.0775149222826
 30
0.0
 40
2.0
 41
2.0
 71
     5
 72
     5
  1
{\f@ＭＳ ゴシック|b0|i0|c128|p49;6/T2}
 73
     1
 44
1.0
1001
ACAD
1000
MTEXTBEGIN
1070
    73
1070
     1
1070
    44
1040
1.0
1070
    74
1070
     0
1000
MTEXTEND
  0
LINE
  5
62E
330
617
100
AcDbEntity
  8
0
100
AcDbLine
 10
159.2543653715743
 20
245.1775149222827
 30
0.0
 11
159.2543653715743
 21
246.277542493482
 31
0.0
  0
ARC
  5
62F
330
617
100
AcDbEntity
  8
0
100
AcDbCircle
 10
159.5543653715743
 20
246.2775424934823
 30
0.0
 40
0.3
100
AcDbArc
 50
89.99999999997395
 51
180.0000000000045
  0
LINE
  5
630
330
617
100
AcDbEntity
  8
0
100
AcDbLine
 10
159.5543653715743
 20
246.577542493482
 30
0.0
 11
160.7543301048306
 21
246.577542493482
 31
0.0
  0
ARC
  5
631
330
617
100
AcDbEntity
  8
0
100
AcDbCircle
 10
160.7543301048306
 20
246.8775424934821
 30
0.0
 40
0.3
100
AcDbArc
 50
269.9999999999837
 51
0.0000000000211698
  0
MTEXT
  5
632
330
617
100
AcDbEntity
  8
0
100
AcDbMText
 10
159.5531024830558
 20
269.744242493482
 30
0.0
 40
2.0
 41
3.002699999999998
 71
     5
 72
     5
  1
{\fＭＳ ゴシック|b0|i0|c128|p49;1}
 73
     1
 44
1.0
1001
ACAD
1000
MTEXTBEGIN
1070
    73
1070
     1
1070
    44
1040
1.0
1070
    74
1070
     0
1000
MTEXTEND
  0
MTEXT
  5
633
330
617
100
AcDbEntity
  8
0
100
AcDbMText
 10
159.5531024830558
 20
264.6642424934821
 30
0.0
 40
2.0
 41
3.002699999999998
 71
     5
 72
     5
  1
{\fＭＳ ゴシック|b0|i0|c128|p49;3}
 73
     1
 44
1.0
1001
ACAD
1000
MTEXTBEGIN
1070
    73
1070
     1
1070
    44
1040
1.0
1070
    74
1070
     0
1000
MTEXTEND
  0
MTEXT
  5
634
330
617
100
AcDbEntity
  8
0
100
AcDbMText
 10
159.5531024830558
 20
267.204242493482
 30
0.0
 40
2.0
 41
3.002699999999998
 71
     5
 72
     5
  1
{\fＭＳ ゴシック|b0|i0|c128|p49;2}
 73
     1
 44
1.0
1001
ACAD
1000
MTEXTBEGIN
1070
    73
1070
     1
1070
    44
1040
1.0
1070
    74
1070
     0
1000
MTEXTEND
  0
MTEXT
  5
635
330
617
100
AcDbEntity
  8
0
100
AcDbMText
 10
159.5531024830558
 20
262.124242493482
 30
0.0
 40
2.0
 41
3.002699999999998
 71
     5
 72
     5
  1
{\fＭＳ ゴシック|b0|i0|c128|p49;4}
 73
     1
 44
1.0
1001
ACAD
1000
MTEXTBEGIN
1070
    73
1070
     1
1070
    44
1040
1.0
1070
    74
1070
     0
1000
MTEXTEND
  0
ARC
  5
636
330
617
100
AcDbEntity
  8
0
100
AcDbCircle
 10
157.7543524830558
 20
274.6574424934824
 30
0.0
 40
0.3
100
AcDbArc
 50
359.9999999999933
 51
90.00000000000651
  0
ARC
  5
637
330
617
100
AcDbEntity
  8
0
100
AcDbCircle
 10
157.7543524830558
 20
259.7474424934822
 30
0.0
 40
0.3
100
AcDbArc
 50
269.9999999999934
 51
0.0000000000065138
  0
LINE
  5
638
330
617
100
AcDbEntity
  8
0
100
AcDbLine
 10
158.0543524830558
 20
274.657442493482
 30
0.0
 11
158.0543524830558
 21
259.7474424934822
 31
0.0
  0
MTEXT
  5
639
330
617
100
AcDbEntity
  8
0
100
AcDbMText
 10
147.3842958589303
 20
282.0748864279467
 30
0.0
 40
2.0
 41
2.0
 71
     5
 72
     5
  1
{\fＭＳ ゴシック|b0|i0|c128|p49;7/T3}
 73
     1
 44
1.0
1001
ACAD
1000
MTEXTBEGIN
1070
    73
1070
     1
1070
    44
1040
1.0
1070
    74
1070
     0
1000
MTEXTEND
  0
LINE
  5
63A
330
617
100
AcDbEntity
  8
0
100
AcDbLine
 10
150.3543767291485
 20
283.7275132110886
 30
0.0
 11
144.604333928953
 21
283.7275132110886
 31
0.0
  0
ARC
  5
63B
330
617
100
AcDbEntity
  8
0
100
AcDbCircle
 10
144.6043339289529
 20
283.4275132110888
 30
0.0
 40
0.3
100
AcDbArc
 50
89.99999999999348
 51
180.0000000000045
  0
ARC
  5
63C
330
617
100
AcDbEntity
  8
0
100
AcDbCircle
 10
144.6043339289525
 20
279.677442493482
 30
0.0
 40
0.3
100
AcDbArc
 50
179.9999999999934
 51
270.0000000000094
  0
LINE
  5
63D
330
617
100
AcDbEntity
  8
0
100
AcDbLine
 10
144.604333928953
 20
279.377442493482
 30
0.0
 11
145.3543524830559
 21
279.3774424934823
 31
0.0
  0
LINE
  5
63E
330
617
100
AcDbEntity
  8
0
100
AcDbLine
 10
144.3043339289529
 20
283.4275132110887
 30
0.0
 11
144.3043339289529
 21
279.677442493482
 31
0.0
  0
LINE
  5
63F
330
617
100
AcDbEntity
  8
0
100
AcDbLine
 10
147.8543524830558
 20
276.8774424934822
 30
0.0
 11
147.8543524830558
 21
275.2574424934822
 31
0.0
  0
ARC
  5
640
330
617
100
AcDbEntity
  8
0
100
AcDbCircle
 10
145.3543524830559
 20
276.8774424934822
 30
0.0
 40
2.5
100
AcDbArc
 50
359.9999999999983
 51
90.00000000000325
  0
ARC
  5
641
330
617
100
AcDbEntity
  8
0
100
AcDbCircle
 10
158.9543653715745
 20
292.2774700646815
 30
0.0
 40
0.3
100
AcDbArc
 50
359.9999999999884
 51
90.00000000001628
  0
MTEXT
  5
642
330
617
100
AcDbEntity
  8
0
100
AcDbMText
 10
152.0381878286355
 20
283.5705377101388
 30
0.0
 40
1.0
 41
10.0
 71
     4
 72
     5
  1
{\fＭＳ ゴシック|b0|i0|c128|p49;MADE IN JAPAN}
 73
     1
 44
1.0
1001
ACAD
1000
MTEXTBEGIN
1070
    73
1070
     1
1070
    44
1040
1.0
1070
    74
1070
     0
1000
MTEXTEND
  0
MTEXT
  5
643
330
617
100
AcDbEntity
  8
0
100
AcDbMText
 10
155.1517524830555
 20
277.729246493482
 30
0.0
 40
1.5
 41
5.9027
 71
     4
 72
     5
  1
{\fＭＳ ゴシック|b0|i0|c128|p49;SOFT\PSTART}
 73
     1
 44
1.0
1001
ACAD
1000
MTEXTBEGIN
1070
    73
1070
     1
1070
    44
1040
1.0
1070
    74
1070
     0
1000
MTEXTEND
  0
MTEXT
  5
644
330
617
100
AcDbEntity
  8
0
100
AcDbMText
 10
152.2539818293053
 20
286.722066280342
 30
0.0
 40
2.0
 41
9.554199999999999
 71
     1
 72
     5
  1
{\fＭＳ ゴシック|b0|i0|c128|p49;SYSTEM}
 73
     1
 44
1.0
1001
ACAD
1000
MTEXTBEGIN
1070
    73
1070
     1
1070
    44
1040
1.0
1070
    74
1070
     0
1000
MTEXTEND
  0
ARC
  5
645
330
617
100
AcDbEntity
  8
0
100
AcDbCircle
 10
151.6543767291485
 20
292.2774700646813
 30
0.0
 40
0.3
100
AcDbArc
 50
89.99999999998371
 51
180.0000000000045
  0
MTEXT
  5
646
330
617
100
AcDbEntity
  8
0
100
AcDbMText
 10
152.2539818293053
 20
289.5809700646815
 30
0.0
 40
2.0
 41
9.554199999999999
 71
     1
 72
     5
  1
{\fＭＳ ゴシック|b0|i0|c128|p49;JEL}
 73
     1
 44
1.0
1001
ACAD
1000
MTEXTBEGIN
1070
    73
1070
     1
1070
    44
1040
1.0
1070
    74
1070
     0
1000
MTEXTEND
  0
MTEXT
  5
647
330
617
100
AcDbEntity
  8
0
100
AcDbMText
 10
155.2273210503614
 20
291.3774700646813
 30
0.0
 40
2.0
 41
9.5388
 71
     5
 72
     5
  1
{\f@ＭＳ ゴシック|b0|i0|c128|p49;5/T1}
 73
     1
 44
1.0
1001
ACAD
1000
MTEXTBEGIN
1070
    73
1070
     1
1070
    44
1040
1.0
1070
    74
1070
     0
1000
MTEXTEND
  0
LINE
  5
648
330
617
100
AcDbEntity
  8
0
100
AcDbLine
 10
158.9543653715745
 20
292.5774700646813
 30
0.0
 11
151.6543767291485
 21
292.5774700646813
 31
0.0
  0
ARC
  5
649
330
617
100
AcDbEntity
  8
0
100
AcDbCircle
 10
150.3543767291485
 20
284.7275132110886
 30
0.0
 40
1.0
100
AcDbArc
 50
269.9999999999934
 51
0.0
  0
ARC
  5
64A
330
617
100
AcDbEntity
  8
0
100
AcDbCircle
 10
152.0043567046205
 20
277.7274225518016
 30
0.0
 40
2.299999999999998
100
AcDbArc
 50
109.999894835703
 51
129.9996971915736
  0
ARC
  5
64B
330
617
100
AcDbEntity
  8
0
100
AcDbCircle
 10
152.0043567046205
 20
277.7274225518016
 30
0.0
 40
2.299999999999998
100
AcDbArc
 50
80.00020713318312
 51
99.99999999999859
  0
SPLINE
  5
64C
330
617
100
AcDbEntity
  8
0
100
AcDbSpline
210
0.0
220
0.0
230
1.0
 70
     8
 71
     3
 72
     9
 73
     5
 74
     0
 42
0.0000000001
 43
0.0000000001
 40
1.844402645512213
 40
1.844402645512213
 40
1.844402645512213
 40
1.844402645512213
 40
2.439028539399132
 40
3.026216335913411
 40
3.026216335913411
 40
3.026216335913411
 40
3.026216335913411
 10
152.6041752418668
 20
281.129210400499
 30
0.0
 10
152.4051743785794
 20
281.146517756468
 30
0.0
 10
152.004711940888
 20
281.1441783958195
 30
0.0
 10
151.6128022801723
 20
281.0758987284592
 30
0.0
 10
151.42279777896
 20
281.0256071139363
 30
0.0
  0
LINE
  5
64D
330
617
100
AcDbEntity
  8
0
100
AcDbLine
 10
151.2177143419465
 20
279.8887170234659
 30
0.0
 11
150.8756941986205
 21
280.8284096442528
 31
0.0
  0
LINE
  5
64E
330
617
100
AcDbEntity
  8
0
100
AcDbLine
 10
151.6049658959865
 20
279.9924803837297
 30
0.0
 11
151.42279777896
 21
281.0256071139363
 31
0.0
  0
LINE
  5
64F
330
617
100
AcDbEntity
  8
0
100
AcDbLine
 10
152.4037393247143
 20
279.9924818275749
 30
0.0
 11
152.6041752418706
 21
281.1292104005415
 31
0.0
  0
LINE
  5
650
330
617
100
AcDbEntity
  8
0
100
AcDbLine
 10
153.2014157838095
 20
281.0163508819618
 30
0.0
 11
152.7909916118146
 21
279.8887197370083
 31
0.0
  0
ARC
  5
651
330
617
100
AcDbEntity
  8
0
100
AcDbCircle
 10
152.0043567046205
 20
277.7274225518016
 30
0.0
 40
2.299999999999998
100
AcDbArc
 50
50.00046392945339
 51
70.00030280845973
  0
LINE
  5
652
330
617
100
AcDbEntity
  8
0
100
AcDbLine
 10
154.3183778331691
 20
280.4851945178334
 30
0.0
 11
153.4827539405589
 21
279.4893367417578
 31
0.0
  0
SPLINE
  5
653
330
617
100
AcDbEntity
  8
0
100
AcDbSpline
210
0.0
220
0.0
230
1.0
 70
     8
 71
     3
 72
     8
 73
     4
 74
     0
 42
0.0000000001
 43
0.0000000001
 40
0.0
 40
0.0
 40
0.0
 40
0.0
 40
1.236823068536057
 40
1.236823068536057
 40
1.236823068536057
 40
1.236823068536057
 10
154.3183778331688
 20
280.4851945178335
 30
0.0
 10
153.9565094048318
 20
280.6915430274079
 30
0.0
 10
153.5946409764949
 20
280.8978915369824
 30
0.0
 10
153.2014157838095
 20
281.0163508819618
 30
0.0
  0
SPLINE
  5
654
330
617
100
AcDbEntity
  8
0
100
AcDbSpline
210
0.0
220
0.0
230
1.0
 70
     8
 71
     3
 72
     8
 73
     4
 74
     0
 42
0.0000000001
 43
0.0000000001
 40
12.55914839783017
 40
12.55914839783017
 40
12.55914839783017
 40
12.55914839783017
 40
13.38121612665378
 40
13.38121612665378
 40
13.38121612665378
 40
13.38121612665378
 10
152.825200827039
 20
275.4721842035966
 30
0.0
 10
153.0652120660608
 20
275.6018651694032
 30
0.0
 10
153.2739947922999
 20
275.7836966577333
 30
0.0
 10
153.4827775185393
 20
275.9655281460633
 30
0.0
  0
ARC
  5
655
330
617
100
AcDbEntity
  8
0
100
AcDbCircle
 10
152.0043567046205
 20
277.7274225518016
 30
0.0
 40
2.299999999999998
100
AcDbArc
 50
290.0001051642977
 51
310.0003028084286
  0
SPLINE
  5
656
330
617
100
AcDbEntity
  8
0
100
AcDbSpline
210
0.0
220
0.0
230
1.0
 70
     8
 71
     3
 72
     9
 73
     5
 74
     0
 42
0.0000000001
 43
0.0000000001
 40
11.26228897552139
 40
11.26228897552139
 40
11.26228897552139
 40
11.26228897552139
 40
11.70258938672921
 40
12.13276729725081
 40
12.13276729725081
 40
12.13276729725081
 40
12.13276729725081
 10
151.5616891686434
 20
275.2169780862439
 30
0.0
 10
151.7087921972659
 20
275.2079283311906
 30
0.0
 10
152.0016884915543
 20
275.2148264316284
 30
0.0
 10
152.2917011229518
 20
275.2706438031954
 30
0.0
 10
152.4303760422455
 20
275.3113468275234
 30
0.0
  0
ARC
  5
657
330
617
100
AcDbEntity
  8
0
100
AcDbCircle
 10
152.0043567046205
 20
277.7274225518016
 30
0.0
 40
2.299999999999998
100
AcDbArc
 50
259.9997928668134
 51
279.9999999999986
  0
SPLINE
  5
658
330
617
100
AcDbEntity
  8
0
100
AcDbSpline
210
0.0
220
0.0
230
1.0
 70
     8
 71
     3
 72
     8
 73
     4
 74
     0
 42
0.0000000001
 43
0.0000000001
 40
9.885918137251655
 40
9.885918137251655
 40
9.885918137251655
 40
9.885918137252955
 40
10.81151323001527
 40
10.81151323001527
 40
10.81151323001527
 40
10.81151323001529
 10
150.2688158922151
 20
275.6591145262706
 30
0.0
 10
150.526220862861
 20
275.48583718129
 30
0.0
 10
150.8143009714961
 20
275.3572734905241
 30
0.0
 10
151.1150929095399
 20
275.2842258952144
 30
0.0
  0
ARC
  5
659
330
617
100
AcDbEntity
  8
0
100
AcDbCircle
 10
152.0043567046205
 20
277.7274225518016
 30
0.0
 40
2.299999999999998
100
AcDbArc
 50
229.9995360705444
 51
249.9996971915401
  0
LINE
  5
65A
330
617
100
AcDbEntity
  8
0
100
AcDbLine
 10
152.7910070012421
 20
275.566130967858
 30
0.0
 11
152.8252008270493
 21
275.4721842035678
 31
0.0
  0
LINE
  5
65B
330
617
100
AcDbEntity
  8
0
100
AcDbLine
 10
152.4037475132544
 20
275.4623647198735
 30
0.0
 11
152.4303760422455
 21
275.3113468275234
 31
0.0
  0
LINE
  5
65C
330
617
100
AcDbEntity
  8
0
100
AcDbLine
 10
151.6049577074516
 20
275.4623661637484
 30
0.0
 11
151.5616891686434
 21
275.2169780862436
 31
0.0
  0
LINE
  5
65D
330
617
100
AcDbEntity
  8
0
100
AcDbLine
 10
151.2176989525389
 20
275.5661336814537
 30
0.0
 11
151.1150929095399
 21
275.2842258952144
 31
0.0
  0
LINE
  5
65E
330
617
100
AcDbEntity
  8
0
100
AcDbLine
 10
150.5259309360976
 20
275.965532303526
 30
0.0
 11
150.2688158922149
 21
275.6591145262709
 31
0.0
  0
SPLINE
  5
65F
330
617
100
AcDbEntity
  8
0
100
AcDbSpline
210
0.0
220
0.0
230
1.0
 70
     8
 71
     3
 72
     9
 73
     5
 74
     0
 42
0.0000000001
 43
0.0000000001
 40
8.432718137583092
 40
8.432718137583092
 40
8.432718137583092
 40
8.432718137583092
 40
8.925785666424909
 40
9.410235616123213
 40
9.410235616123213
 40
9.410235616123213
 40
9.410235616123213
 10
149.3263413447535
 20
276.7527303160169
 30
0.0
 10
149.3980893659054
 20
276.6039023844255
 30
0.0
 10
149.565949125856
 20
276.3212645865589
 30
0.0
 10
149.7811510477544
 20
276.0727015352047
 30
0.0
 10
149.8978041665943
 20
275.9598423707078
 30
0.0
  0
ARC
  5
660
330
617
100
AcDbEntity
  8
0
100
AcDbCircle
 10
152.0043567046205
 20
277.7274225518016
 30
0.0
 40
2.299999999999998
100
AcDbArc
 50
169.9994298372173
 51
189.9993913872064
  0
SPLINE
  5
661
330
617
100
AcDbEntity
  8
0
100
AcDbSpline
210
0.0
220
0.0
230
1.0
 70
     8
 71
     3
 72
     8
 73
     4
 74
     0
 42
0.0000000001
 43
0.0000000001
 40
6.90185906969716
 40
6.901859069697231
 40
6.901859069697231
 40
6.901859069697231
 40
7.931103290132815
 40
7.931103290132815
 40
7.931103290132815
 40
7.931103290132815
 10
149.0499374200948
 20
278.2483896248709
 30
0.0
 10
149.0226140891941
 20
277.9046317674764
 30
0.0
 10
149.0554165996964
 20
277.5559373679428
 30
0.0
 10
149.1484099785384
 20
277.2238668967024
 30
0.0
  0
LINE
  5
662
330
617
100
AcDbEntity
  8
0
100
AcDbLine
 10
149.8430554357148
 20
276.9407988647523
 30
0.0
 11
149.3263413447535
 21
276.7527303160169
 31
0.0
  0
LINE
  5
663
330
617
100
AcDbEntity
  8
0
100
AcDbLine
 10
149.7392946303724
 20
277.3280558033075
 30
0.0
 11
149.1484099785384
 21
277.2238668967024
 31
0.0
  0
LINE
  5
664
330
617
100
AcDbEntity
  8
0
100
AcDbLine
 10
149.7393028472295
 20
278.1268359004996
 30
0.0
 11
149.0499374200948
 21
278.2483896248709
 31
0.0
  0
LINE
  5
665
330
617
100
AcDbEntity
  8
0
100
AcDbLine
 10
149.8430708783559
 20
278.514088667246
 30
0.0
 11
149.1384123903132
 21
278.7705633822166
 31
0.0
  0
SPLINE
  5
666
330
617
100
AcDbEntity
  8
0
100
AcDbSpline
210
0.0
220
0.0
230
1.0
 70
     8
 71
     3
 72
     9
 73
     5
 74
     0
 42
0.0000000001
 43
0.0000000001
 40
5.293047070615098
 40
5.293047070615098
 40
5.293047070615098
 40
5.293047070615098
 40
5.838035593547883
 40
6.374267941261552
 40
6.374267941261552
 40
6.374267941261552
 40
6.374267941261552
 10
149.5914101832275
 20
279.7521454873264
 30
0.0
 10
149.4871805891628
 20
279.6022245048865
 30
0.0
 10
149.306293499852
 20
279.2869097012843
 30
0.0
 10
149.1838083712971
 20
278.944414908966
 30
0.0
 10
149.1384123903132
 20
278.7705633822166
 30
0.0
  0
HATCH
  5
667
330
617
100
AcDbEntity
  8
0
100
AcDbHatch
 10
0.0
 20
0.0
 30
0.0
210
0.0
220
0.0
230
1.0
  2
SOLID
 70
     1
 71
     0
 91
        9
 92
        5
 93
        4
 72
     4
 94
        3
 73
     0
 74
     0
 95
        8
 96
        4
 40
0.0
 40
0.0
 40
0.0
 40
0.0
 40
1.236823068536057
 40
1.236823068536057
 40
1.236823068536057
 40
1.236823068536057
 10
154.3183778331688
 20
280.4851945178335
 10
153.9565094048318
 20
280.6915430274079
 10
153.5946409764949
 20
280.8978915369824
 10
153.2014157838095
 20
281.0163508819618
 72
     1
 10
153.2014157838095
 20
281.0163508819618
 11
152.7909916118146
 21
279.8887197370083
 72
     2
 10
152.0043567046205
 20
277.7274225518016
 40
2.299999999999997
 50
289.9996971915406
 51
309.9995360705451
 73
     0
 72
     1
 10
153.4827539405589
 20
279.4893367417578
 11
154.3183778331691
 21
280.4851945178334
 97
        0
 92
        5
 93
        4
 72
     4
 94
        3
 73
     0
 74
     0
 95
        9
 96
        5
 40
1.844402645512213
 40
1.844402645512213
 40
1.844402645512213
 40
1.844402645512213
 40
2.439028539399132
 40
3.026216335913411
 40
3.026216335913411
 40
3.026216335913411
 40
3.026216335913411
 10
152.6041752418668
 20
281.129210400499
 10
152.4051743785794
 20
281.146517756468
 10
152.004711940888
 20
281.1441783958195
 10
151.6128022801723
 20
281.0758987284592
 10
151.42279777896
 20
281.0256071139363
 72
     1
 10
151.42279777896
 20
281.0256071139363
 11
151.6049658959865
 21
279.9924803837297
 72
     2
 10
152.0043567046205
 20
277.7274225518016
 40
2.30000000000001
 50
260.0
 51
279.9997928668166
 73
     0
 72
     1
 10
152.4037393247143
 20
279.9924818275749
 11
152.604175241863
 21
281.129210400499
 97
        0
 92
        5
 93
        4
 72
     4
 94
        3
 73
     0
 74
     0
 95
        8
 96
        4
 40
3.606639951261573
 40
3.606639951261692
 40
3.606639951261692
 40
3.606639951261692
 40
4.739633177516505
 40
4.739633177516505
 40
4.739633177516505
 40
4.739633177516505
 10
150.8756941986205
 20
280.8284096442528
 10
150.5319819403926
 20
280.6687718996087
 10
150.215420791748
 20
280.4478746273566
 10
149.9474456652988
 20
280.1787725831753
 72
     1
 10
149.9474456652989
 20
280.1787725831753
 11
150.5259545140225
 21
279.4893325843614
 72
     2
 10
152.0043567046205
 20
277.7274225518016
 40
2.300000000000006
 50
230.0003028084254
 51
250.000105164295
 73
     0
 72
     1
 10
151.2177143419465
 20
279.8887170234659
 11
150.8756941986205
 21
280.8284096442528
 97
        0
 92
        5
 93
        4
 72
     1
 10
150.2424645302181
 20
279.2058460248901
 11
149.5914101832275
 21
279.752145487326
 72
     4
 94
        3
 73
     0
 74
     0
 95
        9
 96
        5
 40
5.293047070615098
 40
5.293047070615098
 40
5.293047070615098
 40
5.293047070615098
 40
5.838035593547883
 40
6.374267941261552
 40
6.374267941261552
 40
6.374267941261552
 40
6.374267941261552
 10
149.5914101832275
 20
279.7521454873264
 10
149.4871805891628
 20
279.6022245048865
 10
149.306293499852
 20
279.2869097012843
 10
149.1838083712971
 20
278.944414908966
 10
149.1384123903132
 20
278.7705633822166
 72
     1
 10
149.1384123903132
 20
278.7705633822166
 11
149.8430708783559
 21
278.514088667246
 72
     2
 10
152.0043567046205
 20
277.7274225518016
 40
2.299999999999995
 50
200.0005245214119
 51
220.0003892831368
 73
     0
 97
        0
 92
        5
 93
        4
 72
     1
 10
149.7393028472295
 20
278.1268359004996
 11
149.0499374200948
 21
278.2483896248709
 72
     4
 94
        3
 73
     0
 74
     0
 95
        8
 96
        4
 40
6.90185906969716
 40
6.901859069697231
 40
6.901859069697231
 40
6.901859069697231
 40
7.931103290132815
 40
7.931103290132815
 40
7.931103290132815
 40
7.931103290132815
 10
149.0499374200948
 20
278.2483896248709
 10
149.0226140891941
 20
277.9046317674764
 10
149.0554165996964
 20
277.5559373679428
 10
149.1484099785384
 20
277.2238668967024
 72
     1
 10
149.1484099785384
 20
277.2238668967024
 11
149.7392946303724
 21
277.3280558033075
 72
     2
 10
152.0043567046205
 20
277.7274225518015
 40
2.300000000000002
 50
170.0006086127945
 51
190.0005701627829
 73
     0
 97
        0
 92
        5
 93
        4
 72
     1
 10
149.8430554357148
 20
276.9407988647523
 11
149.3263413447538
 21
276.7527303160168
 72
     4
 94
        3
 73
     0
 74
     0
 95
        9
 96
        5
 40
8.432718137583092
 40
8.432718137583092
 40
8.432718137583092
 40
8.432718137583092
 40
8.925785666424909
 40
9.410235616123213
 40
9.410235616123213
 40
9.410235616123213
 40
9.410235616123213
 10
149.3263413447535
 20
276.7527303160169
 10
149.3980893659054
 20
276.6039023844255
 10
149.565949125856
 20
276.3212645865589
 10
149.7811510477544
 20
276.0727015352047
 10
149.8978041665943
 20
275.9598423707078
 72
     1
 10
149.8978041665943
 20
275.9598423707078
 11
150.2424410544064
 21
276.249027056161
 72
     2
 10
152.0043567046205
 20
277.7274225518016
 40
2.30000000000001
 50
140.0005205222613
 51
160.0006002531491
 73
     0
 97
        0
 92
        5
 93
        4
 72
     1
 10
150.5259309360976
 20
275.965532303526
 11
150.2688158922147
 21
275.6591145262709
 72
     4
 94
        3
 73
     0
 74
     0
 95
        8
 96
        4
 40
9.885918137251655
 40
9.885918137251655
 40
9.885918137251655
 40
9.885918137252955
 40
10.81151323001527
 40
10.81151323001527
 40
10.81151323001527
 40
10.81151323001529
 10
150.2688158922151
 20
275.6591145262706
 10
150.526220862861
 20
275.48583718129
 10
150.8143009714961
 20
275.3572734905241
 10
151.1150929095399
 20
275.2842258952144
 72
     1
 10
151.1150929095399
 20
275.2842258952144
 11
151.2176989525388
 21
275.5661336814537
 72
     2
 10
152.0043567046205
 20
277.7274225518016
 40
2.299999999999995
 50
110.0003028084584
 51
130.0004639294549
 73
     0
 97
        0
 92
        5
 93
        4
 72
     2
 10
152.0043567046205
 20
277.7274225518016
 40
2.300000000000013
 50
79.9999999999994
 51
100.0002071331844
 73
     0
 72
     1
 10
151.6049577074516
 20
275.4623661637484
 11
151.5616891686434
 21
275.2169780862439
 72
     4
 94
        3
 73
     0
 74
     0
 95
        9
 96
        5
 40
11.26228897552139
 40
11.26228897552139
 40
11.26228897552139
 40
11.26228897552139
 40
11.70258938672921
 40
12.13276729725081
 40
12.13276729725081
 40
12.13276729725081
 40
12.13276729725081
 10
151.5616891686434
 20
275.2169780862439
 10
151.7087921972659
 20
275.2079283311906
 10
152.0016884915543
 20
275.2148264316284
 10
152.2917011229518
 20
275.2706438031954
 10
152.4303760422455
 20
275.3113468275234
 72
     1
 10
152.4303760422456
 20
275.3113468275234
 11
152.4037475132544
 21
275.4623647198735
 97
        0
 92
        5
 93
        3
 72
     4
 94
        3
 73
     0
 74
     0
 95
        8
 96
        4
 40
12.55914839783017
 40
12.55914839783017
 40
12.55914839783017
 40
12.55914839783017
 40
13.38121612665378
 40
13.38121612665378
 40
13.38121612665378
 40
13.38121612665378
 10
152.825200827039
 20
275.4721842035966
 10
153.0652120660608
 20
275.6018651694032
 10
153.2739947922999
 20
275.7836966577333
 10
153.4827775185393
 20
275.9655281460633
 72
     2
 10
152.0043567046205
 20
277.7274225518016
 40
2.299999999999998
 50
49.99969719153844
 51
69.99989483570286
 73
     0
 72
     1
 10
152.7910070012421
 20
275.566130967858
 11
152.8252008270388
 21
275.4721842035966
 97
        0
 75
     0
 76
     1
 47
0.0085310379601197
 98
        9
 10
153.7908881368718
 20
280.4770985730593
 10
152.1184262009924
 20
280.4770985730593
 10
150.735030788594
 20
280.0438396950545
 10
149.7852381883539
 20
279.1154272208945
 10
149.4135798458503
 20
277.6093367037333
 10
149.7852381883539
 20
276.5158739528649
 10
150.6937360898575
 20
275.649356196855
 10
151.9409120283794
 20
275.3417925484752
 10
152.9142190936449
 20
275.5891923207572
  0
CIRCLE
  5
668
330
617
100
AcDbEntity
  8
0
100
AcDbCircle
 10
152.0043524830557
 20
277.7274464934821
 30
0.0
 40
2.2
  0
ARC
  5
669
330
617
100
AcDbEntity
  8
0
100
AcDbCircle
 10
152.0043567046205
 20
277.7274225518016
 30
0.0
 40
2.299999999999998
100
AcDbArc
 50
139.9996107168644
 51
159.9994754785883
  0
ARC
  5
66A
330
617
100
AcDbEntity
  8
0
100
AcDbCircle
 10
152.0043567046205
 20
277.7274225518016
 30
0.0
 40
2.299999999999998
100
AcDbArc
 50
199.9993997468494
 51
219.9994794777358
  0
LINE
  5
66B
330
617
100
AcDbEntity
  8
0
100
AcDbLine
 10
150.2424410544064
 20
276.249027056161
 30
0.0
 11
149.897804166549
 21
275.9598423706695
 31
0.0
  0
SPLINE
  5
66C
330
617
100
AcDbEntity
  8
0
100
AcDbSpline
210
0.0
220
0.0
230
1.0
 70
     8
 71
     3
 72
     8
 73
     4
 74
     0
 42
0.0000000001
 43
0.0000000001
 40
3.606639951261573
 40
3.606639951261692
 40
3.606639951261692
 40
3.606639951261692
 40
4.739633177516505
 40
4.739633177516505
 40
4.739633177516505
 40
4.739633177516505
 10
150.8756941986205
 20
280.8284096442528
 30
0.0
 10
150.5319819403926
 20
280.6687718996087
 30
0.0
 10
150.215420791748
 20
280.4478746273566
 30
0.0
 10
149.9474456652988
 20
280.1787725831753
 30
0.0
  0
LINE
  5
66D
330
617
100
AcDbEntity
  8
0
100
AcDbLine
 10
150.2424645302181
 20
279.2058460248901
 30
0.0
 11
149.5914101832275
 21
279.7521454873264
 31
0.0
  0
LINE
  5
66E
330
617
100
AcDbEntity
  8
0
100
AcDbLine
 10
150.5259545140225
 20
279.4893325843614
 30
0.0
 11
149.9474456652988
 21
280.1787725831753
 31
0.0
  0
LINE
  5
66F
330
617
100
AcDbEntity
  8
0
100
AcDbLine
 10
151.3543767291485
 20
292.2774700646813
 30
0.0
 11
151.3543767291485
 21
284.7275132110886
 31
0.0
  0
ARC
  5
670
330
617
100
AcDbEntity
  8
0
100
AcDbCircle
 10
159.5543653715744
 20
291.1774407190628
 30
0.0
 40
0.3
100
AcDbArc
 50
179.9999999999983
 51
270.0
  0
LINE
  5
671
330
617
100
AcDbEntity
  8
0
100
AcDbLine
 10
159.2543653715743
 20
292.2774700646813
 30
0.0
 11
159.2543653715743
 21
291.1774407190628
 31
0.0
  0
LINE
  5
672
330
617
100
AcDbEntity
  8
0
100
AcDbLine
 10
159.5543653715744
 20
290.8774407190628
 30
0.0
 11
160.7543301048306
 21
290.8774407190628
 31
0.0
  0
ARC
  5
673
330
617
100
AcDbEntity
  8
0
100
AcDbCircle
 10
160.7543301048306
 20
290.5774407190629
 30
0.0
 40
0.3
100
AcDbArc
 50
359.9999999999933
 51
90.00000000001628
  0
ENDBLK
  5
675
330
617
100
AcDbEntity
  8
0
 62
     5
100
AcDbBlockEnd
  0
BLOCK
  5
6BA
330
6B0
100
AcDbEntity
  8
0
100
AcDbBlockBegin
  2
*D8
 70
     1
 10
0.0
 20
0.0
 30
0.0
  3
*D8
  1

  0
LINE
  5
145D
330
6B0
100
AcDbEntity
  8
0
 62
     0
370
    -2
100
AcDbLine
 10
366.6280398531988
 20
385.7503261372873
 30
0.0
 11
376.8964700163976
 21
385.7503261372873
 31
0.0
  0
LINE
  5
145E
330
6B0
100
AcDbEntity
  8
0
 62
     0
370
    -2
100
AcDbLine
 10
357.9569462107865
 20
438.7503261372875
 30
0.0
 11
376.8964700163976
 21
438.7503261372875
 31
0.0
  0
LINE
  5
145F
330
6B0
100
AcDbEntity
  8
0
 62
     0
370
    -2
100
AcDbLine
 10
374.8964700163976
 20
387.2503261372873
 30
0.0
 11
374.8964700163976
 21
437.2503261372875
 31
0.0
  0
SOLID
  5
1460
330
6B0
100
AcDbEntity
  8
0
 62
     0
100
AcDbTrace
 10
374.6464700163976
 20
387.2503261372873
 30
0.0
 11
375.1464700163976
 21
387.2503261372873
 31
0.0
 12
374.8964700163976
 22
385.7503261372873
 32
0.0
 13
374.8964700163976
 23
385.7503261372873
 33
0.0
  0
SOLID
  5
1461
330
6B0
100
AcDbEntity
  8
0
 62
     0
100
AcDbTrace
 10
374.6464700163976
 20
437.2503261372875
 30
0.0
 11
375.1464700163976
 21
437.2503261372875
 31
0.0
 12
374.8964700163976
 22
438.7503261372875
 32
0.0
 13
374.8964700163976
 23
438.7503261372875
 33
0.0
  0
MTEXT
  5
1462
330
6B0
100
AcDbEntity
  8
0
 62
     0
100
AcDbMText
 10
373.1464700163974
 20
412.2503261372873
 30
0.0
 40
1.5
 41
0.0
 71
     5
 72
     1
  1
\A1;53.0
 11
0.0000000000000001
 21
1.0
 31
0.0
 73
     1
 44
1.0
  0
POINT
  5
1463
330
6B0
100
AcDbEntity
  8
DEFPOINTS
 62
     0
100
AcDbPoint
 10
365.6280398531988
 20
385.7503261372873
 30
0.0
  0
POINT
  5
1464
330
6B0
100
AcDbEntity
  8
DEFPOINTS
 62
     0
100
AcDbPoint
 10
356.9569462107866
 20
438.7503261372875
 30
0.0
  0
POINT
  5
1465
330
6B0
100
AcDbEntity
  8
DEFPOINTS
 62
     0
100
AcDbPoint
 10
374.8964700163976
 20
438.7503261372875
 30
0.0
  0
ENDBLK
  5
6BB
330
6B0
100
AcDbEntity
  8
0
100
AcDbBlockEnd
  0
BLOCK
  5
6C6
330
6BC
100
AcDbEntity
  8
0
100
AcDbBlockBegin
  2
*D9
 70
     1
 10
0.0
 20
0.0
 30
0.0
  3
*D9
  1

  0
LINE
  5
1454
330
6BC
100
AcDbEntity
  8
0
 62
     0
370
    -2
100
AcDbLine
 10
366.6280398531988
 20
451.3503261372873
 30
0.0
 11
387.1258235482016
 21
451.3503261372871
 31
0.0
  0
LINE
  5
1455
330
6BC
100
AcDbEntity
  8
0
 62
     0
370
    -2
100
AcDbLine
 10
366.6280398531988
 20
385.7503261372873
 30
0.0
 11
387.1258235482016
 21
385.7503261372872
 31
0.0
  0
LINE
  5
1456
330
6BC
100
AcDbEntity
  8
0
 62
     0
370
    -2
100
AcDbLine
 10
385.1258235482016
 20
449.8503261372873
 30
0.0
 11
385.1258235482016
 21
387.2503261372872
 31
0.0
  0
SOLID
  5
1457
330
6BC
100
AcDbEntity
  8
0
 62
     0
100
AcDbTrace
 10
384.8758235482016
 20
449.8503261372873
 30
0.0
 11
385.3758235482016
 21
449.8503261372873
 31
0.0
 12
385.1258235482016
 22
451.3503261372871
 32
0.0
 13
385.1258235482016
 23
451.3503261372871
 33
0.0
  0
SOLID
  5
1458
330
6BC
100
AcDbEntity
  8
0
 62
     0
100
AcDbTrace
 10
384.8758235482016
 20
387.2503261372872
 30
0.0
 11
385.3758235482016
 21
387.2503261372872
 31
0.0
 12
385.1258235482016
 22
385.7503261372872
 32
0.0
 13
385.1258235482016
 23
385.7503261372872
 33
0.0
  0
MTEXT
  5
1459
330
6BC
100
AcDbEntity
  8
0
 62
     0
100
AcDbMText
 10
383.3758235482016
 20
418.5503261372875
 30
0.0
 40
1.5
 41
0.0
 71
     5
 72
     1
  1
\A1;65.6
 11
0.0000000000000001
 21
1.0
 31
0.0
 73
     1
 44
1.0
  0
POINT
  5
145A
330
6BC
100
AcDbEntity
  8
DEFPOINTS
 62
     0
100
AcDbPoint
 10
365.6280398531988
 20
451.3503261372873
 30
0.0
  0
POINT
  5
145B
330
6BC
100
AcDbEntity
  8
DEFPOINTS
 62
     0
100
AcDbPoint
 10
365.6280398531988
 20
385.7503261372873
 30
0.0
  0
POINT
  5
145C
330
6BC
100
AcDbEntity
  8
DEFPOINTS
 62
     0
100
AcDbPoint
 10
385.1258235482016
 20
385.7503261372872
 30
0.0
  0
ENDBLK
  5
6C7
330
6BC
100
AcDbEntity
  8
0
100
AcDbBlockEnd
  0
BLOCK
  5
713
330
709
100
AcDbEntity
  8
0
 62
     5
100
AcDbBlockBegin
  2
*D10
 70
     1
 10
0.0
 20
0.0
 30
0.0
  3
*D10
  1

  0
LINE
  5
A72
330
709
100
AcDbEntity
  8
0
 62
     0
370
    -2
100
AcDbLine
 10
365.7641319333051
 20
468.5503261372868
 30
0.0
 11
416.2242412597488
 21
468.5503261372867
 31
0.0
  0
LINE
  5
A73
330
709
100
AcDbEntity
  8
0
 62
     0
370
    -2
100
AcDbLine
 10
355.4141319333051
 20
368.5503261372868
 30
0.0
 11
416.2242412597488
 21
368.5503261372868
 31
0.0
  0
LINE
  5
A74
330
709
100
AcDbEntity
  8
0
 62
     0
370
    -2
100
AcDbLine
 10
413.224241259749
 20
466.5503261372868
 30
0.0
 11
413.224241259749
 21
370.5503261372868
 31
0.0
  0
SOLID
  5
A75
330
709
100
AcDbEntity
  8
0
 62
     0
100
AcDbTrace
 10
412.8909079264157
 20
466.5503261372868
 30
0.0
 11
413.5575745930823
 21
466.5503261372868
 31
0.0
 12
413.224241259749
 22
468.5503261372867
 32
0.0
 13
413.224241259749
 23
468.5503261372867
 33
0.0
  0
SOLID
  5
A76
330
709
100
AcDbEntity
  8
0
 62
     0
100
AcDbTrace
 10
412.8909079264156
 20
370.5503261372868
 30
0.0
 11
413.5575745930823
 21
370.5503261372868
 31
0.0
 12
413.224241259749
 22
368.5503261372868
 32
0.0
 13
413.224241259749
 23
368.5503261372868
 33
0.0
  0
MTEXT
  5
A77
330
709
100
AcDbEntity
  8
0
 62
     0
100
AcDbMText
 10
410.7242412597488
 20
418.5503261372868
 30
0.0
 40
3.0
 41
0.0
 71
     5
 72
     1
  1
\A1;100
 11
0.0000000000000001
 21
1.0
 31
0.0
 73
     1
 44
1.0
1001
ACAD
1000
MTEXTBEGIN
1070
    73
1070
     1
1070
    44
1040
1.0
1070
    74
1070
     0
1000
MTEXTEND
  0
POINT
  5
A78
330
709
100
AcDbEntity
  8
DEFPOINTS
 62
     0
100
AcDbPoint
 10
364.7641319333053
 20
468.5503261372868
 30
0.0
  0
POINT
  5
A79
330
709
100
AcDbEntity
  8
DEFPOINTS
 62
     0
100
AcDbPoint
 10
354.4141319333052
 20
368.5503261372868
 30
0.0
  0
POINT
  5
A7A
330
709
100
AcDbEntity
  8
DEFPOINTS
 62
     0
100
AcDbPoint
 10
413.224241259749
 20
368.5503261372868
 30
0.0
  0
ENDBLK
  5
714
330
709
100
AcDbEntity
  8
0
 62
     5
100
AcDbBlockEnd
  0
BLOCK
  5
729
330
71F
100
AcDbEntity
  8
0
 62
     5
100
AcDbBlockBegin
  2
*D11
 70
     1
 10
0.0
 20
0.0
 30
0.0
  3
*D11
  1

  0
LINE
  5
A7B
330
71F
100
AcDbEntity
  8
0
 62
     0
370
    -2
100
AcDbLine
 10
365.7741319333052
 20
463.5503261372869
 30
0.0
 11
408.4338938567559
 21
463.5503261372869
 31
0.0
  0
LINE
  5
A7C
330
71F
100
AcDbEntity
  8
0
 62
     0
370
    -2
100
AcDbLine
 10
353.7141319333052
 20
373.5503261372869
 30
0.0
 11
408.4338938567559
 21
373.5503261372869
 31
0.0
  0
LINE
  5
A7D
330
71F
100
AcDbEntity
  8
0
 62
     0
370
    -2
100
AcDbLine
 10
405.4338938567559
 20
461.5503261372869
 30
0.0
 11
405.4338938567559
 21
375.5503261372869
 31
0.0
  0
SOLID
  5
A7E
330
71F
100
AcDbEntity
  8
0
 62
     0
100
AcDbTrace
 10
405.1005605234226
 20
461.5503261372869
 30
0.0
 11
405.7672271900893
 21
461.5503261372869
 31
0.0
 12
405.4338938567559
 22
463.5503261372869
 32
0.0
 13
405.4338938567559
 23
463.5503261372869
 33
0.0
  0
SOLID
  5
A7F
330
71F
100
AcDbEntity
  8
0
 62
     0
100
AcDbTrace
 10
405.1005605234226
 20
375.5503261372869
 30
0.0
 11
405.7672271900892
 21
375.5503261372869
 31
0.0
 12
405.4338938567559
 22
373.5503261372869
 32
0.0
 13
405.4338938567559
 23
373.5503261372869
 33
0.0
  0
MTEXT
  5
A80
330
71F
100
AcDbEntity
  8
0
 62
     0
100
AcDbMText
 10
402.9338938567558
 20
418.550326137287
 30
0.0
 40
3.0
 41
0.0
 71
     5
 72
     1
  1
\A1;90
 11
0.0000000000000001
 21
1.0
 31
0.0
 73
     1
 44
1.0
1001
ACAD
1000
MTEXTBEGIN
1070
    73
1070
     1
1070
    44
1040
1.0
1070
    74
1070
     0
1000
MTEXTEND
  0
POINT
  5
A81
330
71F
100
AcDbEntity
  8
DEFPOINTS
 62
     0
100
AcDbPoint
 10
364.7741319333052
 20
463.5503261372869
 30
0.0
  0
POINT
  5
A82
330
71F
100
AcDbEntity
  8
DEFPOINTS
 62
     0
100
AcDbPoint
 10
352.7141319333052
 20
373.5503261372869
 30
0.0
  0
POINT
  5
A83
330
71F
100
AcDbEntity
  8
DEFPOINTS
 62
     0
100
AcDbPoint
 10
405.4338938567559
 20
373.5503261372869
 30
0.0
  0
ENDBLK
  5
72A
330
71F
100
AcDbEntity
  8
0
 62
     5
100
AcDbBlockEnd
  0
BLOCK
  5
73F
330
735
100
AcDbEntity
  8
0
 62
     5
100
AcDbBlockBegin
  2
*D12
 70
     1
 10
0.0
 20
0.0
 30
0.0
  3
*D12
  1

  0
LINE
  5
A84
330
735
100
AcDbEntity
  8
0
 62
     0
370
    -2
100
AcDbLine
 10
367.7641319333051
 20
457.3503261372873
 30
0.0
 11
398.9572500558521
 21
457.3503261372872
 31
0.0
  0
LINE
  5
A85
330
735
100
AcDbEntity
  8
0
 62
     0
370
    -2
100
AcDbLine
 10
367.7641319333051
 20
379.7503261372872
 30
0.0
 11
398.9572500558521
 21
379.7503261372872
 31
0.0
  0
LINE
  5
A86
330
735
100
AcDbEntity
  8
0
 62
     0
370
    -2
100
AcDbLine
 10
395.9572500558522
 20
455.3503261372871
 30
0.0
 11
395.9572500558521
 21
381.7503261372872
 31
0.0
  0
SOLID
  5
A87
330
735
100
AcDbEntity
  8
0
 62
     0
100
AcDbTrace
 10
395.6239167225188
 20
455.3503261372871
 30
0.0
 11
396.2905833891854
 21
455.3503261372871
 31
0.0
 12
395.9572500558522
 22
457.3503261372872
 32
0.0
 13
395.9572500558522
 23
457.3503261372872
 33
0.0
  0
SOLID
  5
A88
330
735
100
AcDbEntity
  8
0
 62
     0
100
AcDbTrace
 10
395.6239167225188
 20
381.7503261372872
 30
0.0
 11
396.2905833891854
 21
381.7503261372872
 31
0.0
 12
395.9572500558521
 22
379.7503261372872
 32
0.0
 13
395.9572500558521
 23
379.7503261372872
 33
0.0
  0
MTEXT
  5
A89
330
735
100
AcDbEntity
  8
0
 62
     0
100
AcDbMText
 10
393.4572500558521
 20
418.5503261372873
 30
0.0
 40
3.0
 41
0.0
 71
     5
 72
     1
  1
\A1;78
 11
0.0000000000000001
 21
1.0
 31
0.0
 73
     1
 44
1.0
1001
ACAD
1000
MTEXTBEGIN
1070
    73
1070
     1
1070
    44
1040
1.0
1070
    74
1070
     0
1000
MTEXTEND
  0
POINT
  5
A8A
330
735
100
AcDbEntity
  8
DEFPOINTS
 62
     0
100
AcDbPoint
 10
366.7641319333053
 20
457.3503261372873
 30
0.0
  0
POINT
  5
A8B
330
735
100
AcDbEntity
  8
DEFPOINTS
 62
     0
100
AcDbPoint
 10
366.7641319333053
 20
379.7503261372872
 30
0.0
  0
POINT
  5
A8C
330
735
100
AcDbEntity
  8
DEFPOINTS
 62
     0
100
AcDbPoint
 10
395.9572500558521
 20
379.7503261372872
 30
0.0
  0
ENDBLK
  5
740
330
735
100
AcDbEntity
  8
0
 62
     5
100
AcDbBlockEnd
  0
BLOCK
  5
754
330
74B
100
AcDbEntity
  8
0
 62
     5
100
AcDbBlockBegin
  2
*D13
 70
     1
 10
0.0
 20
0.0
 30
0.0
  3
*D13
  1

  0
LINE
  5
D87
330
74B
100
AcDbEntity
  8
0
 62
     0
370
    -2
100
AcDbLine
 10
393.5119432763816
 20
475.5941994288053
 30
0.0
 11
371.7619432763811
 21
475.5941994288053
 31
0.0
  0
LINE
  5
D88
330
74B
100
AcDbEntity
  8
0
 62
     0
370
    -2
100
AcDbLine
 10
371.7619432763811
 20
475.5941994288053
 30
0.0
 11
364.2669738632934
 21
466.8198878745998
 31
0.0
  0
MTEXT
  5
D89
102
{ACAD_XDICTIONARY
360
EA9
102
}
330
74B
100
AcDbEntity
  8
0
 62
     0
100
AcDbMText
 10
386.0119432763818
 20
478.0941994288053
 30
0.0
 40
3.0
 41
0.0
 71
     5
 72
     1
  1
\A1;2-\U+22054.6
 73
     1
 44
1.0
1001
ACAD
1000
MTEXTBEGIN
1070
    73
1070
     1
1070
    44
1040
1.0
1070
    74
1070
     0
1000
MTEXTEND
  0
SOLID
  5
D8A
330
74B
100
AcDbEntity
  8
0
 62
     0
100
AcDbTrace
 10
364.013519465052
 20
467.0363872490177
 30
0.0
 11
364.5204282615346
 21
466.6033885001823
 31
0.0
 12
362.9679776167873
 22
465.2991614851521
 32
0.0
 13
362.9679776167873
 23
465.2991614851521
 33
0.0
  0
LINE
  5
D8B
330
74B
100
AcDbEntity
  8
0
 62
     0
370
    -2
100
AcDbLine
 10
361.3841319333053
 20
463.5503261372869
 30
0.0
 11
361.5641319333052
 21
463.5503261372869
 31
0.0
  0
LINE
  5
D8C
330
74B
100
AcDbEntity
  8
0
 62
     0
370
    -2
100
AcDbLine
 10
361.4741319333052
 20
463.4603261372872
 30
0.0
 11
361.4741319333052
 21
463.6403261372869
 31
0.0
  0
POINT
  5
D8D
330
74B
100
AcDbEntity
  8
DEFPOINTS
 62
     0
100
AcDbPoint
 10
362.9679776167873
 20
465.2991614851521
 30
0.0
  0
POINT
  5
D8E
330
74B
100
AcDbEntity
  8
DEFPOINTS
 62
     0
100
AcDbPoint
 10
359.9802862498231
 20
461.8014907894218
 30
0.0
  0
ENDBLK
  5
755
330
74B
100
AcDbEntity
  8
0
 62
     5
100
AcDbBlockEnd
  0
BLOCK
  5
760
330
757
100
AcDbEntity
  8
0
 62
     5
100
AcDbBlockBegin
  2
*D14
 70
     1
 10
0.0
 20
0.0
 30
0.0
  3
*D14
  1

  0
LINE
  5
AAE
330
757
100
AcDbEntity
  8
0
 62
     0
370
    -2
100
AcDbLine
 10
327.7018831782223
 20
480.0644116119943
 30
0.0
 11
346.4518831782222
 21
480.0644116119943
 31
0.0
  0
LINE
  5
AAF
330
757
100
AcDbEntity
  8
0
 62
     0
370
    -2
100
AcDbLine
 10
346.4518831782222
 20
480.0644116119943
 30
0.0
 11
349.5174785614966
 21
467.7234963694626
 31
0.0
  0
MTEXT
  5
AB0
102
{ACAD_XDICTIONARY
360
EA7
102
}
330
757
100
AcDbEntity
  8
0
 62
     0
100
AcDbMText
 10
332.2018831782223
 20
482.5644116119943
 30
0.0
 40
3.0
 41
0.0
 71
     5
 72
     1
  1
\A1;\U+22054.6
 73
     1
 44
1.0
1001
ACAD
1000
MTEXTBEGIN
1070
    73
1070
     1
1070
    44
1040
1.0
1070
    74
1070
     0
1000
MTEXTEND
  0
SOLID
  5
AB1
330
757
100
AcDbEntity
  8
0
 62
     0
100
AcDbTrace
 10
349.8409801298822
 20
467.8038570959595
 30
0.0
 11
349.1939769931108
 21
467.6431356429658
 31
0.0
 12
349.9996429204775
 22
465.7824869591483
 32
0.0
 13
349.9996429204775
 23
465.7824869591483
 33
0.0
  0
LINE
  5
AB2
330
757
100
AcDbEntity
  8
0
 62
     0
370
    -2
100
AcDbLine
 10
350.4641319333055
 20
463.5503261372869
 30
0.0
 11
350.6441319333055
 21
463.5503261372869
 31
0.0
  0
LINE
  5
AB3
330
757
100
AcDbEntity
  8
0
 62
     0
370
    -2
100
AcDbLine
 10
350.5541319333055
 20
463.4603261372872
 30
0.0
 11
350.5541319333055
 21
463.6403261372869
 31
0.0
  0
POINT
  5
AB4
330
757
100
AcDbEntity
  8
DEFPOINTS
 62
     0
100
AcDbPoint
 10
349.9996429204775
 20
465.7824869591483
 30
0.0
  0
POINT
  5
AB5
330
757
100
AcDbEntity
  8
DEFPOINTS
 62
     0
100
AcDbPoint
 10
351.1086209461333
 20
461.3181653154255
 30
0.0
  0
ENDBLK
  5
761
330
757
100
AcDbEntity
  8
0
 62
     5
100
AcDbBlockEnd
  0
BLOCK
  5
76D
330
763
100
AcDbEntity
  8
0
 62
     5
100
AcDbBlockBegin
  2
*D15
 70
     1
 10
0.0
 20
0.0
 30
0.0
  3
*D15
  1

  0
LINE
  5
AB6
330
763
100
AcDbEntity
  8
0
 62
     0
370
    -2
100
AcDbLine
 10
361.4741319333052
 20
467.8503261372868
 30
0.0
 11
361.4741319333052
 21
481.4462539005746
 31
0.0
  0
LINE
  5
AB7
330
763
100
AcDbEntity
  8
0
 62
     0
370
    -2
100
AcDbLine
 10
350.5541319333052
 20
467.8503261372868
 30
0.0
 11
350.5541319333052
 21
481.4462539005746
 31
0.0
  0
LINE
  5
AB8
330
763
100
AcDbEntity
  8
0
 62
     0
370
    -2
100
AcDbLine
 10
359.4741319333052
 20
478.4462539005747
 30
0.0
 11
352.5541319333052
 21
478.4462539005747
 31
0.0
  0
SOLID
  5
AB9
330
763
100
AcDbEntity
  8
0
 62
     0
100
AcDbTrace
 10
359.4741319333052
 20
478.779587233908
 30
0.0
 11
359.4741319333052
 21
478.1129205672413
 31
0.0
 12
361.4741319333052
 22
478.4462539005747
 32
0.0
 13
361.4741319333052
 23
478.4462539005747
 33
0.0
  0
SOLID
  5
ABA
330
763
100
AcDbEntity
  8
0
 62
     0
100
AcDbTrace
 10
352.5541319333052
 20
478.779587233908
 30
0.0
 11
352.5541319333052
 21
478.1129205672413
 31
0.0
 12
350.5541319333052
 22
478.4462539005747
 32
0.0
 13
350.5541319333052
 23
478.4462539005747
 33
0.0
  0
MTEXT
  5
ABB
330
763
100
AcDbEntity
  8
0
 62
     0
100
AcDbMText
 10
356.0141319333051
 20
480.9462539005746
 30
0.0
 40
3.0
 41
0.0
 71
     5
 72
     1
  1
\A1;10.8
 73
     1
 44
1.0
1001
ACAD
1000
MTEXTBEGIN
1070
    73
1070
     1
1070
    44
1040
1.0
1070
    74
1070
     0
1000
MTEXTEND
  0
POINT
  5
ABC
330
763
100
AcDbEntity
  8
DEFPOINTS
 62
     0
100
AcDbPoint
 10
361.4741319333052
 20
466.8503261372868
 30
0.0
  0
POINT
  5
ABD
330
763
100
AcDbEntity
  8
DEFPOINTS
 62
     0
100
AcDbPoint
 10
350.5541319333052
 20
466.8503261372868
 30
0.0
  0
POINT
  5
ABE
330
763
100
AcDbEntity
  8
DEFPOINTS
 62
     0
100
AcDbPoint
 10
350.5541319333052
 20
478.4462539005747
 30
0.0
  0
ENDBLK
  5
76E
330
763
100
AcDbEntity
  8
0
 62
     5
100
AcDbBlockEnd
  0
BLOCK
  5
835
330
82B
100
AcDbEntity
  8
0
 62
     5
100
AcDbBlockBegin
  2
*D16
 70
     1
 10
0.0
 20
0.0
 30
0.0
  3
*D16
  1

  0
LINE
  5
1439
330
82B
100
AcDbEntity
  8
0
 62
     0
370
    -2
100
AcDbLine
 10
299.8613477013167
 20
230.6359689187303
 30
0.0
 11
299.8613477013167
 21
332.930280483212
 31
0.0
  0
LINE
  5
143A
330
82B
100
AcDbEntity
  8
0
 62
     0
370
    -2
100
AcDbLine
 10
310.7713477013168
 20
320.1359689187302
 30
0.0
 11
310.7713477013168
 21
332.930280483212
 31
0.0
  0
LINE
  5
143B
330
82B
100
AcDbEntity
  8
0
 62
     0
370
    -2
100
AcDbLine
 10
301.3613477013166
 20
330.930280483212
 30
0.0
 11
309.2713477013168
 21
330.930280483212
 31
0.0
  0
SOLID
  5
143C
330
82B
100
AcDbEntity
  8
0
 62
     0
100
AcDbTrace
 10
301.3613477013166
 20
331.180280483212
 30
0.0
 11
301.3613477013166
 21
330.680280483212
 31
0.0
 12
299.8613477013167
 22
330.930280483212
 32
0.0
 13
299.8613477013167
 23
330.930280483212
 33
0.0
  0
SOLID
  5
143D
330
82B
100
AcDbEntity
  8
0
 62
     0
100
AcDbTrace
 10
309.2713477013168
 20
331.180280483212
 30
0.0
 11
309.2713477013168
 21
330.680280483212
 31
0.0
 12
310.7713477013168
 22
330.930280483212
 32
0.0
 13
310.7713477013168
 23
330.930280483212
 33
0.0
  0
MTEXT
  5
143E
330
82B
100
AcDbEntity
  8
0
 62
     0
100
AcDbMText
 10
305.3163477013166
 20
332.680280483212
 30
0.0
 40
1.5
 41
0.0
 71
     5
 72
     1
  1
\A1;10.8
 73
     1
 44
1.0
  0
POINT
  5
143F
330
82B
100
AcDbEntity
  8
DEFPOINTS
 62
     0
100
AcDbPoint
 10
299.8613477013167
 20
229.6359689187303
 30
0.0
  0
POINT
  5
1440
330
82B
100
AcDbEntity
  8
DEFPOINTS
 62
     0
100
AcDbPoint
 10
310.7713477013168
 20
319.1359689187302
 30
0.0
  0
POINT
  5
1441
330
82B
100
AcDbEntity
  8
DEFPOINTS
 62
     0
100
AcDbPoint
 10
310.7713477013168
 20
330.930280483212
 30
0.0
  0
ENDBLK
  5
836
330
82B
100
AcDbEntity
  8
0
 62
     5
100
AcDbBlockEnd
  0
BLOCK
  5
978
330
977
100
AcDbEntity
  8
0
 62
     5
100
AcDbBlockBegin
  2
*D17
 70
     1
 10
0.0
 20
0.0
 30
0.0
  3
*D17
  1

  0
LINE
  5
97A
330
977
100
AcDbEntity
  8
0
 62
     0
370
    -2
100
AcDbLine
 10
170.9569793447944
 20
479.0401484576157
 30
0.0
 11
170.9569793447944
 21
465.1624301943295
 31
0.0
  0
LINE
  5
97B
330
977
100
AcDbEntity
  8
0
 62
     0
370
    -2
100
AcDbLine
 10
307.6444793447943
 20
489.7745933643073
 30
0.0
 11
307.6444793447943
 21
465.1624301943295
 31
0.0
  0
LINE
  5
97C
330
977
100
AcDbEntity
  8
0
 62
     0
370
    -2
100
AcDbLine
 10
172.9569793447945
 20
468.1624301943295
 30
0.0
 11
305.6444793447945
 21
468.1624301943295
 31
0.0
  0
SOLID
  5
97D
330
977
100
AcDbEntity
  8
0
 62
     0
100
AcDbTrace
 10
172.9569793447945
 20
468.4957635276628
 30
0.0
 11
172.9569793447945
 21
467.8290968609961
 31
0.0
 12
170.9569793447944
 22
468.1624301943295
 32
0.0
 13
170.9569793447944
 23
468.1624301943295
 33
0.0
  0
SOLID
  5
97E
330
977
100
AcDbEntity
  8
0
 62
     0
100
AcDbTrace
 10
305.6444793447945
 20
468.4957635276628
 30
0.0
 11
305.6444793447945
 21
467.8290968609961
 31
0.0
 12
307.6444793447943
 22
468.1624301943295
 32
0.0
 13
307.6444793447943
 23
468.1624301943295
 33
0.0
  0
MTEXT
  5
97F
330
977
100
AcDbEntity
  8
0
 62
     0
100
AcDbMText
 10
239.3007293447943
 20
470.6624301943295
 30
0.0
 40
3.0
 41
0.0
 71
     5
 72
     1
  1
\A1;136.7
 73
     1
 44
1.0
1001
ACAD
1000
MTEXTBEGIN
1070
    73
1070
     1
1070
    44
1040
1.0
1070
    74
1070
     0
1000
MTEXTEND
  0
POINT
  5
980
330
977
100
AcDbEntity
  8
DEFPOINTS
 62
     0
100
AcDbPoint
 10
170.9569793447944
 20
480.0401484576158
 30
0.0
  0
POINT
  5
981
330
977
100
AcDbEntity
  8
DEFPOINTS
 62
     0
100
AcDbPoint
 10
307.6444793447943
 20
490.7745933643073
 30
0.0
  0
POINT
  5
982
330
977
100
AcDbEntity
  8
DEFPOINTS
 62
     0
100
AcDbPoint
 10
307.6444793447943
 20
468.1624301943295
 30
0.0
  0
ENDBLK
  5
979
330
977
100
AcDbEntity
  8
0
 62
     5
100
AcDbBlockEnd
  0
BLOCK
  5
9B2
330
9B1
100
AcDbEntity
  8
0
 62
     5
100
AcDbBlockBegin
  2
*D18
 70
     1
 10
0.0
 20
0.0
 30
0.0
  3
*D18
  1

  0
LINE
  5
1442
330
9B1
100
AcDbEntity
  8
0
 62
     0
370
    -2
100
AcDbLine
 10
261.9069793447942
 20
488.3012830821492
 30
0.0
 11
261.9069793447942
 21
525.0941897689147
 31
0.0
  0
LINE
  5
1443
330
9B1
100
AcDbEntity
  8
0
 62
     0
370
    -2
100
AcDbLine
 10
170.9569793447944
 20
502.4401485529833
 30
0.0
 11
170.9569793447944
 21
525.0941897689147
 31
0.0
  0
LINE
  5
1444
330
9B1
100
AcDbEntity
  8
0
 62
     0
370
    -2
100
AcDbLine
 10
260.4069793447943
 20
523.0941897689147
 30
0.0
 11
172.4569793447943
 21
523.0941897689147
 31
0.0
  0
SOLID
  5
1445
330
9B1
100
AcDbEntity
  8
0
 62
     0
100
AcDbTrace
 10
260.4069793447943
 20
523.3441897689147
 30
0.0
 11
260.4069793447943
 21
522.8441897689147
 31
0.0
 12
261.9069793447942
 22
523.0941897689147
 32
0.0
 13
261.9069793447942
 23
523.0941897689147
 33
0.0
  0
SOLID
  5
1446
330
9B1
100
AcDbEntity
  8
0
 62
     0
100
AcDbTrace
 10
172.4569793447943
 20
523.3441897689147
 30
0.0
 11
172.4569793447943
 21
522.8441897689147
 31
0.0
 12
170.9569793447944
 22
523.0941897689147
 32
0.0
 13
170.9569793447944
 23
523.0941897689147
 33
0.0
  0
MTEXT
  5
1447
330
9B1
100
AcDbEntity
  8
0
 62
     0
100
AcDbMText
 10
216.4319793447944
 20
524.8441897689145
 30
0.0
 40
1.5
 41
0.0
 71
     5
 72
     1
  1
\A1;91.0
 73
     1
 44
1.0
  0
POINT
  5
1448
330
9B1
100
AcDbEntity
  8
DEFPOINTS
 62
     0
100
AcDbPoint
 10
261.9069793447942
 20
487.3012830821492
 30
0.0
  0
POINT
  5
1449
330
9B1
100
AcDbEntity
  8
DEFPOINTS
 62
     0
100
AcDbPoint
 10
170.9569793447944
 20
501.4401485529833
 30
0.0
  0
POINT
  5
144A
330
9B1
100
AcDbEntity
  8
DEFPOINTS
 62
     0
100
AcDbPoint
 10
170.9569793447944
 20
523.0941897689147
 30
0.0
  0
ENDBLK
  5
9B3
330
9B1
100
AcDbEntity
  8
0
 62
     5
100
AcDbBlockEnd
  0
BLOCK
  5
9BE
330
9BD
100
AcDbEntity
  8
0
 62
     5
100
AcDbBlockBegin
  2
*D19
 70
     1
 10
0.0
 20
0.0
 30
0.0
  3
*D19
  1

  0
LINE
  5
144B
330
9BD
100
AcDbEntity
  8
0
 62
     0
370
    -2
100
AcDbLine
 10
257.5569793447945
 20
498.8745933643074
 30
0.0
 11
257.5569793447945
 21
514.111889740771
 31
0.0
  0
LINE
  5
144C
330
9BD
100
AcDbEntity
  8
0
 62
     0
370
    -2
100
AcDbLine
 10
170.9569793447944
 20
502.4401485529833
 30
0.0
 11
170.9569793447944
 21
514.111889740771
 31
0.0
  0
LINE
  5
144D
330
9BD
100
AcDbEntity
  8
0
 62
     0
370
    -2
100
AcDbLine
 10
256.0569793447945
 20
512.111889740771
 30
0.0
 11
172.4569793447943
 21
512.111889740771
 31
0.0
  0
SOLID
  5
144E
330
9BD
100
AcDbEntity
  8
0
 62
     0
100
AcDbTrace
 10
256.0569793447945
 20
512.361889740771
 30
0.0
 11
256.0569793447945
 21
511.861889740771
 31
0.0
 12
257.5569793447945
 22
512.111889740771
 32
0.0
 13
257.5569793447945
 23
512.111889740771
 33
0.0
  0
SOLID
  5
144F
330
9BD
100
AcDbEntity
  8
0
 62
     0
100
AcDbTrace
 10
172.4569793447943
 20
512.361889740771
 30
0.0
 11
172.4569793447943
 21
511.861889740771
 31
0.0
 12
170.9569793447944
 22
512.111889740771
 32
0.0
 13
170.9569793447944
 23
512.111889740771
 33
0.0
  0
MTEXT
  5
1450
330
9BD
100
AcDbEntity
  8
0
 62
     0
100
AcDbMText
 10
214.2569793447945
 20
513.861889740771
 30
0.0
 40
1.5
 41
0.0
 71
     5
 72
     1
  1
\A1;86.6
 73
     1
 44
1.0
  0
POINT
  5
1451
330
9BD
100
AcDbEntity
  8
DEFPOINTS
 62
     0
100
AcDbPoint
 10
257.5569793447945
 20
497.8745933643074
 30
0.0
  0
POINT
  5
1452
330
9BD
100
AcDbEntity
  8
DEFPOINTS
 62
     0
100
AcDbPoint
 10
170.9569793447944
 20
501.4401485529833
 30
0.0
  0
POINT
  5
1453
330
9BD
100
AcDbEntity
  8
DEFPOINTS
 62
     0
100
AcDbPoint
 10
170.9569793447944
 20
512.111889740771
 30
0.0
  0
ENDBLK
  5
9BF
330
9BD
100
AcDbEntity
  8
0
 62
     5
100
AcDbBlockEnd
  0
BLOCK
  5
9E8
330
9E7
100
AcDbEntity
  8
0
 62
     5
100
AcDbBlockBegin
  2
*D20
 70
     1
 10
0.0
 20
0.0
 30
0.0
  3
*D20
  1

  0
LINE
  5
9EA
330
9E7
100
AcDbEntity
  8
0
 62
     0
370
    -2
100
AcDbLine
 10
173.4569793447943
 20
468.5503261372868
 30
0.0
 11
439.7879918712722
 21
468.5503261372867
 31
0.0
  0
LINE
  5
9EB
330
9E7
100
AcDbEntity
  8
0
 62
     0
370
    -2
100
AcDbLine
 10
357.0141319333052
 20
469.1305449594667
 30
0.0
 11
439.7879918712722
 21
469.1305449594666
 31
0.0
  0
LINE
  5
9EC
330
9E7
100
AcDbEntity
  8
0
 62
     0
370
    -2
100
AcDbLine
 10
436.7879918712722
 20
466.5503261372868
 30
0.0
 11
436.7879918712722
 21
464.5503261372867
 31
0.0
  0
LINE
  5
9ED
330
9E7
100
AcDbEntity
  8
0
 62
     0
370
    -2
100
AcDbLine
 10
436.7879918712722
 20
471.1305449594666
 30
0.0
 11
436.7879918712722
 21
473.1305449594666
 31
0.0
  0
LINE
  5
9EE
330
9E7
100
AcDbEntity
  8
0
 62
     0
370
    -2
100
AcDbLine
 10
436.7879918712722
 20
473.1305449594666
 30
0.0
 11
443.2879918712721
 21
473.1305449594666
 31
0.0
  0
SOLID
  5
9EF
330
9E7
100
AcDbEntity
  8
0
 62
     0
100
AcDbTrace
 10
436.4546585379388
 20
466.5503261372868
 30
0.0
 11
437.1213252046055
 21
466.5503261372868
 31
0.0
 12
436.7879918712722
 22
468.5503261372867
 32
0.0
 13
436.7879918712722
 23
468.5503261372867
 33
0.0
  0
SOLID
  5
9F0
330
9E7
100
AcDbEntity
  8
0
 62
     0
100
AcDbTrace
 10
436.4546585379388
 20
471.1305449594666
 30
0.0
 11
437.1213252046055
 21
471.1305449594666
 31
0.0
 12
436.7879918712722
 22
469.1305449594666
 32
0.0
 13
436.7879918712722
 23
469.1305449594666
 33
0.0
  0
MTEXT
  5
9F1
330
9E7
100
AcDbEntity
  8
0
 62
     0
100
AcDbMText
 10
440.5379918712721
 20
475.6305449594667
 30
0.0
 40
3.0
 41
0.0
 71
     5
 72
     1
  1
\A1;0.6
 73
     1
 44
1.0
1001
ACAD
1000
MTEXTBEGIN
1070
    73
1070
     1
1070
    44
1040
1.0
1070
    74
1070
     0
1000
MTEXTEND
  0
POINT
  5
9F2
330
9E7
100
AcDbEntity
  8
DEFPOINTS
 62
     0
100
AcDbPoint
 10
172.4569793447943
 20
468.5503261372868
 30
0.0
  0
POINT
  5
9F3
330
9E7
100
AcDbEntity
  8
DEFPOINTS
 62
     0
100
AcDbPoint
 10
356.0141319333053
 20
469.1305449594667
 30
0.0
  0
POINT
  5
9F4
330
9E7
100
AcDbEntity
  8
DEFPOINTS
 62
     0
100
AcDbPoint
 10
436.7879918712722
 20
469.1305449594666
 30
0.0
  0
ENDBLK
  5
9E9
330
9E7
100
AcDbEntity
  8
0
 62
     5
100
AcDbBlockEnd
  0
BLOCK
  5
F44
330
F3A
100
AcDbEntity
  8
0
100
AcDbBlockBegin
  2
*D21
 70
     1
 10
0.0
 20
0.0
 30
0.0
  3
*D21
  1

  0
LINE
  5
F3B
330
F3A
100
AcDbEntity
  8
0
 62
     0
370
    -2
100
AcDbLine
 10
493.8020564142369
 20
443.4904333935929
 30
0.0
 11
493.8020564142369
 21
454.4555458695627
 31
0.0
  0
LINE
  5
F3C
330
F3A
100
AcDbEntity
  8
0
 62
     0
370
    -2
100
AcDbLine
 10
534.8020564142366
 20
443.4904333935929
 30
0.0
 11
534.8020564142366
 21
454.4555458695627
 31
0.0
  0
LINE
  5
F3D
330
F3A
100
AcDbEntity
  8
0
 62
     0
370
    -2
100
AcDbLine
 10
495.8020564142369
 20
451.4555458695626
 30
0.0
 11
532.8020564142366
 21
451.4555458695626
 31
0.0
  0
SOLID
  5
F3E
330
F3A
100
AcDbEntity
  8
0
 62
     0
100
AcDbTrace
 10
495.8020564142369
 20
451.7888792028959
 30
0.0
 11
495.8020564142369
 21
451.1222125362293
 31
0.0
 12
493.8020564142369
 22
451.4555458695626
 32
0.0
 13
493.8020564142369
 23
451.4555458695626
 33
0.0
  0
SOLID
  5
F3F
330
F3A
100
AcDbEntity
  8
0
 62
     0
100
AcDbTrace
 10
532.8020564142366
 20
451.7888792028959
 30
0.0
 11
532.8020564142366
 21
451.1222125362293
 31
0.0
 12
534.8020564142366
 22
451.4555458695626
 32
0.0
 13
534.8020564142366
 23
451.4555458695626
 33
0.0
  0
MTEXT
  5
F40
330
F3A
100
AcDbEntity
  8
0
 62
     0
100
AcDbMText
 10
514.3020564142368
 20
453.9555458695627
 30
0.0
 40
3.0
 41
0.0
 71
     5
 72
     1
  1
\A1;41.0
 73
     1
 44
1.0
  0
POINT
  5
F41
330
F3A
100
AcDbEntity
  8
DEFPOINTS
 62
     0
100
AcDbPoint
 10
493.8020564142369
 20
442.4904333935929
 30
0.0
  0
POINT
  5
F42
330
F3A
100
AcDbEntity
  8
DEFPOINTS
 62
     0
100
AcDbPoint
 10
534.8020564142366
 20
442.490433393593
 30
0.0
  0
POINT
  5
F43
330
F3A
100
AcDbEntity
  8
DEFPOINTS
 62
     0
100
AcDbPoint
 10
534.8020564142366
 20
451.4555458695626
 30
0.0
  0
ENDBLK
  5
F45
330
F3A
100
AcDbEntity
  8
0
100
AcDbBlockEnd
  0
BLOCK
  5
F51
330
F47
100
AcDbEntity
  8
0
100
AcDbBlockBegin
  2
*D22
 70
     1
 10
0.0
 20
0.0
 30
0.0
  3
*D22
  1

  0
LINE
  5
F53
330
F47
100
AcDbEntity
  8
0
 62
     0
370
    -2
100
AcDbLine
 10
493.8020564142369
 20
443.4904333935929
 30
0.0
 11
493.8020564142369
 21
455.5239498230526
 31
0.0
  0
LINE
  5
F54
330
F47
100
AcDbEntity
  8
0
 62
     0
370
    -2
100
AcDbLine
 10
534.8020564142366
 20
443.4904333935929
 30
0.0
 11
534.8020564142366
 21
455.5239498230526
 31
0.0
  0
LINE
  5
F55
330
F47
100
AcDbEntity
  8
0
 62
     0
370
    -2
100
AcDbLine
 10
495.8020564142369
 20
452.5239498230526
 30
0.0
 11
532.8020564142366
 21
452.5239498230526
 31
0.0
  0
SOLID
  5
F56
330
F47
100
AcDbEntity
  8
0
 62
     0
100
AcDbTrace
 10
495.8020564142369
 20
452.857283156386
 30
0.0
 11
495.8020564142369
 21
452.1906164897193
 31
0.0
 12
493.8020564142369
 22
452.5239498230526
 32
0.0
 13
493.8020564142369
 23
452.5239498230526
 33
0.0
  0
SOLID
  5
F57
330
F47
100
AcDbEntity
  8
0
 62
     0
100
AcDbTrace
 10
532.8020564142366
 20
452.857283156386
 30
0.0
 11
532.8020564142366
 21
452.1906164897193
 31
0.0
 12
534.8020564142366
 22
452.5239498230526
 32
0.0
 13
534.8020564142366
 23
452.5239498230526
 33
0.0
  0
MTEXT
  5
F58
330
F47
100
AcDbEntity
  8
0
 62
     0
100
AcDbMText
 10
514.3020564142368
 20
455.0239498230525
 30
0.0
 40
3.0
 41
0.0
 71
     5
 72
     1
  1
\A1;41(Max)
 73
     1
 44
1.0
  0
POINT
  5
F59
330
F47
100
AcDbEntity
  8
DEFPOINTS
 62
     0
100
AcDbPoint
 10
493.8020564142369
 20
442.4904333935929
 30
0.0
  0
POINT
  5
F5A
330
F47
100
AcDbEntity
  8
DEFPOINTS
 62
     0
100
AcDbPoint
 10
534.8020564142366
 20
442.490433393593
 30
0.0
  0
POINT
  5
F5B
330
F47
100
AcDbEntity
  8
DEFPOINTS
 62
     0
100
AcDbPoint
 10
534.8020564142366
 20
452.5239498230526
 30
0.0
  0
ENDBLK
  5
F52
330
F47
100
AcDbEntity
  8
0
100
AcDbBlockEnd
  0
BLOCK
  5
F68
330
F5D
100
AcDbEntity
  8
0
100
AcDbBlockBegin
  2
*D23
 70
     1
 10
0.0
 20
0.0
 30
0.0
  3
*D23
  1

  0
LINE
  5
F5E
330
F5D
100
AcDbEntity
  8
0
 62
     0
370
    -2
100
AcDbLine
 10
533.8020564142366
 20
444.4904333935929
 30
0.0
 11
545.6741545055995
 21
444.4904333935929
 31
0.0
  0
LINE
  5
F5F
330
F5D
100
AcDbEntity
  8
0
 62
     0
370
    -2
100
AcDbLine
 10
533.8020564142366
 20
413.9904333935929
 30
0.0
 11
545.6741545055995
 21
413.9904333935929
 31
0.0
  0
LINE
  5
F60
330
F5D
100
AcDbEntity
  8
0
 62
     0
370
    -2
100
AcDbLine
 10
542.6741545055995
 20
442.490433393593
 30
0.0
 11
542.6741545055995
 21
431.740433393593
 31
0.0
  0
LINE
  5
F61
330
F5D
100
AcDbEntity
  8
0
 62
     0
370
    -2
100
AcDbLine
 10
542.6741545055995
 20
415.9904333935929
 30
0.0
 11
542.6741545055995
 21
426.7404333935929
 31
0.0
  0
SOLID
  5
F62
330
F5D
100
AcDbEntity
  8
0
 62
     0
100
AcDbTrace
 10
542.3408211722661
 20
442.490433393593
 30
0.0
 11
543.0074878389327
 21
442.490433393593
 31
0.0
 12
542.6741545055995
 22
444.4904333935929
 32
0.0
 13
542.6741545055995
 23
444.4904333935929
 33
0.0
  0
SOLID
  5
F63
330
F5D
100
AcDbEntity
  8
0
 62
     0
100
AcDbTrace
 10
542.3408211722661
 20
415.9904333935929
 30
0.0
 11
543.0074878389327
 21
415.9904333935929
 31
0.0
 12
542.6741545055995
 22
413.9904333935929
 32
0.0
 13
542.6741545055995
 23
413.9904333935929
 33
0.0
  0
MTEXT
  5
F64
330
F5D
100
AcDbEntity
  8
0
 62
     0
100
AcDbMText
 10
542.6741545055993
 20
429.2404333935929
 30
0.0
 40
3.0
 41
0.0
 71
     5
 72
     1
  1
\A1;30.5
 73
     1
 44
1.0
  0
POINT
  5
F65
330
F5D
100
AcDbEntity
  8
DEFPOINTS
 62
     0
100
AcDbPoint
 10
532.8020564142366
 20
444.4904333935929
 30
0.0
  0
POINT
  5
F66
330
F5D
100
AcDbEntity
  8
DEFPOINTS
 62
     0
100
AcDbPoint
 10
532.8020564142366
 20
413.9904333935929
 30
0.0
  0
POINT
  5
F67
330
F5D
100
AcDbEntity
  8
DEFPOINTS
 62
     0
100
AcDbPoint
 10
542.6741545055995
 20
413.9904333935929
 30
0.0
  0
ENDBLK
  5
F69
330
F5D
100
AcDbEntity
  8
0
100
AcDbBlockEnd
  0
BLOCK
  5
F74
330
F6A
100
AcDbEntity
  8
0
100
AcDbBlockBegin
  2
*D24
 70
     1
 10
0.0
 20
0.0
 30
0.0
  3
*D24
  1

  0
LINE
  5
141E
330
F6A
100
AcDbEntity
  8
0
 62
     0
370
    -2
100
AcDbLine
 10
307.4444793447943
 20
417.3503261372866
 30
0.0
 11
307.4444793447943
 21
351.4583930959407
 31
0.0
  0
LINE
  5
141F
330
F6A
100
AcDbEntity
  8
0
 62
     0
370
    -2
100
AcDbLine
 10
170.9569793447944
 20
367.5503261372868
 30
0.0
 11
170.9569793447944
 21
351.4583930959407
 31
0.0
  0
LINE
  5
1420
330
F6A
100
AcDbEntity
  8
0
 62
     0
370
    -2
100
AcDbLine
 10
305.9444793447943
 20
353.4583930959407
 30
0.0
 11
172.4569793447943
 21
353.4583930959407
 31
0.0
  0
SOLID
  5
1421
330
F6A
100
AcDbEntity
  8
0
 62
     0
100
AcDbTrace
 10
305.9444793447943
 20
353.7083930959407
 30
0.0
 11
305.9444793447943
 21
353.2083930959407
 31
0.0
 12
307.4444793447943
 22
353.4583930959407
 32
0.0
 13
307.4444793447943
 23
353.4583930959407
 33
0.0
  0
SOLID
  5
1422
330
F6A
100
AcDbEntity
  8
0
 62
     0
100
AcDbTrace
 10
172.4569793447943
 20
353.7083930959407
 30
0.0
 11
172.4569793447943
 21
353.2083930959407
 31
0.0
 12
170.9569793447944
 22
353.4583930959407
 32
0.0
 13
170.9569793447944
 23
353.4583930959407
 33
0.0
  0
MTEXT
  5
1423
330
F6A
100
AcDbEntity
  8
0
 62
     0
100
AcDbMText
 10
238.6180579253919
 20
355.2083930959407
 30
0.0
 40
1.5
 41
0.0
 71
     5
 72
     1
  1
\A1;136.5
 73
     1
 44
1.0
  0
POINT
  5
1424
330
F6A
100
AcDbEntity
  8
DEFPOINTS
 62
     0
100
AcDbPoint
 10
307.4444793447943
 20
418.3503261372866
 30
0.0
  0
POINT
  5
1425
330
F6A
100
AcDbEntity
  8
DEFPOINTS
 62
     0
100
AcDbPoint
 10
170.9569793447944
 20
368.5503261372868
 30
0.0
  0
POINT
  5
1426
330
F6A
100
AcDbEntity
  8
DEFPOINTS
 62
     0
100
AcDbPoint
 10
170.9569793447944
 20
353.4583930959407
 30
0.0
  0
ENDBLK
  5
F75
330
F6A
100
AcDbEntity
  8
0
100
AcDbBlockEnd
  0
BLOCK
  5
F80
330
F76
100
AcDbEntity
  8
0
100
AcDbBlockBegin
  2
*D25
 70
     1
 10
0.0
 20
0.0
 30
0.0
  3
*D25
  1

  0
LINE
  5
1427
330
F76
100
AcDbEntity
  8
0
 62
     0
370
    -2
100
AcDbLine
 10
299.4444793447943
 20
409.0753261372869
 30
0.0
 11
299.4444793447943
 21
360.1044374108011
 31
0.0
  0
LINE
  5
1428
330
F76
100
AcDbEntity
  8
0
 62
     0
370
    -2
100
AcDbLine
 10
170.9569793447944
 20
367.5503261372868
 30
0.0
 11
170.9569793447944
 21
360.1044374108011
 31
0.0
  0
LINE
  5
1429
330
F76
100
AcDbEntity
  8
0
 62
     0
370
    -2
100
AcDbLine
 10
297.9444793447943
 20
362.1044374108011
 30
0.0
 11
172.4569793447943
 21
362.1044374108011
 31
0.0
  0
SOLID
  5
142A
330
F76
100
AcDbEntity
  8
0
 62
     0
100
AcDbTrace
 10
297.9444793447943
 20
362.3544374108011
 30
0.0
 11
297.9444793447943
 21
361.8544374108011
 31
0.0
 12
299.4444793447943
 22
362.1044374108011
 32
0.0
 13
299.4444793447943
 23
362.1044374108011
 33
0.0
  0
SOLID
  5
142B
330
F76
100
AcDbEntity
  8
0
 62
     0
100
AcDbTrace
 10
172.4569793447943
 20
362.3544374108011
 30
0.0
 11
172.4569793447943
 21
361.8544374108011
 31
0.0
 12
170.9569793447944
 22
362.1044374108011
 32
0.0
 13
170.9569793447944
 23
362.1044374108011
 33
0.0
  0
MTEXT
  5
142C
330
F76
100
AcDbEntity
  8
0
 62
     0
100
AcDbMText
 10
235.2007293447943
 20
363.8544374108011
 30
0.0
 40
1.5
 41
0.0
 71
     5
 72
     1
  1
\A1;128.5
 73
     1
 44
1.0
  0
POINT
  5
142D
330
F76
100
AcDbEntity
  8
DEFPOINTS
 62
     0
100
AcDbPoint
 10
299.4444793447943
 20
410.0753261372869
 30
0.0
  0
POINT
  5
142E
330
F76
100
AcDbEntity
  8
DEFPOINTS
 62
     0
100
AcDbPoint
 10
170.9569793447944
 20
368.5503261372868
 30
0.0
  0
POINT
  5
142F
330
F76
100
AcDbEntity
  8
DEFPOINTS
 62
     0
100
AcDbPoint
 10
170.9569793447944
 20
362.1044374108011
 30
0.0
  0
ENDBLK
  5
F81
330
F76
100
AcDbEntity
  8
0
100
AcDbBlockEnd
  0
BLOCK
  5
F8C
330
F82
100
AcDbEntity
  8
0
100
AcDbBlockBegin
  2
*D26
 70
     1
 10
0.0
 20
0.0
 30
0.0
  3
*D26
  1

  0
LINE
  5
1430
330
F82
100
AcDbEntity
  8
0
 62
     0
370
    -2
100
AcDbLine
 10
315.0713477013166
 20
315.8359689187302
 30
0.0
 11
323.8928323575213
 21
315.8359689187302
 31
0.0
  0
LINE
  5
1431
330
F82
100
AcDbEntity
  8
0
 62
     0
370
    -2
100
AcDbLine
 10
303.0113477013168
 20
225.8359689187301
 30
0.0
 11
323.8928323575213
 21
225.8359689187299
 31
0.0
  0
LINE
  5
1432
330
F82
100
AcDbEntity
  8
0
 62
     0
370
    -2
100
AcDbLine
 10
321.8928323575213
 20
314.3359689187302
 30
0.0
 11
321.8928323575213
 21
227.3359689187299
 31
0.0
  0
SOLID
  5
1433
330
F82
100
AcDbEntity
  8
0
 62
     0
100
AcDbTrace
 10
321.6428323575213
 20
314.3359689187302
 30
0.0
 11
322.1428323575213
 21
314.3359689187302
 31
0.0
 12
321.8928323575213
 22
315.8359689187302
 32
0.0
 13
321.8928323575213
 23
315.8359689187302
 33
0.0
  0
SOLID
  5
1434
330
F82
100
AcDbEntity
  8
0
 62
     0
100
AcDbTrace
 10
321.6428323575213
 20
227.3359689187299
 30
0.0
 11
322.1428323575213
 21
227.3359689187299
 31
0.0
 12
321.8928323575213
 22
225.8359689187299
 32
0.0
 13
321.8928323575213
 23
225.8359689187299
 33
0.0
  0
MTEXT
  5
1435
330
F82
100
AcDbEntity
  8
0
 62
     0
100
AcDbMText
 10
320.1428323575211
 20
270.8359689187302
 30
0.0
 40
1.5
 41
0.0
 71
     5
 72
     1
  1
\A1;90.0
 11
0.0000000000000001
 21
1.0
 31
0.0
 73
     1
 44
1.0
  0
POINT
  5
1436
330
F82
100
AcDbEntity
  8
DEFPOINTS
 62
     0
100
AcDbPoint
 10
314.0713477013166
 20
315.8359689187302
 30
0.0
  0
POINT
  5
1437
330
F82
100
AcDbEntity
  8
DEFPOINTS
 62
     0
100
AcDbPoint
 10
302.0113477013168
 20
225.8359689187301
 30
0.0
  0
POINT
  5
1438
330
F82
100
AcDbEntity
  8
DEFPOINTS
 62
     0
100
AcDbPoint
 10
321.8928323575213
 20
225.8359689187299
 30
0.0
  0
ENDBLK
  5
F8D
330
F82
100
AcDbEntity
  8
0
100
AcDbBlockEnd
  0
BLOCK
  5
FC6
330
FBC
100
AcDbEntity
  8
0
100
AcDbBlockBegin
  2
*D27
 70
     1
 10
0.0
 20
0.0
 30
0.0
  3
*D27
  1

  0
LINE
  5
FBD
330
FBC
100
AcDbEntity
  8
0
 62
     0
370
    -2
100
AcDbLine
 10
533.8020564142366
 20
444.4904333935929
 30
0.0
 11
544.8855073077282
 21
444.4904333935929
 31
0.0
  0
LINE
  5
FBE
330
FBC
100
AcDbEntity
  8
0
 62
     0
370
    -2
100
AcDbLine
 10
533.8020564142366
 20
413.9904333935929
 30
0.0
 11
544.8855073077282
 21
413.9904333935929
 31
0.0
  0
LINE
  5
FBF
330
FBC
100
AcDbEntity
  8
0
 62
     0
370
    -2
100
AcDbLine
 10
541.885507307728
 20
441.4904333935929
 30
0.0
 11
541.885507307728
 21
416.9904333935929
 31
0.0
  0
SOLID
  5
FC0
330
FBC
100
AcDbEntity
  8
0
 62
     0
100
AcDbTrace
 10
541.385507307728
 20
441.4904333935929
 30
0.0
 11
542.385507307728
 21
441.4904333935929
 31
0.0
 12
541.885507307728
 22
444.4904333935929
 32
0.0
 13
541.885507307728
 23
444.4904333935929
 33
0.0
  0
SOLID
  5
FC1
330
FBC
100
AcDbEntity
  8
0
 62
     0
100
AcDbTrace
 10
541.385507307728
 20
416.9904333935929
 30
0.0
 11
542.385507307728
 21
416.9904333935929
 31
0.0
 12
541.885507307728
 22
413.9904333935929
 32
0.0
 13
541.885507307728
 23
413.9904333935929
 33
0.0
  0
MTEXT
  5
FC2
330
FBC
100
AcDbEntity
  8
0
 62
     0
100
AcDbMText
 10
539.3855073077279
 20
429.2404333935929
 30
0.0
 40
3.0
 41
0.0
 71
     5
 72
     1
  1
\A1;30.5
 11
0.0000000000000001
 21
1.0
 31
0.0
 73
     1
 44
1.0
  0
POINT
  5
FC3
330
FBC
100
AcDbEntity
  8
DEFPOINTS
 62
     0
100
AcDbPoint
 10
532.8020564142366
 20
444.4904333935929
 30
0.0
  0
POINT
  5
FC4
330
FBC
100
AcDbEntity
  8
DEFPOINTS
 62
     0
100
AcDbPoint
 10
532.8020564142366
 20
413.9904333935929
 30
0.0
  0
POINT
  5
FC5
330
FBC
100
AcDbEntity
  8
DEFPOINTS
 62
     0
100
AcDbPoint
 10
541.885507307728
 20
413.9904333935929
 30
0.0
  0
ENDBLK
  5
FC7
330
FBC
100
AcDbEntity
  8
0
100
AcDbBlockEnd
  0
BLOCK
  5
101B
330
1011
100
AcDbEntity
  8
0
100
AcDbBlockBegin
  2
*D28
 70
     1
 10
0.0
 20
0.0
 30
0.0
  3
*D28
  1

  0
LINE
  5
1012
330
1011
100
AcDbEntity
  8
0
 62
     0
370
    -2
100
AcDbLine
 10
533.8020564142366
 20
444.4904333935929
 30
0.0
 11
543.5992637439113
 21
444.4904333935929
 31
0.0
  0
LINE
  5
1013
330
1011
100
AcDbEntity
  8
0
 62
     0
370
    -2
100
AcDbLine
 10
533.8020564142366
 20
413.9904333935929
 30
0.0
 11
543.5992637439113
 21
413.9904333935929
 31
0.0
  0
LINE
  5
1014
330
1011
100
AcDbEntity
  8
0
 62
     0
370
    -2
100
AcDbLine
 10
540.5992637439115
 20
441.4904333935929
 30
0.0
 11
540.5992637439115
 21
416.9904333935929
 31
0.0
  0
SOLID
  5
1015
330
1011
100
AcDbEntity
  8
0
 62
     0
100
AcDbTrace
 10
540.0992637439115
 20
441.4904333935929
 30
0.0
 11
541.0992637439115
 21
441.4904333935929
 31
0.0
 12
540.5992637439115
 22
444.4904333935929
 32
0.0
 13
540.5992637439115
 23
444.4904333935929
 33
0.0
  0
SOLID
  5
1016
330
1011
100
AcDbEntity
  8
0
 62
     0
100
AcDbTrace
 10
540.0992637439115
 20
416.9904333935929
 30
0.0
 11
541.0992637439115
 21
416.9904333935929
 31
0.0
 12
540.5992637439115
 22
413.9904333935929
 32
0.0
 13
540.5992637439115
 23
413.9904333935929
 33
0.0
  0
MTEXT
  5
1017
330
1011
100
AcDbEntity
  8
0
 62
     0
100
AcDbMText
 10
538.5992637439112
 20
429.2404333935929
 30
0.0
 40
2.0
 41
0.0
 71
     5
 72
     1
  1
\A1;30.5
 11
0.0000000000000001
 21
1.0
 31
0.0
 73
     1
 44
1.0
  0
POINT
  5
1018
330
1011
100
AcDbEntity
  8
DEFPOINTS
 62
     0
100
AcDbPoint
 10
532.8020564142366
 20
444.4904333935929
 30
0.0
  0
POINT
  5
1019
330
1011
100
AcDbEntity
  8
DEFPOINTS
 62
     0
100
AcDbPoint
 10
532.8020564142366
 20
413.9904333935929
 30
0.0
  0
POINT
  5
101A
330
1011
100
AcDbEntity
  8
DEFPOINTS
 62
     0
100
AcDbPoint
 10
540.5992637439115
 20
413.9904333935929
 30
0.0
  0
ENDBLK
  5
101C
330
1011
100
AcDbEntity
  8
0
100
AcDbBlockEnd
  0
BLOCK
  5
1028
330
101E
100
AcDbEntity
  8
0
100
AcDbBlockBegin
  2
*D29
 70
     1
 10
0.0
 20
0.0
 30
0.0
  3
*D29
  1

  0
LINE
  5
164F
330
101E
100
AcDbEntity
  8
0
 62
     0
370
    -2
100
AcDbLine
 10
493.8020564142369
 20
443.4904333935929
 30
0.0
 11
493.8020564142369
 21
451.1661120868025
 31
0.0
  0
LINE
  5
1650
330
101E
100
AcDbEntity
  8
0
 62
     0
370
    -2
100
AcDbLine
 10
534.8020564142366
 20
443.4904333935929
 30
0.0
 11
534.8020564142366
 21
451.1661120868025
 31
0.0
  0
LINE
  5
1651
330
101E
100
AcDbEntity
  8
0
 62
     0
370
    -2
100
AcDbLine
 10
495.3020564142368
 20
449.1661120868025
 30
0.0
 11
533.3020564142366
 21
449.1661120868025
 31
0.0
  0
SOLID
  5
1652
330
101E
100
AcDbEntity
  8
0
 62
     0
100
AcDbTrace
 10
495.3020564142368
 20
449.4161120868024
 30
0.0
 11
495.3020564142368
 21
448.9161120868025
 31
0.0
 12
493.8020564142369
 22
449.1661120868025
 32
0.0
 13
493.8020564142369
 23
449.1661120868025
 33
0.0
  0
SOLID
  5
1653
330
101E
100
AcDbEntity
  8
0
 62
     0
100
AcDbTrace
 10
533.3020564142366
 20
449.4161120868024
 30
0.0
 11
533.3020564142366
 21
448.9161120868025
 31
0.0
 12
534.8020564142366
 22
449.1661120868025
 32
0.0
 13
534.8020564142366
 23
449.1661120868025
 33
0.0
  0
MTEXT
  5
1654
330
101E
100
AcDbEntity
  8
0
 62
     0
100
AcDbMText
 10
514.3020564142368
 20
450.9161120868025
 30
0.0
 40
1.5
 41
0.0
 71
     5
 72
     1
  1
\A1;41(Max)
 73
     1
 44
1.0
  0
POINT
  5
1655
330
101E
100
AcDbEntity
  8
DEFPOINTS
 62
     0
100
AcDbPoint
 10
493.8020564142369
 20
442.4904333935929
 30
0.0
  0
POINT
  5
1656
330
101E
100
AcDbEntity
  8
DEFPOINTS
 62
     0
100
AcDbPoint
 10
534.8020564142366
 20
442.490433393593
 30
0.0
  0
POINT
  5
1657
330
101E
100
AcDbEntity
  8
DEFPOINTS
 62
     0
100
AcDbPoint
 10
534.8020564142366
 20
449.1661120868025
 30
0.0
  0
ENDBLK
  5
1029
330
101E
100
AcDbEntity
  8
0
100
AcDbBlockEnd
  0
BLOCK
  5
103E
330
1034
100
AcDbEntity
  8
0
100
AcDbBlockBegin
  2
*D30
 70
     1
 10
0.0
 20
0.0
 30
0.0
  3
*D30
  1

  0
LINE
  5
1646
330
1034
100
AcDbEntity
  8
0
 62
     0
370
    -2
100
AcDbLine
 10
533.8020564142366
 20
444.4904333935929
 30
0.0
 11
543.3710098822014
 21
444.4904333935929
 31
0.0
  0
LINE
  5
1647
330
1034
100
AcDbEntity
  8
0
 62
     0
370
    -2
100
AcDbLine
 10
528.3820564142367
 20
412.4904333935929
 30
0.0
 11
543.3710098822014
 21
412.4904333935929
 31
0.0
  0
LINE
  5
1648
330
1034
100
AcDbEntity
  8
0
 62
     0
370
    -2
100
AcDbLine
 10
541.3710098822014
 20
442.990433393593
 30
0.0
 11
541.3710098822014
 21
413.9904333935929
 31
0.0
  0
SOLID
  5
1649
330
1034
100
AcDbEntity
  8
0
 62
     0
100
AcDbTrace
 10
541.1210098822014
 20
442.990433393593
 30
0.0
 11
541.6210098822014
 21
442.990433393593
 31
0.0
 12
541.3710098822014
 22
444.4904333935929
 32
0.0
 13
541.3710098822014
 23
444.4904333935929
 33
0.0
  0
SOLID
  5
164A
330
1034
100
AcDbEntity
  8
0
 62
     0
100
AcDbTrace
 10
541.1210098822014
 20
413.9904333935929
 30
0.0
 11
541.6210098822014
 21
413.9904333935929
 31
0.0
 12
541.3710098822014
 22
412.4904333935929
 32
0.0
 13
541.3710098822014
 23
412.4904333935929
 33
0.0
  0
MTEXT
  5
164B
330
1034
100
AcDbEntity
  8
0
 62
     0
100
AcDbMText
 10
539.6210098822011
 20
428.4904333935929
 30
0.0
 40
1.5
 41
0.0
 71
     5
 72
     1
  1
\A1;32(Max)
 11
0.0000000000000001
 21
1.0
 31
0.0
 73
     1
 44
1.0
  0
POINT
  5
164C
330
1034
100
AcDbEntity
  8
DEFPOINTS
 62
     0
100
AcDbPoint
 10
532.8020564142366
 20
444.4904333935929
 30
0.0
  0
POINT
  5
164D
330
1034
100
AcDbEntity
  8
DEFPOINTS
 62
     0
100
AcDbPoint
 10
527.3820564142368
 20
412.4904333935929
 30
0.0
  0
POINT
  5
164E
330
1034
100
AcDbEntity
  8
DEFPOINTS
 62
     0
100
AcDbPoint
 10
541.3710098822014
 20
412.4904333935929
 30
0.0
  0
ENDBLK
  5
103F
330
1034
100
AcDbEntity
  8
0
100
AcDbBlockEnd
  0
BLOCK
  5
1054
330
104A
100
AcDbEntity
  8
0
100
AcDbBlockBegin
  2
*D31
 70
     1
 10
0.0
 20
0.0
 30
0.0
  3
*D31
  1

  0
LINE
  5
1290
330
104A
100
AcDbEntity
  8
0
 62
     0
370
    -2
100
AcDbLine
 10
528.3820564142367
 20
412.4904333935929
 30
0.0
 11
544.3710098822015
 21
412.4904333935929
 31
0.0
  0
LINE
  5
1291
330
104A
100
AcDbEntity
  8
0
 62
     0
370
    -2
100
AcDbLine
 10
528.3820564142367
 20
402.4904333935928
 30
0.0
 11
544.3710098822015
 21
402.4904333935928
 31
0.0
  0
LINE
  5
1292
330
104A
100
AcDbEntity
  8
0
 62
     0
370
    -2
100
AcDbLine
 10
541.3710098822015
 20
413.9904333935929
 30
0.0
 11
541.3710098822015
 21
415.4904333935929
 31
0.0
  0
LINE
  5
1293
330
104A
100
AcDbEntity
  8
0
 62
     0
370
    -2
100
AcDbLine
 10
541.3710098822015
 20
400.9904333935929
 30
0.0
 11
541.3710098822015
 21
399.4904333935929
 31
0.0
  0
SOLID
  5
1294
330
104A
100
AcDbEntity
  8
0
 62
     0
100
AcDbTrace
 10
541.1210098822015
 20
413.9904333935929
 30
0.0
 11
541.6210098822014
 21
413.9904333935929
 31
0.0
 12
541.3710098822015
 22
412.4904333935929
 32
0.0
 13
541.3710098822015
 23
412.4904333935929
 33
0.0
  0
SOLID
  5
1295
330
104A
100
AcDbEntity
  8
0
 62
     0
100
AcDbTrace
 10
541.1210098822015
 20
400.9904333935929
 30
0.0
 11
541.6210098822014
 21
400.9904333935929
 31
0.0
 12
541.3710098822015
 22
402.4904333935928
 32
0.0
 13
541.3710098822015
 23
402.4904333935928
 33
0.0
  0
MTEXT
  5
1296
330
104A
100
AcDbEntity
  8
0
 62
     0
100
AcDbMText
 10
539.6210098822014
 20
407.4904333935929
 30
0.0
 40
1.5
 41
0.0
 71
     5
 72
     1
  1
\A1;10(Min)
 11
0.0000000000000001
 21
1.0
 31
0.0
 73
     1
 44
1.0
  0
POINT
  5
1297
330
104A
100
AcDbEntity
  8
DEFPOINTS
 62
     0
100
AcDbPoint
 10
527.3820564142368
 20
412.4904333935929
 30
0.0
  0
POINT
  5
1298
330
104A
100
AcDbEntity
  8
DEFPOINTS
 62
     0
100
AcDbPoint
 10
527.3820564142368
 20
402.4904333935928
 30
0.0
  0
POINT
  5
1299
330
104A
100
AcDbEntity
  8
DEFPOINTS
 62
     0
100
AcDbPoint
 10
541.3710098822015
 20
402.4904333935928
 30
0.0
  0
ENDBLK
  5
1055
330
104A
100
AcDbEntity
  8
0
100
AcDbBlockEnd
  0
BLOCK
  5
113B
330
1130
100
AcDbEntity
  8
0
100
AcDbBlockBegin
  2
*D32
 70
     1
 10
0.0
 20
0.0
 30
0.0
  3
*D32
  1

  0
LINE
  5
1478
330
1130
100
AcDbEntity
  8
0
 62
     0
370
    -2
100
AcDbLine
 10
522.3020564142366
 20
401.4904333935929
 30
0.0
 11
522.3020564142366
 21
392.7297886752517
 31
0.0
  0
LINE
  5
1479
330
1130
100
AcDbEntity
  8
0
 62
     0
370
    -2
100
AcDbLine
 10
527.3820564142368
 20
401.4904333935929
 30
0.0
 11
527.3820564142368
 21
392.7297886752517
 31
0.0
  0
LINE
  5
147A
330
1130
100
AcDbEntity
  8
0
 62
     0
370
    -2
100
AcDbLine
 10
520.8020564142366
 20
394.7297886752517
 30
0.0
 11
519.3020564142366
 21
394.7297886752517
 31
0.0
  0
LINE
  5
147B
330
1130
100
AcDbEntity
  8
0
 62
     0
370
    -2
100
AcDbLine
 10
528.8820564142366
 20
394.7297886752517
 30
0.0
 11
530.3820564142368
 21
394.7297886752517
 31
0.0
  0
SOLID
  5
147C
330
1130
100
AcDbEntity
  8
0
 62
     0
100
AcDbTrace
 10
520.8020564142366
 20
394.9797886752517
 30
0.0
 11
520.8020564142366
 21
394.4797886752517
 31
0.0
 12
522.3020564142366
 22
394.7297886752517
 32
0.0
 13
522.3020564142366
 23
394.7297886752517
 33
0.0
  0
SOLID
  5
147D
330
1130
100
AcDbEntity
  8
0
 62
     0
100
AcDbTrace
 10
528.8820564142366
 20
394.9797886752517
 30
0.0
 11
528.8820564142366
 21
394.4797886752517
 31
0.0
 12
527.3820564142368
 22
394.7297886752517
 32
0.0
 13
527.3820564142368
 23
394.7297886752517
 33
0.0
  0
MTEXT
  5
147E
330
1130
100
AcDbEntity
  8
0
 62
     0
100
AcDbMText
 10
524.8420564142368
 20
396.4797886752517
 30
0.0
 40
1.5
 41
0.0
 71
     5
 72
     1
  1
\A1;5.1
 73
     1
 44
1.0
  0
POINT
  5
147F
330
1130
100
AcDbEntity
  8
DEFPOINTS
 62
     0
100
AcDbPoint
 10
522.3020564142366
 20
402.4904333935928
 30
0.0
  0
POINT
  5
1480
330
1130
100
AcDbEntity
  8
DEFPOINTS
 62
     0
100
AcDbPoint
 10
527.3820564142368
 20
402.4904333935928
 30
0.0
  0
POINT
  5
1481
330
1130
100
AcDbEntity
  8
DEFPOINTS
 62
     0
100
AcDbPoint
 10
527.3820564142368
 20
394.7297886752517
 30
0.0
  0
ENDBLK
  5
113C
330
1130
100
AcDbEntity
  8
0
100
AcDbBlockEnd
  0
BLOCK
  5
1234
330
122A
100
AcDbEntity
  8
0
100
AcDbBlockBegin
  2
*D33
 70
     1
 10
0.0
 20
0.0
 30
0.0
  3
*D33
  1

  0
LINE
  5
16F6
330
122A
100
AcDbEntity
  8
0
 62
     0
370
    -2
100
AcDbLine
 10
509.6020564142368
 20
401.4904333935929
 30
0.0
 11
509.6020564142368
 21
391.6345956760018
 31
0.0
  0
LINE
  5
16F7
330
122A
100
AcDbEntity
  8
0
 62
     0
370
    -2
100
AcDbLine
 10
522.3020564142366
 20
401.4904333935928
 30
0.0
 11
522.3020564142366
 21
391.6345956760018
 31
0.0
  0
LINE
  5
16F8
330
122A
100
AcDbEntity
  8
0
 62
     0
370
    -2
100
AcDbLine
 10
511.1020564142368
 20
393.6345956760018
 30
0.0
 11
520.8020564142366
 21
393.6345956760018
 31
0.0
  0
SOLID
  5
16F9
330
122A
100
AcDbEntity
  8
0
 62
     0
100
AcDbTrace
 10
511.1020564142368
 20
393.8845956760019
 30
0.0
 11
511.1020564142368
 21
393.3845956760018
 31
0.0
 12
509.6020564142368
 22
393.6345956760018
 32
0.0
 13
509.6020564142368
 23
393.6345956760018
 33
0.0
  0
SOLID
  5
16FA
330
122A
100
AcDbEntity
  8
0
 62
     0
100
AcDbTrace
 10
520.8020564142366
 20
393.8845956760019
 30
0.0
 11
520.8020564142366
 21
393.3845956760018
 31
0.0
 12
522.3020564142366
 22
393.6345956760018
 32
0.0
 13
522.3020564142366
 23
393.6345956760018
 33
0.0
  0
MTEXT
  5
16FB
330
122A
100
AcDbEntity
  8
0
 62
     0
100
AcDbMText
 10
515.9520564142367
 20
395.1345956760019
 30
0.0
 40
1.0
 41
0.0
 71
     5
 72
     1
  1
\A1;(12.7)
 73
     1
 44
1.0
  0
POINT
  5
16FC
330
122A
100
AcDbEntity
  8
DEFPOINTS
 62
     0
100
AcDbPoint
 10
509.6020564142368
 20
402.4904333935928
 30
0.0
  0
POINT
  5
16FD
330
122A
100
AcDbEntity
  8
DEFPOINTS
 62
     0
100
AcDbPoint
 10
522.3020564142366
 20
402.4904333935928
 30
0.0
  0
POINT
  5
16FE
330
122A
100
AcDbEntity
  8
DEFPOINTS
 62
     0
100
AcDbPoint
 10
522.3020564142366
 20
393.6345956760018
 30
0.0
  0
ENDBLK
  5
1235
330
122A
100
AcDbEntity
  8
0
100
AcDbBlockEnd
  0
BLOCK
  5
12B7
330
12AD
100
AcDbEntity
  8
0
100
AcDbBlockBegin
  2
*D34
 70
     1
 10
0.0
 20
0.0
 30
0.0
  3
*D34
  1

  0
LINE
  5
163D
330
12AD
100
AcDbEntity
  8
0
 62
     0
370
    -2
100
AcDbLine
 10
528.3820564142367
 20
412.4904333935929
 30
0.0
 11
543.3710098822014
 21
412.4904333935929
 31
0.0
  0
LINE
  5
163E
330
12AD
100
AcDbEntity
  8
0
 62
     0
370
    -2
100
AcDbLine
 10
528.3820564142367
 20
402.4904333935928
 30
0.0
 11
543.3710098822014
 21
402.4904333935928
 31
0.0
  0
LINE
  5
163F
330
12AD
100
AcDbEntity
  8
0
 62
     0
370
    -2
100
AcDbLine
 10
541.3710098822014
 20
410.9904333935928
 30
0.0
 11
541.3710098822014
 21
403.9904333935929
 31
0.0
  0
SOLID
  5
1640
330
12AD
100
AcDbEntity
  8
0
 62
     0
100
AcDbTrace
 10
541.1210098822014
 20
410.9904333935928
 30
0.0
 11
541.6210098822014
 21
410.9904333935928
 31
0.0
 12
541.3710098822014
 22
412.4904333935929
 32
0.0
 13
541.3710098822014
 23
412.4904333935929
 33
0.0
  0
SOLID
  5
1641
330
12AD
100
AcDbEntity
  8
0
 62
     0
100
AcDbTrace
 10
541.1210098822014
 20
403.9904333935929
 30
0.0
 11
541.6210098822014
 21
403.9904333935929
 31
0.0
 12
541.3710098822014
 22
402.4904333935928
 32
0.0
 13
541.3710098822014
 23
402.4904333935928
 33
0.0
  0
MTEXT
  5
1642
330
12AD
100
AcDbEntity
  8
0
 62
     0
100
AcDbMText
 10
539.6210098822011
 20
407.4904333935929
 30
0.0
 40
1.5
 41
0.0
 71
     5
 72
     1
  1
\A1;10(Min)
 11
0.0000000000000001
 21
1.0
 31
0.0
 73
     1
 44
1.0
  0
POINT
  5
1643
330
12AD
100
AcDbEntity
  8
DEFPOINTS
 62
     0
100
AcDbPoint
 10
527.3820564142368
 20
412.4904333935929
 30
0.0
  0
POINT
  5
1644
330
12AD
100
AcDbEntity
  8
DEFPOINTS
 62
     0
100
AcDbPoint
 10
527.3820564142368
 20
402.4904333935928
 30
0.0
  0
POINT
  5
1645
330
12AD
100
AcDbEntity
  8
DEFPOINTS
 62
     0
100
AcDbPoint
 10
541.3710098822014
 20
402.4904333935928
 30
0.0
  0
ENDBLK
  5
12B8
330
12AD
100
AcDbEntity
  8
0
100
AcDbBlockEnd
  0
BLOCK
  5
12D6
330
12CC
100
AcDbEntity
  8
0
100
AcDbBlockBegin
  2
*D35
 70
     1
 10
0.0
 20
0.0
 30
0.0
  3
*D35
  1

  0
LINE
  5
16FF
330
12CC
100
AcDbEntity
  8
0
 62
     0
370
    -2
100
AcDbLine
 10
499.4420564142368
 20
401.4904333935929
 30
0.0
 11
499.4420564142368
 21
391.6345956760018
 31
0.0
  0
LINE
  5
1700
330
12CC
100
AcDbEntity
  8
0
 62
     0
370
    -2
100
AcDbLine
 10
509.6020564142368
 20
401.4904333935929
 30
0.0
 11
509.6020564142368
 21
391.6345956760018
 31
0.0
  0
LINE
  5
1701
330
12CC
100
AcDbEntity
  8
0
 62
     0
370
    -2
100
AcDbLine
 10
500.9420564142368
 20
393.6345956760018
 30
0.0
 11
508.1020564142368
 21
393.6345956760018
 31
0.0
  0
SOLID
  5
1702
330
12CC
100
AcDbEntity
  8
0
 62
     0
100
AcDbTrace
 10
500.9420564142368
 20
393.8845956760019
 30
0.0
 11
500.9420564142368
 21
393.3845956760018
 31
0.0
 12
499.4420564142368
 22
393.6345956760018
 32
0.0
 13
499.4420564142368
 23
393.6345956760018
 33
0.0
  0
SOLID
  5
1703
330
12CC
100
AcDbEntity
  8
0
 62
     0
100
AcDbTrace
 10
508.1020564142368
 20
393.8845956760019
 30
0.0
 11
508.1020564142368
 21
393.3845956760018
 31
0.0
 12
509.6020564142368
 22
393.6345956760018
 32
0.0
 13
509.6020564142368
 23
393.6345956760018
 33
0.0
  0
MTEXT
  5
1704
330
12CC
100
AcDbEntity
  8
0
 62
     0
100
AcDbMText
 10
504.5220564142367
 20
395.1345956760019
 30
0.0
 40
1.0
 41
0.0
 71
     5
 72
     1
  1
\A1;(10.16)
 73
     1
 44
1.0
  0
POINT
  5
1705
330
12CC
100
AcDbEntity
  8
DEFPOINTS
 62
     0
100
AcDbPoint
 10
499.4420564142368
 20
402.4904333935928
 30
0.0
  0
POINT
  5
1706
330
12CC
100
AcDbEntity
  8
DEFPOINTS
 62
     0
100
AcDbPoint
 10
509.6020564142368
 20
402.4904333935928
 30
0.0
  0
POINT
  5
1707
330
12CC
100
AcDbEntity
  8
DEFPOINTS
 62
     0
100
AcDbPoint
 10
509.6020564142368
 20
393.6345956760018
 30
0.0
  0
ENDBLK
  5
12D7
330
12CC
100
AcDbEntity
  8
0
100
AcDbBlockEnd
  0
BLOCK
  5
12E4
330
12D9
100
AcDbEntity
  8
0
100
AcDbBlockBegin
  2
*D36
 70
     1
 10
0.0
 20
0.0
 30
0.0
  3
*D36
  1

  0
LINE
  5
139D
330
12D9
100
AcDbEntity
  8
0
 62
     0
370
    -2
100
AcDbLine
 10
509.6020564142368
 20
401.490433393593
 30
0.0
 11
509.6020564142368
 21
397.9704866550981
 31
0.0
  0
LINE
  5
139E
330
12D9
100
AcDbEntity
  8
0
 62
     0
370
    -2
100
AcDbLine
 10
514.3020564142368
 20
412.9904333935928
 30
0.0
 11
514.3020564142368
 21
397.9704866550981
 31
0.0
  0
LINE
  5
139F
330
12D9
100
AcDbEntity
  8
0
 62
     0
370
    -2
100
AcDbLine
 10
508.1020564142368
 20
399.9704866550981
 30
0.0
 11
506.6020564142368
 21
399.9704866550981
 31
0.0
  0
LINE
  5
13A0
330
12D9
100
AcDbEntity
  8
0
 62
     0
370
    -2
100
AcDbLine
 10
515.8020564142368
 20
399.9704866550981
 30
0.0
 11
517.3020564142368
 21
399.9704866550981
 31
0.0
  0
SOLID
  5
13A1
330
12D9
100
AcDbEntity
  8
0
 62
     0
100
AcDbTrace
 10
508.1020564142368
 20
400.2204866550981
 30
0.0
 11
508.1020564142368
 21
399.7204866550981
 31
0.0
 12
509.6020564142368
 22
399.9704866550981
 32
0.0
 13
509.6020564142368
 23
399.9704866550981
 33
0.0
  0
SOLID
  5
13A2
330
12D9
100
AcDbEntity
  8
0
 62
     0
100
AcDbTrace
 10
515.8020564142368
 20
400.2204866550981
 30
0.0
 11
515.8020564142368
 21
399.7204866550981
 31
0.0
 12
514.3020564142368
 22
399.9704866550981
 32
0.0
 13
514.3020564142368
 23
399.9704866550981
 33
0.0
  0
MTEXT
  5
13A3
330
12D9
100
AcDbEntity
  8
0
 62
     0
100
AcDbMText
 10
511.9520564142368
 20
401.7204866550981
 30
0.0
 40
1.5
 41
0.0
 71
     5
 72
     1
  1
\A1;4.7
 73
     1
 44
1.0
  0
POINT
  5
13A4
330
12D9
100
AcDbEntity
  8
DEFPOINTS
 62
     0
100
AcDbPoint
 10
509.6020564142368
 20
402.4904333935928
 30
0.0
  0
POINT
  5
13A5
330
12D9
100
AcDbEntity
  8
DEFPOINTS
 62
     0
100
AcDbPoint
 10
514.3020564142368
 20
413.9904333935929
 30
0.0
  0
POINT
  5
13A6
330
12D9
100
AcDbEntity
  8
DEFPOINTS
 62
     0
100
AcDbPoint
 10
514.3020564142368
 20
399.9704866550981
 30
0.0
  0
ENDBLK
  5
12E5
330
12D9
100
AcDbEntity
  8
0
100
AcDbBlockEnd
  0
BLOCK
  5
13B3
330
13A8
100
AcDbEntity
  8
0
100
AcDbBlockBegin
  2
*D37
 70
     1
 10
0.0
 20
0.0
 30
0.0
  3
*D37
  1

  0
LINE
  5
13B5
330
13A8
100
AcDbEntity
  8
0
 62
     0
370
    -2
100
AcDbLine
 10
509.6020564142368
 20
401.490433393593
 30
0.0
 11
509.6020564142368
 21
400.2802784313148
 31
0.0
  0
LINE
  5
13B6
330
13A8
100
AcDbEntity
  8
0
 62
     0
370
    -2
100
AcDbLine
 10
514.3020564142368
 20
412.9904333935928
 30
0.0
 11
514.3020564142368
 21
400.2802784313148
 31
0.0
  0
LINE
  5
13B7
330
13A8
100
AcDbEntity
  8
0
 62
     0
370
    -2
100
AcDbLine
 10
508.1020564142368
 20
402.2802784313148
 30
0.0
 11
506.6020564142368
 21
402.2802784313148
 31
0.0
  0
LINE
  5
13B8
330
13A8
100
AcDbEntity
  8
0
 62
     0
370
    -2
100
AcDbLine
 10
515.8020564142368
 20
402.2802784313148
 30
0.0
 11
517.3020564142368
 21
402.2802784313148
 31
0.0
  0
SOLID
  5
13B9
330
13A8
100
AcDbEntity
  8
0
 62
     0
100
AcDbTrace
 10
508.1020564142368
 20
402.5302784313148
 30
0.0
 11
508.1020564142368
 21
402.0302784313148
 31
0.0
 12
509.6020564142368
 22
402.2802784313148
 32
0.0
 13
509.6020564142368
 23
402.2802784313148
 33
0.0
  0
SOLID
  5
13BA
330
13A8
100
AcDbEntity
  8
0
 62
     0
100
AcDbTrace
 10
515.8020564142368
 20
402.5302784313148
 30
0.0
 11
515.8020564142368
 21
402.0302784313148
 31
0.0
 12
514.3020564142368
 22
402.2802784313148
 32
0.0
 13
514.3020564142368
 23
402.2802784313148
 33
0.0
  0
MTEXT
  5
13BB
330
13A8
100
AcDbEntity
  8
0
 62
     0
100
AcDbMText
 10
511.9520564142368
 20
404.0302784313148
 30
0.0
 40
1.5
 41
0.0
 71
     5
 72
     1
  1
\A1;4.70
 73
     1
 44
1.0
  0
POINT
  5
13BC
330
13A8
100
AcDbEntity
  8
DEFPOINTS
 62
     0
100
AcDbPoint
 10
509.6020564142368
 20
402.4904333935928
 30
0.0
  0
POINT
  5
13BD
330
13A8
100
AcDbEntity
  8
DEFPOINTS
 62
     0
100
AcDbPoint
 10
514.3020564142368
 20
413.9904333935929
 30
0.0
  0
POINT
  5
13BE
330
13A8
100
AcDbEntity
  8
DEFPOINTS
 62
     0
100
AcDbPoint
 10
514.3020564142368
 20
402.2802784313148
 30
0.0
  0
ENDBLK
  5
13B4
330
13A8
100
AcDbEntity
  8
0
100
AcDbBlockEnd
  0
BLOCK
  5
13CB
330
13C0
100
AcDbEntity
  8
0
100
AcDbBlockBegin
  2
*D38
 70
     1
 10
0.0
 20
0.0
 30
0.0
  3
*D38
  1

  0
LINE
  5
13E1
330
13C0
100
AcDbEntity
  8
0
 62
     0
370
    -2
100
AcDbLine
 10
509.6020564142368
 20
401.490433393593
 30
0.0
 11
509.6020564142368
 21
398.4834331325373
 31
0.0
  0
LINE
  5
13E2
330
13C0
100
AcDbEntity
  8
0
 62
     0
370
    -2
100
AcDbLine
 10
514.3020564142368
 20
412.9904333935928
 30
0.0
 11
514.3020564142368
 21
398.4834331325373
 31
0.0
  0
LINE
  5
13E3
330
13C0
100
AcDbEntity
  8
0
 62
     0
370
    -2
100
AcDbLine
 10
508.1020564142368
 20
400.4834331325374
 30
0.0
 11
506.6020564142368
 21
400.4834331325374
 31
0.0
  0
LINE
  5
13E4
330
13C0
100
AcDbEntity
  8
0
 62
     0
370
    -2
100
AcDbLine
 10
515.8020564142368
 20
400.4834331325374
 30
0.0
 11
517.3020564142368
 21
400.4834331325374
 31
0.0
  0
SOLID
  5
13E5
330
13C0
100
AcDbEntity
  8
0
 62
     0
100
AcDbTrace
 10
508.1020564142368
 20
400.7334331325373
 30
0.0
 11
508.1020564142368
 21
400.2334331325373
 31
0.0
 12
509.6020564142368
 22
400.4834331325374
 32
0.0
 13
509.6020564142368
 23
400.4834331325374
 33
0.0
  0
SOLID
  5
13E6
330
13C0
100
AcDbEntity
  8
0
 62
     0
100
AcDbTrace
 10
515.8020564142368
 20
400.7334331325373
 30
0.0
 11
515.8020564142368
 21
400.2334331325373
 31
0.0
 12
514.3020564142368
 22
400.4834331325374
 32
0.0
 13
514.3020564142368
 23
400.4834331325374
 33
0.0
  0
MTEXT
  5
13E7
330
13C0
100
AcDbEntity
  8
0
 62
     0
100
AcDbMText
 10
511.9520564142368
 20
402.2334331325373
 30
0.0
 40
1.5
 41
0.0
 71
     5
 72
     1
  1
\A1;4.7
 73
     1
 44
1.0
  0
POINT
  5
13E8
330
13C0
100
AcDbEntity
  8
DEFPOINTS
 62
     0
100
AcDbPoint
 10
509.6020564142368
 20
402.4904333935928
 30
0.0
  0
POINT
  5
13E9
330
13C0
100
AcDbEntity
  8
DEFPOINTS
 62
     0
100
AcDbPoint
 10
514.3020564142368
 20
413.9904333935929
 30
0.0
  0
POINT
  5
13EA
330
13C0
100
AcDbEntity
  8
DEFPOINTS
 62
     0
100
AcDbPoint
 10
514.3020564142368
 20
400.4834331325374
 30
0.0
  0
ENDBLK
  5
13CC
330
13C0
100
AcDbEntity
  8
0
100
AcDbBlockEnd
  0
BLOCK
  5
13F7
330
13EC
100
AcDbEntity
  8
0
100
AcDbBlockBegin
  2
*D39
 70
     1
 10
0.0
 20
0.0
 30
0.0
  3
*D39
  1

  0
LINE
  5
13F9
330
13EC
100
AcDbEntity
  8
0
 62
     0
370
    -2
100
AcDbLine
 10
509.6020564142368
 20
401.490433393593
 30
0.0
 11
509.6020564142368
 21
387.9498149765656
 31
0.0
  0
LINE
  5
13FA
330
13EC
100
AcDbEntity
  8
0
 62
     0
370
    -2
100
AcDbLine
 10
514.3020564142368
 20
412.9904333935928
 30
0.0
 11
514.3020564142368
 21
387.9498149765656
 31
0.0
  0
LINE
  5
13FB
330
13EC
100
AcDbEntity
  8
0
 62
     0
370
    -2
100
AcDbLine
 10
508.1020564142368
 20
389.9498149765656
 30
0.0
 11
506.6020564142368
 21
389.9498149765656
 31
0.0
  0
LINE
  5
13FC
330
13EC
100
AcDbEntity
  8
0
 62
     0
370
    -2
100
AcDbLine
 10
515.8020564142368
 20
389.9498149765656
 30
0.0
 11
523.5520564142368
 21
389.9498149765656
 31
0.0
  0
SOLID
  5
13FD
330
13EC
100
AcDbEntity
  8
0
 62
     0
100
AcDbTrace
 10
508.1020564142368
 20
390.1998149765656
 30
0.0
 11
508.1020564142368
 21
389.6998149765656
 31
0.0
 12
509.6020564142368
 22
389.9498149765656
 32
0.0
 13
509.6020564142368
 23
389.9498149765656
 33
0.0
  0
SOLID
  5
13FE
330
13EC
100
AcDbEntity
  8
0
 62
     0
100
AcDbTrace
 10
515.8020564142368
 20
390.1998149765656
 30
0.0
 11
515.8020564142368
 21
389.6998149765656
 31
0.0
 12
514.3020564142368
 22
389.9498149765656
 32
0.0
 13
514.3020564142368
 23
389.9498149765656
 33
0.0
  0
MTEXT
  5
13FF
330
13EC
100
AcDbEntity
  8
0
 62
     0
100
AcDbMText
 10
520.4270564142368
 20
391.6998149765656
 30
0.0
 40
1.5
 41
0.0
 71
     5
 72
     1
  1
\A1;4.70
 73
     1
 44
1.0
  0
POINT
  5
1400
330
13EC
100
AcDbEntity
  8
DEFPOINTS
 62
     0
100
AcDbPoint
 10
509.6020564142368
 20
402.4904333935928
 30
0.0
  0
POINT
  5
1401
330
13EC
100
AcDbEntity
  8
DEFPOINTS
 62
     0
100
AcDbPoint
 10
514.3020564142368
 20
413.9904333935929
 30
0.0
  0
POINT
  5
1402
330
13EC
100
AcDbEntity
  8
DEFPOINTS
 62
     0
100
AcDbPoint
 10
514.3020564142368
 20
389.9498149765656
 30
0.0
  0
ENDBLK
  5
13F8
330
13EC
100
AcDbEntity
  8
0
100
AcDbBlockEnd
  0
BLOCK
  5
140F
330
1404
100
AcDbEntity
  8
0
100
AcDbBlockBegin
  2
*D40
 70
     1
 10
0.0
 20
0.0
 30
0.0
  3
*D40
  1

  0
LINE
  5
1405
330
1404
100
AcDbEntity
  8
0
 62
     0
370
    -2
100
AcDbLine
 10
509.6020564142368
 20
403.4904333935929
 30
0.0
 11
509.6020564142368
 21
410.3116429545923
 31
0.0
  0
LINE
  5
1406
330
1404
100
AcDbEntity
  8
0
 62
     0
370
    -2
100
AcDbLine
 10
514.3020564142368
 20
412.9904333935928
 30
0.0
 11
514.3020564142368
 21
406.3116429545923
 31
0.0
  0
LINE
  5
1407
330
1404
100
AcDbEntity
  8
0
 62
     0
370
    -2
100
AcDbLine
 10
508.1020564142368
 20
408.3116429545922
 30
0.0
 11
506.6020564142368
 21
408.3116429545922
 31
0.0
  0
LINE
  5
1408
330
1404
100
AcDbEntity
  8
0
 62
     0
370
    -2
100
AcDbLine
 10
515.8020564142368
 20
408.3116429545922
 30
0.0
 11
523.5520564142368
 21
408.3116429545922
 31
0.0
  0
SOLID
  5
1409
330
1404
100
AcDbEntity
  8
0
 62
     0
100
AcDbTrace
 10
508.1020564142368
 20
408.5616429545923
 30
0.0
 11
508.1020564142368
 21
408.0616429545923
 31
0.0
 12
509.6020564142368
 22
408.3116429545922
 32
0.0
 13
509.6020564142368
 23
408.3116429545922
 33
0.0
  0
SOLID
  5
140A
330
1404
100
AcDbEntity
  8
0
 62
     0
100
AcDbTrace
 10
515.8020564142368
 20
408.5616429545923
 30
0.0
 11
515.8020564142368
 21
408.0616429545923
 31
0.0
 12
514.3020564142368
 22
408.3116429545922
 32
0.0
 13
514.3020564142368
 23
408.3116429545922
 33
0.0
  0
MTEXT
  5
140B
330
1404
100
AcDbEntity
  8
0
 62
     0
100
AcDbMText
 10
520.4270564142368
 20
410.0616429545922
 30
0.0
 40
1.5
 41
0.0
 71
     5
 72
     1
  1
\A1;4.70
 73
     1
 44
1.0
  0
POINT
  5
140C
330
1404
100
AcDbEntity
  8
DEFPOINTS
 62
     0
100
AcDbPoint
 10
509.6020564142368
 20
402.4904333935928
 30
0.0
  0
POINT
  5
140D
330
1404
100
AcDbEntity
  8
DEFPOINTS
 62
     0
100
AcDbPoint
 10
514.3020564142368
 20
413.9904333935929
 30
0.0
  0
POINT
  5
140E
330
1404
100
AcDbEntity
  8
DEFPOINTS
 62
     0
100
AcDbPoint
 10
514.3020564142368
 20
408.3116429545922
 30
0.0
  0
ENDBLK
  5
1410
330
1404
100
AcDbEntity
  8
0
100
AcDbBlockEnd
  0
BLOCK
  5
141C
330
1412
100
AcDbEntity
  8
0
100
AcDbBlockBegin
  2
*D41
 70
     1
 10
0.0
 20
0.0
 30
0.0
  3
*D41
  1

  0
LINE
  5
1413
330
1412
100
AcDbEntity
  8
0
 62
     0
370
    -2
100
AcDbLine
 10
499.4420564142368
 20
403.4904333935929
 30
0.0
 11
499.4420564142368
 21
406.6619412464941
 31
0.0
  0
LINE
  5
1414
330
1412
100
AcDbEntity
  8
0
 62
     0
370
    -2
100
AcDbLine
 10
509.6020564142368
 20
403.4904333935929
 30
0.0
 11
509.6020564142368
 21
406.6619412464941
 31
0.0
  0
LINE
  5
1415
330
1412
100
AcDbEntity
  8
0
 62
     0
370
    -2
100
AcDbLine
 10
500.9420564142367
 20
404.6619412464941
 30
0.0
 11
508.1020564142368
 21
404.6619412464941
 31
0.0
  0
SOLID
  5
1416
330
1412
100
AcDbEntity
  8
0
 62
     0
100
AcDbTrace
 10
500.9420564142367
 20
404.9119412464941
 30
0.0
 11
500.9420564142367
 21
404.4119412464941
 31
0.0
 12
499.4420564142368
 22
404.6619412464941
 32
0.0
 13
499.4420564142368
 23
404.6619412464941
 33
0.0
  0
SOLID
  5
1417
330
1412
100
AcDbEntity
  8
0
 62
     0
100
AcDbTrace
 10
508.1020564142368
 20
404.9119412464941
 30
0.0
 11
508.1020564142368
 21
404.4119412464941
 31
0.0
 12
509.6020564142368
 22
404.6619412464941
 32
0.0
 13
509.6020564142368
 23
404.6619412464941
 33
0.0
  0
MTEXT
  5
1418
330
1412
100
AcDbEntity
  8
0
 62
     0
100
AcDbMText
 10
504.5220564142367
 20
406.4119412464942
 30
0.0
 40
1.5
 41
0.0
 71
     5
 72
     1
  1
\A1;10.16
 73
     1
 44
1.0
  0
POINT
  5
1419
330
1412
100
AcDbEntity
  8
DEFPOINTS
 62
     0
100
AcDbPoint
 10
499.4420564142368
 20
402.4904333935928
 30
0.0
  0
POINT
  5
141A
330
1412
100
AcDbEntity
  8
DEFPOINTS
 62
     0
100
AcDbPoint
 10
509.6020564142368
 20
402.4904333935928
 30
0.0
  0
POINT
  5
141B
330
1412
100
AcDbEntity
  8
DEFPOINTS
 62
     0
100
AcDbPoint
 10
509.6020564142368
 20
404.6619412464941
 30
0.0
  0
ENDBLK
  5
141D
330
1412
100
AcDbEntity
  8
0
100
AcDbBlockEnd
  0
BLOCK
  5
14A8
330
149E
100
AcDbEntity
  8
0
100
AcDbBlockBegin
  2
*D42
 70
     1
 10
0.0
 20
0.0
 30
0.0
  3
*D42
  1

  0
LINE
  5
16DB
330
149E
100
AcDbEntity
  8
0
 62
     0
370
    -2
100
AcDbLine
 10
522.3020564142366
 20
401.4904333935928
 30
0.0
 11
522.3020564142366
 21
391.6345956760018
 31
0.0
  0
LINE
  5
16DC
330
149E
100
AcDbEntity
  8
0
 62
     0
370
    -2
100
AcDbLine
 10
527.3820564142368
 20
401.4904333935928
 30
0.0
 11
527.3820564142368
 21
391.6345956760018
 31
0.0
  0
LINE
  5
16DD
330
149E
100
AcDbEntity
  8
0
 62
     0
370
    -2
100
AcDbLine
 10
523.8020564142366
 20
393.6345956760018
 30
0.0
 11
525.8820564142367
 21
393.6345956760018
 31
0.0
  0
SOLID
  5
16DE
330
149E
100
AcDbEntity
  8
0
 62
     0
100
AcDbTrace
 10
523.8020564142366
 20
393.8845956760019
 30
0.0
 11
523.8020564142366
 21
393.3845956760018
 31
0.0
 12
522.3020564142366
 22
393.6345956760018
 32
0.0
 13
522.3020564142366
 23
393.6345956760018
 33
0.0
  0
SOLID
  5
16DF
330
149E
100
AcDbEntity
  8
0
 62
     0
100
AcDbTrace
 10
525.8820564142367
 20
393.8845956760019
 30
0.0
 11
525.8820564142367
 21
393.3845956760018
 31
0.0
 12
527.3820564142368
 22
393.6345956760018
 32
0.0
 13
527.3820564142368
 23
393.6345956760018
 33
0.0
  0
MTEXT
  5
16E0
330
149E
100
AcDbEntity
  8
0
 62
     0
100
AcDbMText
 10
524.8420564142366
 20
395.1345956760019
 30
0.0
 40
1.0
 41
0.0
 71
     5
 72
     1
  1
\A1;(5.08)
 73
     1
 44
1.0
  0
POINT
  5
16E1
330
149E
100
AcDbEntity
  8
DEFPOINTS
 62
     0
100
AcDbPoint
 10
522.3020564142366
 20
402.4904333935928
 30
0.0
  0
POINT
  5
16E2
330
149E
100
AcDbEntity
  8
DEFPOINTS
 62
     0
100
AcDbPoint
 10
527.3820564142368
 20
402.4904333935928
 30
0.0
  0
POINT
  5
16E3
330
149E
100
AcDbEntity
  8
DEFPOINTS
 62
     0
100
AcDbPoint
 10
527.3820564142368
 20
393.6345956760018
 30
0.0
  0
ENDBLK
  5
14A9
330
149E
100
AcDbEntity
  8
0
100
AcDbBlockEnd
  0
BLOCK
  5
14DB
330
14D0
100
AcDbEntity
  8
0
100
AcDbBlockBegin
  2
*D43
 70
     1
 10
0.0
 20
0.0
 30
0.0
  3
*D43
  1

  0
LINE
  5
16ED
330
14D0
100
AcDbEntity
  8
0
 62
     0
370
    -2
100
AcDbLine
 10
509.6020564142368
 20
401.4904333935929
 30
0.0
 11
509.6020564142368
 21
397.4111679379709
 31
0.0
  0
LINE
  5
16EE
330
14D0
100
AcDbEntity
  8
0
 62
     0
370
    -2
100
AcDbLine
 10
514.3020564142368
 20
412.9904333935929
 30
0.0
 11
514.3020564142368
 21
397.4111679379709
 31
0.0
  0
LINE
  5
16EF
330
14D0
100
AcDbEntity
  8
0
 62
     0
370
    -2
100
AcDbLine
 10
510.9020564142368
 20
399.4111679379709
 30
0.0
 11
513.0020564142369
 21
399.4111679379709
 31
0.0
  0
SOLID
  5
16F0
330
14D0
100
AcDbEntity
  8
0
 62
     0
100
AcDbTrace
 10
510.9020564142368
 20
399.6278346046376
 30
0.0
 11
510.9020564142368
 21
399.1945012713043
 31
0.0
 12
509.6020564142368
 22
399.4111679379709
 32
0.0
 13
509.6020564142368
 23
399.4111679379709
 33
0.0
  0
SOLID
  5
16F1
330
14D0
100
AcDbEntity
  8
0
 62
     0
100
AcDbTrace
 10
513.0020564142369
 20
399.6278346046376
 30
0.0
 11
513.0020564142369
 21
399.1945012713043
 31
0.0
 12
514.3020564142368
 22
399.4111679379709
 32
0.0
 13
514.3020564142368
 23
399.4111679379709
 33
0.0
  0
MTEXT
  5
16F2
330
14D0
100
AcDbEntity
  8
0
 62
     0
100
AcDbMText
 10
511.9520564142368
 20
400.9111679379709
 30
0.0
 40
1.0
 41
0.0
 71
     5
 72
     1
  1
\A1;(4.7)
 73
     1
 44
1.0
  0
POINT
  5
16F3
330
14D0
100
AcDbEntity
  8
DEFPOINTS
 62
     0
100
AcDbPoint
 10
509.6020564142368
 20
402.4904333935928
 30
0.0
  0
POINT
  5
16F4
330
14D0
100
AcDbEntity
  8
DEFPOINTS
 62
     0
100
AcDbPoint
 10
514.3020564142368
 20
413.9904333935929
 30
0.0
  0
POINT
  5
16F5
330
14D0
100
AcDbEntity
  8
DEFPOINTS
 62
     0
100
AcDbPoint
 10
514.3020564142368
 20
399.4111679379709
 30
0.0
  0
ENDBLK
  5
14DC
330
14D0
100
AcDbEntity
  8
0
100
AcDbBlockEnd
  0
BLOCK
  5
1533
330
1529
100
AcDbEntity
  8
0
100
AcDbBlockBegin
  2
*D44
 70
     1
 10
0.0
 20
0.0
 30
0.0
  3
*D44
  1

  0
LINE
  5
1658
330
1529
100
AcDbEntity
  8
0
 62
     0
370
    -2
100
AcDbLine
 10
552.8020564142366
 20
444.4904333935929
 30
0.0
 11
552.8020564142366
 21
451.1661120868025
 31
0.0
  0
LINE
  5
1659
330
1529
100
AcDbEntity
  8
0
 62
     0
370
    -2
100
AcDbLine
 10
560.8020564142366
 20
444.4904333935929
 30
0.0
 11
560.8020564142366
 21
451.1661120868025
 31
0.0
  0
LINE
  5
165A
330
1529
100
AcDbEntity
  8
0
 62
     0
370
    -2
100
AcDbLine
 10
554.3020564142365
 20
449.1661120868025
 30
0.0
 11
559.3020564142366
 21
449.1661120868025
 31
0.0
  0
SOLID
  5
165B
330
1529
100
AcDbEntity
  8
0
 62
     0
100
AcDbTrace
 10
554.3020564142365
 20
449.4161120868024
 30
0.0
 11
554.3020564142365
 21
448.9161120868025
 31
0.0
 12
552.8020564142366
 22
449.1661120868025
 32
0.0
 13
552.8020564142366
 23
449.1661120868025
 33
0.0
  0
SOLID
  5
165C
330
1529
100
AcDbEntity
  8
0
 62
     0
100
AcDbTrace
 10
559.3020564142366
 20
449.4161120868024
 30
0.0
 11
559.3020564142366
 21
448.9161120868025
 31
0.0
 12
560.8020564142366
 22
449.1661120868025
 32
0.0
 13
560.8020564142366
 23
449.1661120868025
 33
0.0
  0
MTEXT
  5
165D
330
1529
100
AcDbEntity
  8
0
 62
     0
100
AcDbMText
 10
556.8020564142366
 20
450.8661120868024
 30
0.0
 40
1.399999999999999
 41
0.0
 71
     5
 72
     1
  1
\A1;8(Max)
 73
     1
 44
1.0
  0
POINT
  5
165E
330
1529
100
AcDbEntity
  8
DEFPOINTS
 62
     0
100
AcDbPoint
 10
552.8020564142366
 20
443.4904333935929
 30
0.0
  0
POINT
  5
165F
330
1529
100
AcDbEntity
  8
DEFPOINTS
 62
     0
100
AcDbPoint
 10
560.8020564142366
 20
443.4904333935929
 30
0.0
  0
POINT
  5
1660
330
1529
100
AcDbEntity
  8
DEFPOINTS
 62
     0
100
AcDbPoint
 10
560.8020564142366
 20
449.1661120868025
 30
0.0
  0
ENDBLK
  5
1534
330
1529
100
AcDbEntity
  8
0
100
AcDbBlockEnd
  0
BLOCK
  5
156F
330
1564
100
AcDbEntity
  8
0
100
AcDbBlockBegin
  2
*D45
 70
     1
 10
0.0
 20
0.0
 30
0.0
  3
*D45
  1

  0
LINE
  5
1661
330
1564
100
AcDbEntity
  8
0
 62
     0
370
    -2
100
AcDbLine
 10
552.8020564142366
 20
413.9904333935929
 30
0.0
 11
552.8020564142366
 21
393.384595676002
 31
0.0
  0
LINE
  5
1662
330
1564
100
AcDbEntity
  8
0
 62
     0
370
    -2
100
AcDbLine
 10
556.8020564142366
 20
401.4904333935929
 30
0.0
 11
556.8020564142366
 21
393.384595676002
 31
0.0
  0
LINE
  5
1663
330
1564
100
AcDbEntity
  8
0
 62
     0
370
    -2
100
AcDbLine
 10
553.8020564142366
 20
395.3845956760019
 30
0.0
 11
555.8020564142366
 21
395.3845956760019
 31
0.0
  0
SOLID
  5
1664
330
1564
100
AcDbEntity
  8
0
 62
     0
100
AcDbTrace
 10
553.8020564142366
 20
395.5512623426686
 30
0.0
 11
553.8020564142366
 21
395.2179290093353
 31
0.0
 12
552.8020564142366
 22
395.3845956760019
 32
0.0
 13
552.8020564142366
 23
395.3845956760019
 33
0.0
  0
SOLID
  5
1665
330
1564
100
AcDbEntity
  8
0
 62
     0
100
AcDbTrace
 10
555.8020564142366
 20
395.5512623426686
 30
0.0
 11
555.8020564142366
 21
395.2179290093353
 31
0.0
 12
556.8020564142366
 22
395.3845956760019
 32
0.0
 13
556.8020564142366
 23
395.3845956760019
 33
0.0
  0
MTEXT
  5
1666
330
1564
100
AcDbEntity
  8
0
 62
     0
100
AcDbMText
 10
554.8020564142366
 20
397.134595676002
 30
0.0
 40
1.5
 41
0.0
 71
     5
 72
     1
  1
\A1;4±1
 73
     1
 44
1.0
  0
POINT
  5
1667
330
1564
100
AcDbEntity
  8
DEFPOINTS
 62
     0
100
AcDbPoint
 10
552.8020564142366
 20
414.9904333935928
 30
0.0
  0
POINT
  5
1668
330
1564
100
AcDbEntity
  8
DEFPOINTS
 62
     0
100
AcDbPoint
 10
556.8020564142366
 20
402.4904333935928
 30
0.0
  0
POINT
  5
1669
330
1564
100
AcDbEntity
  8
DEFPOINTS
 62
     0
100
AcDbPoint
 10
556.8020564142366
 20
395.3845956760019
 30
0.0
  0
ENDBLK
  5
1570
330
1564
100
AcDbEntity
  8
0
100
AcDbBlockEnd
  0
BLOCK
  5
15B8
330
15AD
100
AcDbEntity
  8
0
100
AcDbBlockBegin
  2
*D46
 70
     1
 10
0.0
 20
0.0
 30
0.0
  3
*D46
  1

  0
LINE
  5
15D8
330
15AD
100
AcDbEntity
  8
0
 62
     0
370
    -2
100
AcDbLine
 10
556.3020564142366
 20
403.4904333935929
 30
0.0
 11
556.3020564142366
 21
406.2343611864923
 31
0.0
  0
LINE
  5
15D9
330
15AD
100
AcDbEntity
  8
0
 62
     0
370
    -2
100
AcDbLine
 10
557.3020564142366
 20
403.4904333935929
 30
0.0
 11
557.3020564142366
 21
406.2343611864923
 31
0.0
  0
LINE
  5
15DA
330
15AD
100
AcDbEntity
  8
0
 62
     0
370
    -2
100
AcDbLine
 10
554.8020564142366
 20
404.2343611864923
 30
0.0
 11
553.3020564142366
 21
404.2343611864923
 31
0.0
  0
LINE
  5
15DB
330
15AD
100
AcDbEntity
  8
0
 62
     0
370
    -2
100
AcDbLine
 10
558.8020564142366
 20
404.2343611864923
 30
0.0
 11
567.0520564142367
 21
404.2343611864923
 31
0.0
  0
SOLID
  5
15DC
330
15AD
100
AcDbEntity
  8
0
 62
     0
100
AcDbTrace
 10
554.8020564142366
 20
404.4843611864924
 30
0.0
 11
554.8020564142366
 21
403.9843611864923
 31
0.0
 12
556.3020564142366
 22
404.2343611864923
 32
0.0
 13
556.3020564142366
 23
404.2343611864923
 33
0.0
  0
SOLID
  5
15DD
330
15AD
100
AcDbEntity
  8
0
 62
     0
100
AcDbTrace
 10
558.8020564142366
 20
404.4843611864924
 30
0.0
 11
558.8020564142366
 21
403.9843611864923
 31
0.0
 12
557.3020564142366
 22
404.2343611864923
 32
0.0
 13
557.3020564142366
 23
404.2343611864923
 33
0.0
  0
MTEXT
  5
15DE
330
15AD
100
AcDbEntity
  8
0
 62
     0
100
AcDbMText
 10
563.6770564142367
 20
405.9843611864923
 30
0.0
 40
1.5
 41
0.0
 71
     5
 72
     1
  1
\A1;4-Φ1
 73
     1
 44
1.0
  0
POINT
  5
15DF
330
15AD
100
AcDbEntity
  8
DEFPOINTS
 62
     0
100
AcDbPoint
 10
556.3020564142366
 20
402.4904333935928
 30
0.0
  0
POINT
  5
15E0
330
15AD
100
AcDbEntity
  8
DEFPOINTS
 62
     0
100
AcDbPoint
 10
557.3020564142366
 20
402.4904333935928
 30
0.0
  0
POINT
  5
15E1
330
15AD
100
AcDbEntity
  8
DEFPOINTS
 62
     0
100
AcDbPoint
 10
557.3020564142366
 20
404.2343611864923
 30
0.0
  0
ENDBLK
  5
15B9
330
15AD
100
AcDbEntity
  8
0
100
AcDbBlockEnd
  0
ENDSEC
  0
SECTION
  2
ENTITIES
  0
LINE
  5
EB0
330
2
100
AcDbEntity
  8
0
100
AcDbLine
 10
495.8020564142369
 20
444.4904333935929
 30
0.0
 11
532.8020564142366
 21
444.4904333935929
 31
0.0
  0
LINE
  5
EB1
330
2
100
AcDbEntity
  8
0
100
AcDbLine
 10
534.8020564142366
 20
442.490433393593
 30
0.0
 11
534.8020564142366
 21
415.9904333935929
 31
0.0
  0
ARC
  5
EF8
330
2
100
AcDbEntity
  8
0
100
AcDbCircle
 10
522.3020564142366
 20
413.4904333935928
 30
0.0
 40
0.9999999999999431
100
AcDbArc
 50
179.9999999999966
 51
0.0000000000032569
  0
ARC
  5
EF9
330
2
100
AcDbEntity
  8
0
100
AcDbCircle
 10
527.3820564142368
 20
413.4904333935928
 30
0.0
 40
0.9999999999999431
100
AcDbArc
 50
179.9999999999966
 51
0.0000000000032569
  0
ARC
  5
EFA
330
2
100
AcDbEntity
  8
0
100
AcDbCircle
 10
509.6020564142368
 20
413.4904333935929
 30
0.0
 40
0.9999999999999431
100
AcDbArc
 50
180.0000000000032
 51
359.9999999999967
  0
ARC
  5
EFB
330
2
100
AcDbEntity
  8
0
100
AcDbCircle
 10
499.4420564142368
 20
413.4904333935929
 30
0.0
 40
0.9999999999999431
100
AcDbArc
 50
180.0000000000032
 51
359.9999999999967
  0
LINE
  5
EFC
330
2
100
AcDbEntity
  8
0
100
AcDbLine
 10
498.4420564142368
 20
413.4904333935928
 30
0.0
 11
498.4420564142368
 21
413.9904333935929
 31
0.0
  0
LINE
  5
EFD
330
2
100
AcDbEntity
  8
0
100
AcDbLine
 10
495.8020564142368
 20
413.9904333935929
 30
0.0
 11
532.8020564142366
 21
413.9904333935929
 31
0.0
  0
LINE
  5
EFE
330
2
100
AcDbEntity
  8
0
100
AcDbLine
 10
500.4420564142367
 20
413.4904333935928
 30
0.0
 11
500.4420564142367
 21
413.9904333935929
 31
0.0
  0
LINE
  5
EFF
330
2
100
AcDbEntity
  8
0
100
AcDbLine
 10
508.6020564142367
 20
413.4904333935928
 30
0.0
 11
508.6020564142367
 21
413.9904333935929
 31
0.0
  0
LINE
  5
F00
330
2
100
AcDbEntity
  8
0
100
AcDbLine
 10
510.6020564142367
 20
413.4904333935928
 30
0.0
 11
510.6020564142367
 21
413.9904333935929
 31
0.0
  0
LINE
  5
F01
330
2
100
AcDbEntity
  8
0
100
AcDbLine
 10
521.3020564142368
 20
413.4904333935929
 30
0.0
 11
521.3020564142368
 21
413.9904333935929
 31
0.0
  0
LINE
  5
F02
330
2
100
AcDbEntity
  8
0
100
AcDbLine
 10
523.3020564142366
 20
413.4904333935929
 30
0.0
 11
523.3020564142366
 21
413.9904333935929
 31
0.0
  0
LINE
  5
F03
330
2
100
AcDbEntity
  8
0
100
AcDbLine
 10
526.3820564142368
 20
413.490433393593
 30
0.0
 11
526.3820564142368
 21
413.990433393593
 31
0.0
  0
LINE
  5
F04
330
2
100
AcDbEntity
  8
0
100
AcDbLine
 10
528.3820564142367
 20
413.490433393593
 30
0.0
 11
528.3820564142367
 21
413.990433393593
 31
0.0
  0
LINE
  5
F05
330
2
100
AcDbEntity
  8
0
100
AcDbLine
 10
493.8020564142369
 20
442.4904333935929
 30
0.0
 11
493.8020564142369
 21
415.9904333935927
 31
0.0
  0
LINE
  5
F07
330
2
100
AcDbEntity
  8
0
100
AcDbLine
 10
527.8820564142367
 20
412.6244079898085
 30
0.0
 11
527.8820564142367
 21
402.4904333935928
 31
0.0
  0
LINE
  5
F08
330
2
100
AcDbEntity
  8
0
100
AcDbLine
 10
526.8820564142368
 20
412.6244079898085
 30
0.0
 11
526.8820564142368
 21
402.4904333935928
 31
0.0
  0
LINE
  5
F0C
330
2
100
AcDbEntity
  8
0
100
AcDbLine
 10
522.8020564142366
 20
412.6244079898085
 30
0.0
 11
522.8020564142366
 21
402.4904333935928
 31
0.0
  0
LINE
  5
F0D
330
2
100
AcDbEntity
  8
0
100
AcDbLine
 10
521.8020564142366
 20
412.6244079898085
 30
0.0
 11
521.8020564142366
 21
402.4904333935928
 31
0.0
  0
LINE
  5
F0E
330
2
100
AcDbEntity
  8
0
100
AcDbLine
 10
510.1020564142368
 20
412.6244079898085
 30
0.0
 11
510.1020564142368
 21
402.4904333935928
 31
0.0
  0
LINE
  5
F0F
330
2
100
AcDbEntity
  8
0
100
AcDbLine
 10
509.1020564142366
 20
412.6244079898085
 30
0.0
 11
509.1020564142366
 21
402.4904333935928
 31
0.0
  0
LINE
  5
F10
330
2
100
AcDbEntity
  8
0
100
AcDbLine
 10
499.9420564142368
 20
412.6244079898085
 30
0.0
 11
499.9420564142368
 21
402.4904333935928
 31
0.0
  0
LINE
  5
F11
330
2
100
AcDbEntity
  8
0
100
AcDbLine
 10
498.9420564142368
 20
412.6244079898085
 30
0.0
 11
498.9420564142368
 21
402.4904333935928
 31
0.0
  0
LINE
  5
F12
330
2
100
AcDbEntity
  8
0
100
AcDbLine
 10
498.9420564142368
 20
402.4904333935928
 30
0.0
 11
499.9420564142368
 21
402.4904333935928
 31
0.0
  0
LINE
  5
F13
330
2
100
AcDbEntity
  8
0
100
AcDbLine
 10
509.1020564142366
 20
402.4904333935928
 30
0.0
 11
510.1020564142368
 21
402.4904333935928
 31
0.0
  0
LINE
  5
F14
330
2
100
AcDbEntity
  8
0
100
AcDbLine
 10
521.8020564142366
 20
402.4904333935928
 30
0.0
 11
522.8020564142366
 21
402.4904333935928
 31
0.0
  0
LINE
  5
F15
330
2
100
AcDbEntity
  8
0
100
AcDbLine
 10
527.8820564142367
 20
402.4904333935928
 30
0.0
 11
526.8820564142368
 21
402.4904333935928
 31
0.0
  0
ARC
  5
F16
330
2
100
AcDbEntity
  8
0
100
AcDbCircle
 10
495.8020564142368
 20
415.9904333935927
 30
0.0
 40
2.0
100
AcDbArc
 50
180.0
 51
270.0
  0
ARC
  5
F17
330
2
100
AcDbEntity
  8
0
100
AcDbCircle
 10
532.8020564142366
 20
415.9904333935929
 30
0.0
 40
2.0
100
AcDbArc
 50
270.0
 51
0.0
  0
LINE
  5
F1D
330
2
100
AcDbEntity
  8
0
100
AcDbLine
 10
560.8020564142366
 20
443.4904333935929
 30
0.0
 11
560.8020564142366
 21
414.9904333935928
 31
0.0
  0
LINE
  5
F1E
330
2
100
AcDbEntity
  8
0
100
AcDbLine
 10
553.8020564142366
 20
413.9904333935929
 30
0.0
 11
559.8020564142366
 21
413.990433393593
 31
0.0
  0
ARC
  5
F23
330
2
100
AcDbEntity
  8
0
100
AcDbCircle
 10
556.8020564142366
 20
413.4904333935928
 30
0.0
 40
0.9999999999999431
100
AcDbArc
 50
179.9999999999966
 51
0.0000000000032569
  0
LINE
  5
F24
330
2
100
AcDbEntity
  8
0
100
AcDbLine
 10
555.8020564142366
 20
413.490433393593
 30
0.0
 11
555.8020564142366
 21
413.990433393593
 31
0.0
  0
LINE
  5
F25
330
2
100
AcDbEntity
  8
0
100
AcDbLine
 10
557.8020564142366
 20
413.490433393593
 30
0.0
 11
557.8020564142366
 21
413.990433393593
 31
0.0
  0
LINE
  5
F26
330
2
100
AcDbEntity
  8
0
100
AcDbLine
 10
557.3020564142366
 20
412.6244079898085
 30
0.0
 11
557.3020564142366
 21
402.4904333935928
 31
0.0
  0
LINE
  5
F27
330
2
100
AcDbEntity
  8
0
100
AcDbLine
 10
556.3020564142366
 20
412.6244079898085
 30
0.0
 11
556.3020564142366
 21
402.4904333935928
 31
0.0
  0
LINE
  5
F28
330
2
100
AcDbEntity
  8
0
100
AcDbLine
 10
557.3020564142366
 20
402.4904333935928
 30
0.0
 11
556.3020564142366
 21
402.4904333935928
 31
0.0
  0
LINE
  5
F2F
330
2
100
AcDbEntity
  8
0
100
AcDbLine
 10
553.8020564142366
 20
444.4904333935929
 30
0.0
 11
559.8020564142366
 21
444.4904333935929
 31
0.0
  0
LINE
  5
F32
330
2
100
AcDbEntity
  8
0
100
AcDbLine
 10
552.8020564142366
 20
443.4904333935929
 30
0.0
 11
552.8020564142366
 21
414.9904333935928
 31
0.0
  0
ARC
  5
F33
330
2
100
AcDbEntity
  8
0
100
AcDbCircle
 10
553.8020564142366
 20
443.4904333935929
 30
0.0
 40
1.0
100
AcDbArc
 50
90.0
 51
180.0
  0
ARC
  5
F34
330
2
100
AcDbEntity
  8
0
100
AcDbCircle
 10
559.8020564142366
 20
443.4904333935929
 30
0.0
 40
1.0
100
AcDbArc
 50
0.0000000000002036
 51
90.0
  0
ARC
  5
F35
330
2
100
AcDbEntity
  8
0
100
AcDbCircle
 10
553.8020564142366
 20
414.9904333935928
 30
0.0
 40
1.0
100
AcDbArc
 50
180.0
 51
270.0000000000004
  0
ARC
  5
F36
330
2
100
AcDbEntity
  8
0
100
AcDbCircle
 10
559.8020564142366
 20
414.9904333935928
 30
0.0
 40
1.0
100
AcDbArc
 50
270.0000000000004
 51
0.0000000000002163
  0
ARC
  5
F37
330
2
100
AcDbEntity
  8
0
100
AcDbCircle
 10
532.8020564142366
 20
442.490433393593
 30
0.0
 40
2.0
100
AcDbArc
 50
0.0
 51
90.0000000000001
  0
ARC
  5
F38
330
2
100
AcDbEntity
  8
0
100
AcDbCircle
 10
495.8020564142369
 20
442.4904333935929
 30
0.0
 40
2.0
100
AcDbArc
 50
90.00000000000005
 51
180.0
  0
DIMENSION
  5
101D
330
2
100
AcDbEntity
  8
0
 62
     5
100
AcDbDimension
  2
*D29
 10
534.8020564142366
 20
449.1661120868025
 30
0.0
 11
514.3020564142368
 21
450.9161120868025
 31
0.0
 70
    32
  1
41(Max)
 71
     5
 42
40.99999999999988
  3
STANDARD
100
AcDbAlignedDimension
 13
493.8020564142369
 23
442.4904333935929
 33
0.0
 14
534.8020564142366
 24
442.490433393593
 34
0.0
100
AcDbRotatedDimension
  0
DIMENSION
  5
1033
330
2
100
AcDbEntity
  8
0
 62
     5
100
AcDbDimension
  2
*D30
 10
541.3710098822014
 20
412.4904333935929
 30
0.0
 11
539.6210098822011
 21
428.4904333935929
 31
0.0
 70
    32
  1
32(Max)
 71
     5
 42
32.00000000000005
  3
STANDARD
100
AcDbAlignedDimension
 13
532.8020564142366
 23
444.4904333935929
 33
0.0
 14
527.3820564142368
 24
412.4904333935929
 34
0.0
 50
90.0
100
AcDbRotatedDimension
  0
DIMENSION
  5
1229
330
2
100
AcDbEntity
  8
0
 62
     5
100
AcDbDimension
  2
*D33
 10
522.3020564142366
 20
393.6345956760018
 30
0.0
 11
515.9520564142367
 21
395.1345956760019
 31
0.0
 70
    32
  1
(12.7)
 71
     5
 42
12.69999999999981
  3
STANDARD
100
AcDbAlignedDimension
 13
509.6020564142368
 23
402.4904333935928
 33
0.0
 14
522.3020564142366
 24
402.4904333935928
 34
0.0
100
AcDbRotatedDimension
1001
ACAD
1000
DSTYLE
1002
{
1070
   140
1040
1.0
1002
}
  0
DIMENSION
  5
12AC
330
2
100
AcDbEntity
  8
0
 62
     5
100
AcDbDimension
  2
*D34
 10
541.3710098822014
 20
402.4904333935928
 30
0.0
 11
539.6210098822011
 21
407.4904333935929
 31
0.0
 70
    32
  1
10(Min)
 71
     5
 42
10.0
  3
STANDARD
100
AcDbAlignedDimension
 13
527.3820564142368
 23
412.4904333935929
 33
0.0
 14
527.3820564142368
 24
402.4904333935928
 34
0.0
 50
90.0
100
AcDbRotatedDimension
  0
DIMENSION
  5
12CB
330
2
100
AcDbEntity
  8
0
 62
     5
100
AcDbDimension
  2
*D35
 10
509.6020564142368
 20
393.6345956760018
 30
0.0
 11
504.5220564142367
 21
395.1345956760019
 31
0.0
 70
    32
  1
(10.16)
 71
     5
 42
10.15999999999996
  3
STANDARD
100
AcDbAlignedDimension
 13
499.4420564142368
 23
402.4904333935928
 33
0.0
 14
509.6020564142368
 24
402.4904333935928
 34
0.0
100
AcDbRotatedDimension
1001
ACAD
1000
DSTYLE
1002
{
1070
   140
1040
1.0
1002
}
  0
DIMENSION
  5
149D
330
2
100
AcDbEntity
  8
0
 62
     5
100
AcDbDimension
  2
*D42
 10
527.3820564142368
 20
393.6345956760018
 30
0.0
 11
524.8420564142366
 21
393.6345956760018
 31
0.0
 70
   160
  1
(5.08)
 71
     5
 42
5.080000000000154
  3
STANDARD
100
AcDbAlignedDimension
 13
522.3020564142366
 23
402.4904333935928
 33
0.0
 14
527.3820564142368
 24
402.4904333935928
 34
0.0
100
AcDbRotatedDimension
1001
ACAD
1000
DSTYLE
1002
{
1070
   140
1040
1.0
1002
}
  0
DIMENSION
  5
14CF
330
2
100
AcDbEntity
  8
0
 62
     5
100
AcDbDimension
  2
*D43
 10
514.3020564142368
 20
399.4111679379709
 30
0.0
 11
511.9520564142368
 21
399.4111679379709
 31
0.0
 70
   160
  1
(4.7)
 71
     5
 42
4.700000000000045
  3
STANDARD
100
AcDbAlignedDimension
 13
509.6020564142368
 23
402.4904333935928
 33
0.0
 14
514.3020564142368
 24
413.9904333935929
 34
0.0
100
AcDbRotatedDimension
1001
ACAD
1000
DSTYLE
1002
{
1070
   140
1040
1.0
1070
    41
1040
1.3
1002
}
  0
DIMENSION
  5
1528
330
2
100
AcDbEntity
  8
0
 62
     5
100
AcDbDimension
  2
*D44
 10
560.8020564142366
 20
449.1661120868025
 30
0.0
 11
556.8020564142366
 21
449.1661120868025
 31
0.0
 70
   160
  1
8(Max)
 71
     5
 42
8.0
  3
STANDARD
100
AcDbAlignedDimension
 13
552.8020564142366
 23
443.4904333935929
 33
0.0
 14
560.8020564142366
 24
443.4904333935929
 34
0.0
100
AcDbRotatedDimension
1001
ACAD
1000
DSTYLE
1002
{
1070
   140
1040
1.399999999999999
1070
    41
1040
1.5
1002
}
  0
DIMENSION
  5
1563
330
2
100
AcDbEntity
  8
0
 62
     5
100
AcDbDimension
  2
*D45
 10
556.8020564142366
 20
395.3845956760019
 30
0.0
 11
554.8020564142366
 21
395.3845956760019
 31
0.0
 70
   160
  1
4±1
 71
     5
 42
4.000000000000113
  3
STANDARD
100
AcDbAlignedDimension
 13
552.8020564142366
 23
414.9904333935928
 33
0.0
 14
556.8020564142366
 24
402.4904333935928
 34
0.0
100
AcDbRotatedDimension
1001
ACAD
1000
DSTYLE
1002
{
1070
    41
1040
1.0
1002
}
  0
LINE
  5
15E2
330
2
100
AcDbEntity
  8
0
100
AcDbLine
 10
556.3020564142366
 20
403.4904333935929
 30
0.0
 11
556.3020564142366
 21
406.2343611864923
 31
0.0
  0
LINE
  5
15E3
330
2
100
AcDbEntity
  8
0
100
AcDbLine
 10
557.3020564142366
 20
403.4904333935929
 30
0.0
 11
557.3020564142366
 21
406.2343611864923
 31
0.0
  0
LINE
  5
15E4
330
2
100
AcDbEntity
  8
0
 62
     5
100
AcDbLine
 10
554.8020564142366
 20
404.2343611864923
 30
0.0
 11
553.3020564142366
 21
404.2343611864923
 31
0.0
  0
LINE
  5
15E5
330
2
100
AcDbEntity
  8
0
 62
     5
100
AcDbLine
 10
558.8020564142366
 20
404.2343611864923
 30
0.0
 11
567.0520564142367
 21
404.2343611864923
 31
0.0
  0
SOLID
  5
15E6
330
2
100
AcDbEntity
  8
0
 62
     5
100
AcDbTrace
 10
554.8020564142366
 20
404.4843611864924
 30
0.0
 11
554.8020564142366
 21
403.9843611864923
 31
0.0
 12
556.3020564142366
 22
404.2343611864923
 32
0.0
 13
556.3020564142366
 23
404.2343611864923
 33
0.0
  0
SOLID
  5
15E7
330
2
100
AcDbEntity
  8
0
 62
     5
100
AcDbTrace
 10
558.8020564142366
 20
404.4843611864924
 30
0.0
 11
558.8020564142366
 21
403.9843611864923
 31
0.0
 12
557.3020564142366
 22
404.2343611864923
 32
0.0
 13
557.3020564142366
 23
404.2343611864923
 33
0.0
  0
MTEXT
  5
15E8
330
2
100
AcDbEntity
  8
0
 62
     5
100
AcDbMText
 10
563.6770564142367
 20
405.9843611864923
 30
0.0
 40
1.5
 41
0.0
 71
     5
 72
     1
  1
4-{\fMS UI Gothic|b0|i0|c128|p17;Φ}1
 73
     1
 44
1.0
  0
MTEXT
  5
15EA
330
2
100
AcDbEntity
  8
0
100
AcDbMText
 10
484.1190283839069
 20
466.5648145817646
 30
0.0
 40
5.0
 41
61.3706
 71
     1
 72
     5
  1
{\fMS UI Gothic|b0|i0|c128|p17;外形寸法}
 73
     1
 44
1.0
  0
LINE
  5
168E
330
2
100
AcDbEntity
  8
センタ_
100
AcDbLine
 10
514.3020564142368
 20
444.4904333935929
 30
0.0
 11
514.3020564142368
 21
413.9904333935929
 31
0.0
  0
MTEXT
  5
168F
330
2
100
AcDbEntity
  8
0
100
AcDbMText
 10
484.1190283839069
 20
375.1914056842334
 30
0.0
 40
5.0
 41
90.26663033432717
 71
     1
 72
     5
  1
{\fMS UI Gothic|b0|i0|c128|p17;プリント基板取付穴寸法図}
 73
     1
 44
1.0
  0
CIRCLE
  5
1690
330
2
100
AcDbEntity
  8
0
100
AcDbCircle
 10
499.4420564142368
 20
357.3032366600028
 30
0.0
 40
0.7
  0
CIRCLE
  5
1696
330
2
100
AcDbEntity
  8
0
100
AcDbCircle
 10
509.6020564142368
 20
357.3032366600028
 30
0.0
 40
0.7
  0
CIRCLE
  5
1697
330
2
100
AcDbEntity
  8
0
100
AcDbCircle
 10
522.3020564142366
 20
357.3032366600028
 30
0.0
 40
0.7
  0
CIRCLE
  5
1698
330
2
100
AcDbEntity
  8
0
100
AcDbCircle
 10
527.3820564142368
 20
357.3032366600028
 30
0.0
 40
0.7
  0
LINE
  5
1699
330
2
100
AcDbEntity
  8
センタ_
100
AcDbLine
 10
498.4420564142366
 20
357.3032366600028
 30
0.0
 11
528.3820564142367
 21
357.3032366600028
 31
0.0
  0
LINE
  5
16A0
330
2
100
AcDbEntity
  8
センタ_
100
AcDbLine
 10
499.4420564142368
 20
358.3032366600028
 30
0.0
 11
499.4420564142368
 21
356.3032366600028
 31
0.0
  0
LINE
  5
16A1
330
2
100
AcDbEntity
  8
センタ_
100
AcDbLine
 10
509.6020564142368
 20
358.3032366600028
 30
0.0
 11
509.6020564142368
 21
356.3032366600028
 31
0.0
  0
LINE
  5
16A2
330
2
100
AcDbEntity
  8
センタ_
100
AcDbLine
 10
522.3020564142366
 20
358.3032366600028
 30
0.0
 11
522.3020564142366
 21
356.3032366600028
 31
0.0
  0
LINE
  5
16A3
330
2
100
AcDbEntity
  8
センタ_
100
AcDbLine
 10
527.3820564142368
 20
358.3032366600028
 30
0.0
 11
527.3820564142368
 21
356.3032366600028
 31
0.0
  0
LEADER
  5
16A4
330
2
100
AcDbEntity
  8
0
100
AcDbLeader
  3
STANDARD
 76
     3
 10
528.0884832882962
 20
357.9760270727611
 30
0.0
 10
529.8001500819233
 20
359.6989580721786
 30
0.0
 10
540.2108529030831
 20
359.6989580721786
 30
0.0
1001
ACAD
1000
DSTYLE
1002
{
1070
   147
1040
1.0
1070
    77
1070
     0
1002
}
  0
MTEXT
  5
16A6
330
2
100
AcDbEntity
  8
0
 62
     5
100
AcDbMText
 10
534.9988096063598
 20
361.0970353067676
 30
0.0
 40
1.5
 41
0.0
 71
     5
 72
     1
  1
{\fMS UI Gothic|b0|i0|c128|p17;穴径Φ1.4}
 73
     1
 44
1.0
  0
ENDSEC
  0
SECTION
  2
OBJECTS
  0
DICTIONARY
  5
7
330
0
100
AcDbDictionary
281
     1
  3
ACAD_BACKGROUND
350
CF5
  3
ACAD_CIP_PREVIOUS_PRODUCT_INFO
350
912
  3
ACAD_COLOR
350
8F7
  3
ACAD_GROUP
350
698
  3
ACAD_LAYOUT
350
67A
  3
ACAD_MATERIAL
350
8C5
  3
ACAD_MLEADERSTYLE
350
90C
  3
ACAD_MLINESTYLE
350
699
  3
ACAD_PLOTSETTINGS
350
69A
  3
ACAD_PLOTSTYLENAME
350
6
  3
ACAD_SCALELIST
350
8FA
  3
ACAD_TABLESTYLE
350
8F8
  3
ACAD_VISUALSTYLE
350
8DE
  3
ACDB_RECOMPOSE_DATA
350
E70
  3
AcDbVariableDictionary
350
D59
  3
DWGPROPS
350
E71
  0
DICTIONARY
  5
680
330
67F
100
AcDbDictionary
280
     1
281
     1
  3
ACAD_LAYERFILTERS
360
681
  0
DICTIONARY
  5
D96
330
4
100
AcDbDictionary
280
     1
281
     1
  3
ADSK_XREC_LAYER_RECONCILED
360
D97
  0
DICTIONARY
  5
D98
330
73
100
AcDbDictionary
280
     1
281
     1
  3
ADSK_XREC_LAYER_RECONCILED
360
D99
  0
DICTIONARY
  5
8BD
330
2
100
AcDbDictionary
280
     1
281
     1
  3
ACAD_LAYOUTSELFREF
360
8BE
  3
ACAD_SORTENTS
360
9A5
  0
DICTIONARY
  5
8C1
330
67B
100
AcDbDictionary
280
     1
281
     1
  3
ACAD_LAYOUTSELFREF
360
8C2
  0
DICTIONARY
  5
EA9
330
D89
100
AcDbDictionary
280
     1
281
     1
  3
ACAD_MTEXT_RT
360
EAA
  0
DICTIONARY
  5
EA7
330
AB0
100
AcDbDictionary
280
     1
281
     1
  3
ACAD_MTEXT_RT
360
EA8
  0
DICTIONARY
  5
CF5
102
{ACAD_REACTORS
330
7
102
}
330
7
100
AcDbDictionary
281
     1
  0
XRECORD
  5
912
102
{ACAD_REACTORS
330
7
102
}
330
7
100
AcDbXrecord
280
     1
300
ACD
300
2012
300

  0
DICTIONARY
  5
8F7
102
{ACAD_REACTORS
330
7
102
}
330
7
100
AcDbDictionary
281
     1
  0
DICTIONARY
  5
698
102
{ACAD_REACTORS
330
7
102
}
330
7
100
AcDbDictionary
281
     1
  3
*A1
350
9CA
  3
*A2
350
D47
  0
DICTIONARY
  5
67A
102
{ACAD_REACTORS
330
7
102
}
330
7
100
AcDbDictionary
281
     1
  3
Model
350
90E
  3
レイアウト1
350
90F
  0
DICTIONARY
  5
8C5
102
{ACAD_REACTORS
330
7
102
}
330
7
100
AcDbDictionary
281
     1
  3
ByBlock
350
8CE
  3
ByLayer
350
8C6
  3
Global
350
8D6
  0
DICTIONARY
  5
90C
102
{ACAD_REACTORS
330
7
102
}
330
7
100
AcDbDictionary
281
     1
  3
Standard
350
90D
  0
DICTIONARY
  5
699
102
{ACAD_REACTORS
330
7
102
}
330
7
100
AcDbDictionary
281
     1
  3
STANDARD
350
69B
  0
DICTIONARY
  5
69A
102
{ACAD_REACTORS
330
7
102
}
330
7
100
AcDbDictionary
281
     1
  0
ACDBDICTIONARYWDFLT
  5
6
102
{ACAD_REACTORS
330
7
102
}
330
7
100
AcDbDictionary
281
     1
  3
Normal
350
5
100
AcDbDictionaryWithDefault
340
5
  0
DICTIONARY
  5
8FA
102
{ACAD_REACTORS
330
7
102
}
330
7
100
AcDbDictionary
281
     1
  3
A0
350
8FB
  3
A1
350
8FC
  3
A2
350
8FD
  3
A3
350
8FE
  3
A4
350
8FF
  3
A5
350
900
  3
A6
350
901
  3
A7
350
902
  3
A8
350
903
  3
A9
350
904
  3
B0
350
905
  3
B1
350
906
  3
B2
350
907
  3
B3
350
908
  3
B4
350
909
  3
B5
350
90A
  3
B6
350
90B
  0
DICTIONARY
  5
8F8
102
{ACAD_REACTORS
330
7
102
}
330
7
100
AcDbDictionary
281
     1
  3
Standard
350
8F9
  0
DICTIONARY
  5
8DE
102
{ACAD_REACTORS
330
7
102
}
330
7
100
AcDbDictionary
281
     1
  3
2dWireframe
350
8E4
  3
Basic
350
8E3
  3
Brighten
350
8EA
  3
ColorChange
350
8EE
  3
Conceptual
350
8E7
  3
Dim
350
8E9
  3
EdgeColorOff
350
8F6
  3
Facepattern
350
8ED
  3
Flat
350
8DF
  3
FlatWithEdges
350
8E0
  3
Gouraud
350
8E1
  3
GouraudWithEdges
350
8E2
  3
Hidden
350
8E6
  3
JitterOff
350
8F4
  3
Linepattern
350
8EC
  3
OverhangOff
350
8F5
  3
Realistic
350
8E8
  3
Shaded
350
8F3
  3
Shaded with edges
350
8F2
  3
Shades of Gray
350
8EF
  3
Sketchy
350
8F0
  3
Thicken
350
8EB
  3
Wireframe
350
8E5
  3
X-Ray
350
8F1
  0
XRECORD
  5
E70
102
{ACAD_REACTORS
330
7
102
}
330
7
100
AcDbXrecord
280
     1
 90
        1
330
8F9
  0
DICTIONARY
  5
D59
102
{ACAD_REACTORS
330
7
102
}
330
7
100
AcDbDictionary
281
     1
  3
CANNOSCALE
350
D9C
  3
CMLEADERSTYLE
350
D9B
  3
CTABLESTYLE
350
D9A
  3
DIMASSOC
350
D9F
  3
INDEXCTL
350
D9E
  3
SORTENTS
350
D9D
  3
XCLIPFRAME
350
E2A
  0
XRECORD
  5
E71
102
{ACAD_REACTORS
330
7
102
}
330
7
100
AcDbXrecord
280
     1
  1
DWGPROPS COOKIE
  2

  3

  4

  6

  7

  8
D-Sagawa2
  9

300
=
301
=
302
=
303
=
304
=
305
=
306
=
307
=
308
=
309
=
 40
0.7644336805555556
 41
2453046.352522454
 42
2458912.424794815
  1

 90
        0
  0
DICTIONARY
  5
681
102
{ACAD_REACTORS
330
680
102
}
330
680
100
AcDbDictionary
280
     1
281
     1
  3
全て非表示
360
682
  0
XRECORD
  5
D97
102
{ACAD_REACTORS
330
D96
102
}
330
D96
100
AcDbXrecord
280
     1
290
     1
  0
XRECORD
  5
D99
102
{ACAD_REACTORS
330
D98
102
}
330
D98
100
AcDbXrecord
280
     1
290
     1
  0
XRECORD
  5
8BE
102
{ACAD_REACTORS
330
8BD
102
}
330
8BD
100
AcDbXrecord
280
     1
340
2
  0
SORTENTSTABLE
  5
9A5
102
{ACAD_REACTORS
330
8BD
102
}
330
8BD
100
AcDbSortentsTable
330
2
331
7C
  5
7C
331
1EC
  5
1EC
331
360
  5
360
331
196
  5
196
331
13A
  5
13A
331
374
  5
374
331
228
  5
228
331
442
  5
442
331
4CA
  5
4CA
331
2DC
  5
2DC
331
238
  5
238
331
4BF
  5
4BF
331
122
  5
122
331
136
  5
136
331
4F0
  5
4F0
331
452
  5
452
331
4D6
  5
4D6
331
D5
  5
D5
331
473
  5
473
331
74
  5
74
331
233
  5
233
331
287
  5
287
331
37F
  5
37F
331
409
  5
409
331
734
  5
734
331
4EF
  5
4EF
331
213
  5
213
331
1BD
  5
1BD
331
42F
  5
42F
331
3DB
  5
3DB
331
5D
  5
5D
331
63
  5
63
331
151
  5
151
331
249
  5
249
331
2B0
  5
2B0
331
85D
  5
85D
331
3CF
  5
3CF
331
16E
  5
16E
331
221
  5
221
331
F5
  5
F5
331
26E
  5
26E
331
43C
  5
43C
331
204
  5
204
331
1AE
  5
1AE
331
E2
  5
E2
331
CC
  5
CC
331
15C
  5
15C
331
FA
  5
FA
331
242
  5
242
331
3
  5
3
331
140
  5
140
331
256
  5
256
331
14E
  5
14E
331
772
  5
772
331
4C4
  5
4C4
331
BE
  5
BE
331
98E
  5
98E
331
44A
  5
44A
331
4A4
  5
4A4
331
288
  5
288
331
27C
  5
27C
331
2FB
  5
2FB
331
DE
  5
DE
331
33A
  5
33A
331
161
  5
161
331
2F0
  5
2F0
331
B4
  5
B4
331
21B
  5
21B
331
8A
  5
8A
331
179
  5
179
331
297
  5
297
331
2E7
  5
2E7
331
80
  5
80
331
12D
  5
12D
331
1C3
  5
1C3
331
11F
  5
11F
331
3BD
  5
3BD
331
273
  5
273
331
1A7
  5
1A7
331
1E3
  5
1E3
331
4AD
  5
4AD
331
1E9
  5
1E9
331
79
  5
79
331
193
  5
193
331
1DF
  5
1DF
331
371
  5
371
331
1CD
  5
1CD
331
309
  5
309
331
1B7
  5
1B7
331
1F6
  5
1F6
331
19F
  5
19F
331
305
  5
305
331
4BC
  5
4BC
331
2D9
  5
2D9
331
266
  5
266
331
133
  5
133
331
D2
  5
D2
331
4D3
  5
4D3
331
470
  5
470
331
71
  5
71
331
230
  5
230
331
1D6
  5
1D6
331
2AE
  5
2AE
331
20E
  5
20E
331
37C
  5
37C
331
284
  5
284
331
89A
  5
89A
331
4E6
  5
4E6
331
4EC
  5
4EC
331
210
  5
210
331
1BA
  5
1BA
331
42C
  5
42C
331
3D8
  5
3D8
331
5A
  5
5A
331
60
  5
60
331
84E
  5
84E
331
45D
  5
45D
331
3CC
  5
3CC
331
16B
  5
16B
331
F2
  5
F2
331
26B
  5
26B
331
201
  5
201
331
439
  5
439
331
9A2
  5
9A2
331
107
  5
107
331
1AB
  5
1AB
331
C9
  5
C9
331
159
  5
159
331
467
  5
467
331
3F5
  5
3F5
331
25F
  5
25F
331
14B
  5
14B
331
253
  5
253
331
4C1
  5
4C1
331
EF
  5
EF
331
BB
  5
BB
331
4A1
  5
4A1
331
279
  5
279
331
2F8
  5
2F8
331
C5
  5
C5
331
DB
  5
DB
331
866
  5
866
331
417
  5
417
331
B1
  5
B1
331
218
  5
218
331
405
  5
405
331
4B6
  5
4B6
331
2E4
  5
2E4
331
294
  5
294
331
12A
  5
12A
331
1C0
  5
1C0
331
11C
  5
11C
331
176
  5
176
331
3BA
  5
3BA
331
1E0
  5
1E0
331
1A4
  5
1A4
331
270
  5
270
331
2B9
  5
2B9
331
35E
  5
35E
331
336
  5
336
331
4AA
  5
4AA
331
190
  5
190
331
1DC
  5
1DC
331
48E
  5
48E
331
29E
  5
29E
331
995
  5
995
331
1CA
  5
1CA
331
19C
  5
19C
331
1B4
  5
1B4
331
1F3
  5
1F3
331
3EE
  5
3EE
331
302
  5
302
331
4B9
  5
4B9
331
130
  5
130
331
263
  5
263
331
4D0
  5
4D0
331
437
  5
437
331
3FD
  5
3FD
331
1E
  5
1E
331
367
  5
367
331
3E5
  5
3E5
331
2AB
  5
2AB
331
20B
  5
20B
331
22F
  5
22F
331
1D3
  5
1D3
331
281
  5
281
331
379
  5
379
331
71E
  5
71E
331
4E3
  5
4E3
331
23F
  5
23F
331
4E9
  5
4E9
331
46D
  5
46D
331
4F7
  5
4F7
331
3D5
  5
3D5
331
47D
  5
47D
331
429
  5
429
331
45A
  5
45A
331
84B
  5
84B
331
3C9
  5
3C9
331
168
  5
168
331
49E
  5
49E
331
268
  5
268
331
36E
  5
36E
331
3C6
  5
3C6
331
104
  5
104
331
1A8
  5
1A8
331
1FE
  5
1FE
331
464
  5
464
331
3F2
  5
3F2
331
896
  5
896
331
250
  5
250
331
25C
  5
25C
331
148
  5
148
331
2B7
  5
2B7
331
2A6
  5
2A6
331
495
  5
495
331
116
  5
116
331
B8
  5
B8
331
EC
  5
EC
331
C2
  5
C2
331
426
  5
426
331
485
  5
485
331
414
  5
414
331
863
  5
863
331
D8
  5
D8
331
402
  5
402
331
4DD
  5
4DD
331
2D7
  5
2D7
331
4B3
  5
4B3
331
291
  5
291
331
2E1
  5
2E1
331
147
  5
147
331
2ED
  5
2ED
331
119
  5
119
331
10D
  5
10D
331
173
  5
173
331
41D
  5
41D
331
1A1
  5
1A1
331
4F9
  5
4F9
331
185
  5
185
331
28F
  5
28F
331
35B
  5
35B
331
1D9
  5
1D9
331
99D
  5
99D
331
48B
  5
48B
331
29B
  5
29B
331
992
  5
992
331
2F7
  5
2F7
331
1B1
  5
1B1
331
1F0
  5
1F0
331
199
  5
199
331
18E
  5
18E
331
3EB
  5
3EB
331
87
  5
87
331
6D
  5
6D
331
260
  5
260
331
434
  5
434
331
3FA
  5
3FA
331
364
  5
364
331
13E
  5
13E
331
3E2
  5
3E2
331
1D0
  5
1D0
331
2A8
  5
2A8
331
208
  5
208
331
22C
  5
22C
331
446
  5
446
331
4CE
  5
4CE
331
4E0
  5
4E0
331
23C
  5
23C
331
126
  5
126
331
46A
  5
46A
331
4F4
  5
4F4
331
456
  5
456
331
47A
  5
47A
331
3D2
  5
3D2
331
477
  5
477
331
57
  5
57
331
856
  5
856
331
848
  5
848
331
237
  5
237
331
49B
  5
49B
331
40D
  5
40D
331
3C3
  5
3C3
331
217
  5
217
331
36B
  5
36B
331
101
  5
101
331
1FB
  5
1FB
331
3DF
  5
3DF
331
461
  5
461
331
67
  5
67
331
155
  5
155
331
24D
  5
24D
331
2B4
  5
2B4
331
259
  5
259
331
113
  5
113
331
492
  5
492
331
2A3
  5
2A3
331
225
  5
225
331
3B
  5
3B
331
381
  5
381
331
E9
  5
E9
331
423
  5
423
331
482
  5
482
331
411
  5
411
331
4DA
  5
4DA
331
E6
  5
E6
331
4B0
  5
4B0
331
246
  5
246
331
FE
  5
FE
331
144
  5
144
331
10A
  5
10A
331
2EA
  5
2EA
331
170
  5
170
331
41A
  5
41A
331
182
  5
182
331
AE
  5
AE
331
44E
  5
44E
331
358
  5
358
331
2FF
  5
2FF
331
28C
  5
28C
331
99A
  5
99A
331
165
  5
165
331
298
  5
298
331
21F
  5
21F
331
2F4
  5
2F4
331
488
  5
488
331
17D
  5
17D
331
3E8
  5
3E8
331
9C
  5
9C
331
18B
  5
18B
331
6A
  5
6A
331
1C7
  5
1C7
331
431
  5
431
331
277
  5
277
331
1E7
  5
1E7
331
7D
  5
7D
331
361
  5
361
331
1ED
  5
1ED
331
197
  5
197
331
13B
  5
13B
331
375
  5
375
331
229
  5
229
331
443
  5
443
331
4CB
  5
4CB
331
239
  5
239
331
2DD
  5
2DD
331
123
  5
123
331
137
  5
137
331
4F1
  5
4F1
331
4D7
  5
4D7
331
D6
  5
D6
331
453
  5
453
331
474
  5
474
331
853
  5
853
331
75
  5
75
331
234
  5
234
331
842
  5
842
331
498
  5
498
331
40A
  5
40A
331
368
  5
368
331
3C0
  5
3C0
331
214
  5
214
331
1BE
  5
1BE
331
1F8
  5
1F8
331
3DC
  5
3DC
331
5E
  5
5E
331
64
  5
64
331
85E
  5
85E
331
24A
  5
24A
331
2B1
  5
2B1
331
152
  5
152
331
2A0
  5
2A0
331
16F
  5
16F
331
110
  5
110
331
F6
  5
F6
331
222
  5
222
331
420
  5
420
331
26F
  5
26F
331
205
  5
205
331
43D
  5
43D
331
E3
  5
E3
331
1AF
  5
1AF
331
CD
  5
CD
331
15D
  5
15D
331
FB
  5
FB
331
243
  5
243
331
141
  5
141
331
773
  5
773
331
14F
  5
14F
331
257
  5
257
331
4C5
  5
4C5
331
676
  5
676
331
44B
  5
44B
331
98F
  5
98F
331
BF
  5
BF
331
4A5
  5
4A5
331
27D
  5
27D
331
2FC
  5
2FC
331
289
  5
289
331
33B
  5
33B
331
162
  5
162
331
DF
  5
DF
331
B5
  5
B5
331
21C
  5
21C
331
2F1
  5
2F1
331
8B
  5
8B
331
17A
  5
17A
331
188
  5
188
331
12E
  5
12E
331
81
  5
81
331
1C4
  5
1C4
331
3BE
  5
3BE
331
1E4
  5
1E4
331
274
  5
274
331
7A
  5
7A
331
1EA
  5
1EA
331
4AE
  5
4AE
331
194
  5
194
331
138
  5
138
331
372
  5
372
331
1CE
  5
1CE
331
4C8
  5
4C8
331
1F7
  5
1F7
331
440
  5
440
331
2DA
  5
2DA
331
306
  5
306
331
4BD
  5
4BD
331
120
  5
120
331
134
  5
134
331
267
  5
267
331
450
  5
450
331
4D4
  5
4D4
331
D3
  5
D3
331
471
  5
471
331
72
  5
72
331
850
  5
850
331
231
  5
231
331
1D7
  5
1D7
331
2AF
  5
2AF
331
20F
  5
20F
331
285
  5
285
331
37D
  5
37D
331
4E7
  5
4E7
331
4ED
  5
4ED
331
211
  5
211
331
1BB
  5
1BB
331
3D9
  5
3D9
331
42D
  5
42D
331
5B
  5
5B
331
61
  5
61
331
84F
  5
84F
331
45E
  5
45E
331
3CD
  5
3CD
331
16C
  5
16C
331
F3
  5
F3
331
26C
  5
26C
331
43A
  5
43A
331
202
  5
202
331
1AC
  5
1AC
331
9A3
  5
9A3
331
E0
  5
E0
331
CA
  5
CA
331
15A
  5
15A
331
F8
  5
F8
331
240
  5
240
331
3F6
  5
3F6
331
254
  5
254
331
770
  5
770
331
14C
  5
14C
331
4C2
  5
4C2
331
BC
  5
BC
331
448
  5
448
331
4A2
  5
4A2
331
C6
  5
C6
331
27A
  5
27A
331
2F9
  5
2F9
331
DC
  5
DC
331
338
  5
338
331
867
  5
867
331
406
  5
406
331
B2
  5
B2
331
219
  5
219
331
88
  5
88
331
4B7
  5
4B7
331
295
  5
295
331
2E5
  5
2E5
331
12B
  5
12B
331
1C1
  5
1C1
331
11D
  5
11D
331
3BB
  5
3BB
331
177
  5
177
331
271
  5
271
331
1A5
  5
1A5
331
1E1
  5
1E1
331
4AB
  5
4AB
331
337
  5
337
331
35F
  5
35F
331
1DD
  5
1DD
331
191
  5
191
331
1CB
  5
1CB
331
48F
  5
48F
331
996
  5
996
331
29F
  5
29F
331
1B5
  5
1B5
331
1F4
  5
1F4
331
19D
  5
19D
331
303
  5
303
331
4BA
  5
4BA
331
3EF
  5
3EF
331
264
  5
264
331
131
  5
131
331
4A
  5
4A
331
20
  5
20
331
4D1
  5
4D1
331
D0
  5
D0
331
3FE
  5
3FE
331
1F
  5
1F
331
3E6
  5
3E6
331
1D4
  5
1D4
331
2AC
  5
2AC
331
20C
  5
20C
331
37A
  5
37A
331
282
  5
282
331
4E4
  5
4E4
331
898
  5
898
331
4EA
  5
4EA
331
46E
  5
46E
331
1B8
  5
1B8
331
3D6
  5
3D6
331
42A
  5
42A
331
47E
  5
47E
331
58
  5
58
331
858
  5
858
331
84C
  5
84C
331
45B
  5
45B
331
3CA
  5
3CA
331
169
  5
169
331
49F
  5
49F
331
F0
  5
F0
331
269
  5
269
331
36F
  5
36F
331
3C7
  5
3C7
331
9A0
  5
9A0
331
105
  5
105
331
1A9
  5
1A9
331
1FF
  5
1FF
331
465
  5
465
331
897
  5
897
331
3F3
  5
3F3
331
25D
  5
25D
331
149
  5
149
331
251
  5
251
331
2A7
  5
2A7
331
496
  5
496
331
117
  5
117
331
ED
  5
ED
331
B9
  5
B9
331
427
  5
427
331
486
  5
486
331
C3
  5
C3
331
D9
  5
D9
331
415
  5
415
331
864
  5
864
331
4DE
  5
4DE
331
403
  5
403
331
4B4
  5
4B4
331
2E2
  5
2E2
331
292
  5
292
331
128
  5
128
331
2EE
  5
2EE
331
10E
  5
10E
331
11A
  5
11A
331
174
  5
174
331
41E
  5
41E
331
186
  5
186
331
4FA
  5
4FA
331
1A2
  5
1A2
331
35C
  5
35C
331
4A8
  5
4A8
331
99E
  5
99E
331
1DA
  5
1DA
331
48C
  5
48C
331
29C
  5
29C
331
993
  5
993
331
1C8
  5
1C8
331
19A
  5
19A
331
1B2
  5
1B2
331
1F1
  5
1F1
331
3EC
  5
3EC
331
300
  5
300
331
18F
  5
18F
331
6E
  5
6E
331
261
  5
261
331
435
  5
435
331
3FB
  5
3FB
331
365
  5
365
331
3E3
  5
3E3
331
13F
  5
13F
331
209
  5
209
331
1D1
  5
1D1
331
22D
  5
22D
331
2A9
  5
2A9
331
447
  5
447
331
4CF
  5
4CF
331
4E1
  5
4E1
331
23D
  5
23D
331
127
  5
127
331
46B
  5
46B
331
4F5
  5
4F5
331
3D3
  5
3D3
331
47B
  5
47B
331
457
  5
457
331
857
  5
857
331
458
  5
458
331
849
  5
849
331
846
  5
846
331
49C
  5
49C
331
40E
  5
40E
331
36C
  5
36C
331
3C4
  5
3C4
331
102
  5
102
331
1FC
  5
1FC
331
462
  5
462
331
3F0
  5
3F0
331
156
  5
156
331
25A
  5
25A
331
24E
  5
24E
331
2B5
  5
2B5
331
2A4
  5
2A4
331
493
  5
493
331
114
  5
114
331
EA
  5
EA
331
226
  5
226
331
C0
  5
C0
331
424
  5
424
331
483
  5
483
331
412
  5
412
331
861
  5
861
331
E7
  5
E7
331
4DB
  5
4DB
331
400
  5
400
331
4B1
  5
4B1
331
FF
  5
FF
331
247
  5
247
331
145
  5
145
331
10B
  5
10B
331
2EB
  5
2EB
331
171
  5
171
331
41B
  5
41B
331
44F
  5
44F
331
AF
  5
AF
331
183
  5
183
331
28D
  5
28D
331
331
  5
331
331
359
  5
359
331
166
  5
166
331
99B
  5
99B
331
489
  5
489
331
299
  5
299
331
990
  5
990
331
2F5
  5
2F5
331
17E
  5
17E
331
3E9
  5
3E9
331
18C
  5
18C
331
9D
  5
9D
331
6B
  5
6B
331
432
  5
432
331
3F8
  5
3F8
331
7E
  5
7E
331
1EE
  5
1EE
331
362
  5
362
331
13C
  5
13C
331
3E0
  5
3E0
331
376
  5
376
331
22A
  5
22A
331
444
  5
444
331
4CC
  5
4CC
331
2DE
  5
2DE
331
23A
  5
23A
331
76F
  5
76F
331
124
  5
124
331
468
  5
468
331
4F2
  5
4F2
331
454
  5
454
331
478
  5
478
331
D7
  5
D7
331
3D0
  5
3D0
331
475
  5
475
331
76
  5
76
331
235
  5
235
331
843
  5
843
331
499
  5
499
331
40B
  5
40B
331
3C1
  5
3C1
331
215
  5
215
331
369
  5
369
331
1BF
  5
1BF
331
1F9
  5
1F9
331
3DD
  5
3DD
331
5F
  5
5F
331
65
  5
65
331
153
  5
153
331
24B
  5
24B
331
2B2
  5
2B2
331
85F
  5
85F
331
111
  5
111
331
9B0
  5
9B0
331
490
  5
490
331
2A1
  5
2A1
331
223
  5
223
331
F7
  5
F7
331
480
  5
480
331
421
  5
421
331
43E
  5
43E
331
206
  5
206
331
4D8
  5
4D8
331
E4
  5
E4
331
CE
  5
CE
331
15E
  5
15E
331
FC
  5
FC
331
244
  5
244
331
142
  5
142
331
2E8
  5
2E8
331
108
  5
108
331
774
  5
774
331
4C6
  5
4C6
331
418
  5
418
331
180
  5
180
331
AC
  5
AC
331
44C
  5
44C
331
4A6
  5
4A6
331
28A
  5
28A
331
27E
  5
27E
331
2FD
  5
2FD
331
998
  5
998
331
33C
  5
33C
331
163
  5
163
331
21D
  5
21D
331
2F2
  5
2F2
331
B6
  5
B6
331
8C
  5
8C
331
17B
  5
17B
331
9A
  5
9A
331
189
  5
189
331
68
  5
68
331
82
  5
82
331
12F
  5
12F
331
1C5
  5
1C5
331
3BF
  5
3BF
331
275
  5
275
331
1E5
  5
1E5
331
7B
  5
7B
331
4AF
  5
4AF
331
1EB
  5
1EB
331
195
  5
195
331
139
  5
139
331
373
  5
373
331
1CF
  5
1CF
331
441
  5
441
331
4C9
  5
4C9
331
307
  5
307
331
4BE
  5
4BE
331
2DB
  5
2DB
331
121
  5
121
331
135
  5
135
331
451
  5
451
331
D4
  5
D4
331
4D5
  5
4D5
331
472
  5
472
331
851
  5
851
331
232
  5
232
331
840
  5
840
331
868
  5
868
331
37E
  5
37E
331
286
  5
286
331
408
  5
408
331
4EE
  5
4EE
331
212
  5
212
331
1BC
  5
1BC
331
42E
  5
42E
331
3DA
  5
3DA
331
5C
  5
5C
331
62
  5
62
331
248
  5
248
331
45F
  5
45F
331
150
  5
150
331
3CE
  5
3CE
331
16D
  5
16D
331
F4
  5
F4
331
220
  5
220
331
26D
  5
26D
331
203
  5
203
331
43B
  5
43B
331
9A4
  5
9A4
331
E1
  5
E1
331
1AD
  5
1AD
331
357
  5
357
331
CB
  5
CB
331
15B
  5
15B
331
241
  5
241
331
F9
  5
F9
331
3F7
  5
3F7
331
771
  5
771
331
14D
  5
14D
331
255
  5
255
331
4C3
  5
4C3
331
449
  5
449
331
BD
  5
BD
331
4A3
  5
4A3
331
27B
  5
27B
331
2FA
  5
2FA
331
C7
  5
C7
331
DD
  5
DD
331
160
  5
160
331
339
  5
339
331
B3
  5
B3
331
21A
  5
21A
331
407
  5
407
331
89
  5
89
331
178
  5
178
331
2E6
  5
2E6
331
296
  5
296
331
12C
  5
12C
331
11E
  5
11E
331
1C2
  5
1C2
331
3BC
  5
3BC
331
1E2
  5
1E2
331
1A6
  5
1A6
331
272
  5
272
331
78
  5
78
331
1E8
  5
1E8
331
4AC
  5
4AC
331
192
  5
192
331
1DE
  5
1DE
331
308
  5
308
331
370
  5
370
331
997
  5
997
331
1CC
  5
1CC
331
19E
  5
19E
331
1F5
  5
1F5
331
1B6
  5
1B6
331
2D8
  5
2D8
331
304
  5
304
331
4BB
  5
4BB
331
132
  5
132
331
265
  5
265
331
4D2
  5
4D2
331
D1
  5
D1
331
21
  5
21
331
3FF
  5
3FF
331
70
  5
70
331
3E7
  5
3E7
331
2AD
  5
2AD
331
20D
  5
20D
331
1D5
  5
1D5
331
283
  5
283
331
37B
  5
37B
331
4E5
  5
4E5
331
899
  5
899
331
4EB
  5
4EB
331
46F
  5
46F
331
1B9
  5
1B9
331
3D7
  5
3D7
331
47F
  5
47F
331
2E
  5
2E
331
42B
  5
42B
331
59
  5
59
331
84D
  5
84D
331
45C
  5
45C
331
3CB
  5
3CB
331
16A
  5
16A
331
F1
  5
F1
331
26A
  5
26A
331
438
  5
438
331
200
  5
200
331
9A1
  5
9A1
331
106
  5
106
331
1AA
  5
1AA
331
C8
  5
C8
331
158
  5
158
331
466
  5
466
331
3F4
  5
3F4
331
252
  5
252
331
25E
  5
25E
331
14A
  5
14A
331
4C0
  5
4C0
331
497
  5
497
331
BA
  5
BA
331
EE
  5
EE
331
C4
  5
C4
331
278
  5
278
331
487
  5
487
331
4A0
  5
4A0
331
DA
  5
DA
331
416
  5
416
331
865
  5
865
331
404
  5
404
331
B0
  5
B0
331
4DF
  5
4DF
331
4B5
  5
4B5
331
293
  5
293
331
2E3
  5
2E3
331
129
  5
129
331
2EF
  5
2EF
331
11B
  5
11B
331
10F
  5
10F
331
175
  5
175
331
41F
  5
41F
331
1A3
  5
1A3
331
187
  5
187
331
4A9
  5
4A9
331
335
  5
335
331
35D
  5
35D
331
1DB
  5
1DB
331
762
  5
762
331
99F
  5
99F
331
48D
  5
48D
331
29D
  5
29D
331
994
  5
994
331
1C9
  5
1C9
331
1B3
  5
1B3
331
1F2
  5
1F2
331
19B
  5
19B
331
301
  5
301
331
4B8
  5
4B8
331
708
  5
708
331
3ED
  5
3ED
331
6F
  5
6F
331
262
  5
262
331
436
  5
436
331
3FC
  5
3FC
331
366
  5
366
331
1D
  5
1D
331
3E4
  5
3E4
331
1D2
  5
1D2
331
2AA
  5
2AA
331
20A
  5
20A
331
22E
  5
22E
331
378
  5
378
331
280
  5
280
331
4E2
  5
4E2
331
23E
  5
23E
331
4E8
  5
4E8
331
46C
  5
46C
331
4F6
  5
4F6
331
428
  5
428
331
47C
  5
47C
331
3D4
  5
3D4
331
870
  5
870
331
84A
  5
84A
331
459
  5
459
331
3C8
  5
3C8
331
847
  5
847
331
86F
  5
86F
331
49D
  5
49D
331
40F
  5
40F
331
36D
  5
36D
331
3C5
  5
3C5
331
103
  5
103
331
1FD
  5
1FD
331
463
  5
463
331
3F1
  5
3F1
331
157
  5
157
331
24F
  5
24F
331
2B6
  5
2B6
331
25B
  5
25B
331
2A5
  5
2A5
331
494
  5
494
331
115
  5
115
331
EB
  5
EB
331
3D
  5
3D
331
227
  5
227
331
425
  5
425
331
484
  5
484
331
C1
  5
C1
331
74A
  5
74A
331
413
  5
413
331
862
  5
862
331
4DC
  5
4DC
331
401
  5
401
331
2D6
  5
2D6
331
4B2
  5
4B2
331
290
  5
290
331
146
  5
146
331
2EC
  5
2EC
331
10C
  5
10C
331
118
  5
118
331
172
  5
172
331
41C
  5
41C
331
184
  5
184
331
4F8
  5
4F8
331
1A0
  5
1A0
331
35A
  5
35A
331
28E
  5
28E
331
99C
  5
99C
331
1D8
  5
1D8
331
167
  5
167
331
48A
  5
48A
331
29A
  5
29A
331
991
  5
991
331
2F6
  5
2F6
331
198
  5
198
331
1B0
  5
1B0
331
17F
  5
17F
331
3EA
  5
3EA
331
9E
  5
9E
331
18D
  5
18D
331
6C
  5
6C
331
86
  5
86
331
433
  5
433
331
3F9
  5
3F9
331
7F
  5
7F
331
363
  5
363
331
1EF
  5
1EF
331
3E1
  5
3E1
331
13D
  5
13D
331
377
  5
377
331
22B
  5
22B
331
445
  5
445
331
4CD
  5
4CD
331
23B
  5
23B
331
469
  5
469
331
125
  5
125
331
4F3
  5
4F3
331
34A
  5
34A
331
3D1
  5
3D1
331
479
  5
479
331
455
  5
455
331
83F
  5
83F
331
476
  5
476
331
855
  5
855
331
77
  5
77
331
236
  5
236
331
86C
  5
86C
331
844
  5
844
331
49A
  5
49A
331
40C
  5
40C
331
36A
  5
36A
331
3C2
  5
3C2
331
216
  5
216
331
100
  5
100
331
1FA
  5
1FA
331
3DE
  5
3DE
331
460
  5
460
331
66
  5
66
331
154
  5
154
331
258
  5
258
331
24C
  5
24C
331
2B3
  5
2B3
331
2A2
  5
2A2
331
491
  5
491
331
112
  5
112
331
E8
  5
E8
331
380
  5
380
331
224
  5
224
331
422
  5
422
331
481
  5
481
331
410
  5
410
331
207
  5
207
331
43F
  5
43F
331
E5
  5
E5
331
4D9
  5
4D9
331
CF
  5
CF
331
15F
  5
15F
331
FD
  5
FD
331
245
  5
245
331
143
  5
143
331
109
  5
109
331
2E9
  5
2E9
331
4C7
  5
4C7
331
44D
  5
44D
331
AD
  5
AD
331
181
  5
181
331
419
  5
419
331
28B
  5
28B
331
27F
  5
27F
331
2FE
  5
2FE
331
4A7
  5
4A7
331
33D
  5
33D
331
164
  5
164
331
999
  5
999
331
B7
  5
B7
331
21E
  5
21E
331
2F3
  5
2F3
331
8D
  5
8D
331
17C
  5
17C
331
9B
  5
9B
331
18A
  5
18A
331
69
  5
69
331
83
  5
83
331
1C6
  5
1C6
331
430
  5
430
331
1E6
  5
1E6
331
276
  5
276
  0
XRECORD
  5
8C2
102
{ACAD_REACTORS
330
8C1
102
}
330
8C1
100
AcDbXrecord
280
     1
340
67B
  0
XRECORD
  5
EAA
102
{ACAD_REACTORS
330
EA9
102
}
330
EA9
100
AcDbXrecord
280
     1
 40
7433.0
  1
\A1;2-\U+22054.6
  0
XRECORD
  5
EA8
102
{ACAD_REACTORS
330
EA7
102
}
330
EA7
100
AcDbXrecord
280
     1
 40
5767.0
  1
\A1;\U+22054.6
  0
GROUP
  5
9CA
102
{ACAD_REACTORS
330
698
102
}
330
698
100
AcDbGroup
300

 70
     1
 71
     1
  0
GROUP
  5
D47
102
{ACAD_REACTORS
330
698
102
}
330
698
100
AcDbGroup
300

 70
     1
 71
     1
  0
LAYOUT
  5
90E
102
{ACAD_XDICTIONARY
360
EA3
102
}
102
{ACAD_REACTORS
330
67A
102
}
330
67A
100
AcDbPlotSettings
  1

  2
CubePDF
  4
A4
  6

 40
3.174999952316283
 41
3.174999952316283
 42
3.175003051757812
 43
3.17498779296875
 44
209.9098358154297
 45
297.0318298339843
 46
35.40999999999999
 47
0.0
 48
0.0
 49
0.0
140
0.0
141
0.0
142
1.0
143
1.230099374587649
 70
 11956
 72
     1
 73
     1
 74
     0
  7

 75
     0
147
0.8129424505521891
148
117.6353352834315
149
95.43399674843294
100
AcDbLayout
  1
Model
 70
     1
 71
     0
 10
0.0
 20
0.0
 11
12.0
 21
9.0
 12
0.0
 22
0.0
 32
0.0
 14
0.0
 24
0.0
 34
0.0
 15
0.0
 25
0.0
 35
0.0
146
0.0
 13
0.0
 23
0.0
 33
0.0
 16
1.0
 26
0.0
 36
0.0
 17
0.0
 27
1.0
 37
0.0
 76
     0
330
2
331
89C
1001
ACAD_PSEXT
1000
Canon iX6800 series
1000
Canon iX6800 series
1000
CNBJNP_F80D60461B9C
1000

1070
     0
  0
LAYOUT
  5
90F
102
{ACAD_XDICTIONARY
360
EA5
102
}
102
{ACAD_REACTORS
330
67A
102
}
330
67A
100
AcDbPlotSettings
  1

  2
Canon iX6800 series
  4

  6

 40
0.0
 41
0.0
 42
0.0
 43
0.0
 44
0.0
 45
0.0
 46
0.0
 47
0.0
 48
0.0
 49
0.0
140
0.0
141
0.0
142
1.0
143
1.0
 70
   688
 72
     0
 73
     0
 74
     5
  7

 75
    16
147
1.0
148
0.0
149
0.0
100
AcDbLayout
  1
レイアウト1
 70
     1
 71
     1
 10
-5.873748779296875
 20
-5.535083293914794
 11
291.1369018554686
 21
204.4805874824524
 12
0.0
 22
0.0
 32
0.0
 14
28.52208261489868
 24
19.88608212471007
 34
0.0
 15
256.6987435340881
 25
178.9747391223905
 35
0.0
146
0.0
 13
0.0
 23
0.0
 33
0.0
 16
1.0
 26
0.0
 36
0.0
 17
0.0
 27
1.0
 37
0.0
 76
     0
330
67B
  0
MATERIAL
  5
8CE
102
{ACAD_XDICTIONARY
360
8CF
102
}
102
{ACAD_REACTORS
330
8C5
102
}
330
8C5
100
AcDbMaterial
  1
ByBlock
 72
     0
 43
0.0008202099737533
 43
0.0
 43
0.0
 43
0.0
 43
0.0
 43
0.0008202099737533
 43
0.0
 43
0.0
 43
0.0
 43
0.0
 43
1.0
 43
0.0
 43
0.0
 43
0.0
 43
0.0
 43
1.0
 77
     0
 47
0.0008202099737533
 47
0.0
 47
0.0
 47
0.0
 47
0.0
 47
0.0008202099737533
 47
0.0
 47
0.0
 47
0.0
 47
0.0
 47
1.0
 47
0.0
 47
0.0
 47
0.0
 47
0.0
 47
1.0
171
     0
 49
0.0008202099737533
 49
0.0
 49
0.0
 49
0.0
 49
0.0
 49
0.0008202099737533
 49
0.0
 49
0.0
 49
0.0
 49
0.0
 49
1.0
 49
0.0
 49
0.0
 49
0.0
 49
0.0
 49
1.0
175
     0
142
0.0008202099737533
142
0.0
142
0.0
142
0.0
142
0.0
142
0.0008202099737533
142
0.0
142
0.0
142
0.0
142
0.0
142
1.0
142
0.0
142
0.0
142
0.0
142
0.0
142
1.0
179
     0
144
0.0008202099737533
144
0.0
144
0.0
144
0.0
144
0.0
144
0.0008202099737533
144
0.0
144
0.0
144
0.0
144
0.0
144
1.0
144
0.0
144
0.0
144
0.0
144
0.0
144
1.0
147
0.0008202099737533
147
0.0
147
0.0
147
0.0
147
0.0
147
0.0008202099737533
147
0.0
147
0.0
147
0.0
147
0.0
147
1.0
147
0.0
147
0.0
147
0.0
147
0.0
147
1.0
  0
MATERIAL
  5
8C6
102
{ACAD_XDICTIONARY
360
8C7
102
}
102
{ACAD_REACTORS
330
8C5
102
}
330
8C5
100
AcDbMaterial
  1
ByLayer
 72
     0
 43
0.0008202099737533
 43
0.0
 43
0.0
 43
0.0
 43
0.0
 43
0.0008202099737533
 43
0.0
 43
0.0
 43
0.0
 43
0.0
 43
1.0
 43
0.0
 43
0.0
 43
0.0
 43
0.0
 43
1.0
 77
     0
 47
0.0008202099737533
 47
0.0
 47
0.0
 47
0.0
 47
0.0
 47
0.0008202099737533
 47
0.0
 47
0.0
 47
0.0
 47
0.0
 47
1.0
 47
0.0
 47
0.0
 47
0.0
 47
0.0
 47
1.0
171
     0
 49
0.0008202099737533
 49
0.0
 49
0.0
 49
0.0
 49
0.0
 49
0.0008202099737533
 49
0.0
 49
0.0
 49
0.0
 49
0.0
 49
1.0
 49
0.0
 49
0.0
 49
0.0
 49
0.0
 49
1.0
175
     0
142
0.0008202099737533
142
0.0
142
0.0
142
0.0
142
0.0
142
0.0008202099737533
142
0.0
142
0.0
142
0.0
142
0.0
142
1.0
142
0.0
142
0.0
142
0.0
142
0.0
142
1.0
179
     0
144
0.0008202099737533
144
0.0
144
0.0
144
0.0
144
0.0
144
0.0008202099737533
144
0.0
144
0.0
144
0.0
144
0.0
144
1.0
144
0.0
144
0.0
144
0.0
144
0.0
144
1.0
147
0.0008202099737533
147
0.0
147
0.0
147
0.0
147
0.0
147
0.0008202099737533
147
0.0
147
0.0
147
0.0
147
0.0
147
1.0
147
0.0
147
0.0
147
0.0
147
0.0
147
1.0
  0
MATERIAL
  5
8D6
102
{ACAD_XDICTIONARY
360
8D7
102
}
102
{ACAD_REACTORS
330
8C5
102
}
330
8C5
100
AcDbMaterial
  1
Global
 72
     0
 43
0.0008202099737533
 43
0.0
 43
0.0
 43
0.0
 43
0.0
 43
0.0008202099737533
 43
0.0
 43
0.0
 43
0.0
 43
0.0
 43
1.0
 43
0.0
 43
0.0
 43
0.0
 43
0.0
 43
1.0
 77
     0
 47
0.0008202099737533
 47
0.0
 47
0.0
 47
0.0
 47
0.0
 47
0.0008202099737533
 47
0.0
 47
0.0
 47
0.0
 47
0.0
 47
1.0
 47
0.0
 47
0.0
 47
0.0
 47
0.0
 47
1.0
171
     0
 49
0.0008202099737533
 49
0.0
 49
0.0
 49
0.0
 49
0.0
 49
0.0008202099737533
 49
0.0
 49
0.0
 49
0.0
 49
0.0
 49
1.0
 49
0.0
 49
0.0
 49
0.0
 49
0.0
 49
1.0
175
     0
142
0.0008202099737533
142
0.0
142
0.0
142
0.0
142
0.0
142
0.0008202099737533
142
0.0
142
0.0
142
0.0
142
0.0
142
1.0
142
0.0
142
0.0
142
0.0
142
0.0
142
1.0
179
     0
144
0.0008202099737533
144
0.0
144
0.0
144
0.0
144
0.0
144
0.0008202099737533
144
0.0
144
0.0
144
0.0
144
0.0
144
1.0
144
0.0
144
0.0
144
0.0
144
0.0
144
1.0
147
0.0008202099737533
147
0.0
147
0.0
147
0.0
147
0.0
147
0.0008202099737533
147
0.0
147
0.0
147
0.0
147
0.0
147
1.0
147
0.0
147
0.0
147
0.0
147
0.0
147
1.0
  0
MLEADERSTYLE
  5
90D
102
{ACAD_REACTORS
330
90C
102
}
330
90C
100
AcDbMLeaderStyle
170
     2
171
     1
172
     0
 90
        2
 40
0.0
 41
0.0
173
     1
 91
-1056964608
340
686
 92
       -2
290
     1
 42
2.0
291
     1
 43
0.36
  3
Standard
 44
4.0
300

342
A
174
     1
178
     6
175
     1
176
     0
 93
-1056964608
 45
4.0
292
     0
297
     0
 46
4.0
 94
-1056964608
 47
1.0
 49
1.0
140
1.0
293
     1
141
0.0
294
     1
177
     0
142
1.0
295
     0
296
     0
143
0.125
1001
ACAD_MLEADERVER
1070
     2
  0
MLINESTYLE
  5
69B
102
{ACAD_REACTORS
330
699
102
}
330
699
100
AcDbMlineStyle
  2
STANDARD
 70
     0
  3

 62
   256
 51
90.0
 52
90.0
 71
     2
 49
0.5
 62
   256
  6
BYLAYER
 49
-0.5
 62
   256
  6
BYLAYER
  0
ACDBPLACEHOLDER
  5
5
102
{ACAD_REACTORS
330
6
102
}
330
6
  0
SCALE
  5
8FB
102
{ACAD_REACTORS
330
8FA
102
}
330
8FA
100
AcDbScale
 70
     0
300
1:1
140
1.0
141
1.0
290
     1
  0
SCALE
  5
8FC
102
{ACAD_REACTORS
330
8FA
102
}
330
8FA
100
AcDbScale
 70
     0
300
1:2
140
1.0
141
2.0
290
     0
  0
SCALE
  5
8FD
102
{ACAD_REACTORS
330
8FA
102
}
330
8FA
100
AcDbScale
 70
     0
300
1:4
140
1.0
141
4.0
290
     0
  0
SCALE
  5
8FE
102
{ACAD_REACTORS
330
8FA
102
}
330
8FA
100
AcDbScale
 70
     0
300
1:5
140
1.0
141
5.0
290
     0
  0
SCALE
  5
8FF
102
{ACAD_REACTORS
330
8FA
102
}
330
8FA
100
AcDbScale
 70
     0
300
1:8
140
1.0
141
8.0
290
     0
  0
SCALE
  5
900
102
{ACAD_REACTORS
330
8FA
102
}
330
8FA
100
AcDbScale
 70
     0
300
1:10
140
1.0
141
10.0
290
     0
  0
SCALE
  5
901
102
{ACAD_REACTORS
330
8FA
102
}
330
8FA
100
AcDbScale
 70
     0
300
1:16
140
1.0
141
16.0
290
     0
  0
SCALE
  5
902
102
{ACAD_REACTORS
330
8FA
102
}
330
8FA
100
AcDbScale
 70
     0
300
1:20
140
1.0
141
20.0
290
     0
  0
SCALE
  5
903
102
{ACAD_REACTORS
330
8FA
102
}
330
8FA
100
AcDbScale
 70
     0
300
1:30
140
1.0
141
30.0
290
     0
  0
SCALE
  5
904
102
{ACAD_REACTORS
330
8FA
102
}
330
8FA
100
AcDbScale
 70
     0
300
1:40
140
1.0
141
40.0
290
     0
  0
SCALE
  5
905
102
{ACAD_REACTORS
330
8FA
102
}
330
8FA
100
AcDbScale
 70
     0
300
1:50
140
1.0
141
50.0
290
     0
  0
SCALE
  5
906
102
{ACAD_REACTORS
330
8FA
102
}
330
8FA
100
AcDbScale
 70
     0
300
1:100
140
1.0
141
100.0
290
     0
  0
SCALE
  5
907
102
{ACAD_REACTORS
330
8FA
102
}
330
8FA
100
AcDbScale
 70
     0
300
2:1
140
2.0
141
1.0
290
     0
  0
SCALE
  5
908
102
{ACAD_REACTORS
330
8FA
102
}
330
8FA
100
AcDbScale
 70
     0
300
4:1
140
4.0
141
1.0
290
     0
  0
SCALE
  5
909
102
{ACAD_REACTORS
330
8FA
102
}
330
8FA
100
AcDbScale
 70
     0
300
8:1
140
8.0
141
1.0
290
     0
  0
SCALE
  5
90A
102
{ACAD_REACTORS
330
8FA
102
}
330
8FA
100
AcDbScale
 70
     0
300
10:1
140
10.0
141
1.0
290
     0
  0
SCALE
  5
90B
102
{ACAD_REACTORS
330
8FA
102
}
330
8FA
100
AcDbScale
 70
     0
300
100:1
140
100.0
141
1.0
290
     0
  0
TABLESTYLE
  5
8F9
102
{ACAD_XDICTIONARY
360
DE2
102
}
102
{ACAD_REACTORS
330
8F8
102
}
330
8F8
100
AcDbTableStyle
  3
Standard
 70
     0
 71
     0
 40
1.5
 41
1.5
280
     0
281
     0
  7
STANDARD
140
4.5
170
     2
 62
     0
 63
     7
283
     0
274
    -2
284
     1
 64
     0
275
    -2
285
     1
 65
     0
276
    -2
286
     1
 66
     0
277
    -2
287
     1
 67
     0
278
    -2
288
     1
 68
     0
279
    -2
289
     1
 69
     0
  7
STANDARD
140
6.0
170
     5
 62
     0
 63
     7
283
     0
274
    -2
284
     1
 64
     0
275
    -2
285
     1
 65
     0
276
    -2
286
     1
 66
     0
277
    -2
287
     1
 67
     0
278
    -2
288
     1
 68
     0
279
    -2
289
     1
 69
     0
  7
STANDARD
140
4.5
170
     5
 62
     0
 63
     7
283
     0
274
    -2
284
     1
 64
     0
275
    -2
285
     1
 65
     0
276
    -2
286
     1
 66
     0
277
    -2
287
     1
 67
     0
278
    -2
288
     1
 68
     0
279
    -2
289
     1
 69
     0
  0
VISUALSTYLE
  5
8E4
102
{ACAD_XDICTIONARY
360
E7C
102
}
102
{ACAD_REACTORS
330
8DE
102
}
330
8DE
100
AcDbVisualStyle
  2

 70
     4
 71
     0
 72
     2
 73
     0
 90
        0
 40
-0.6
 41
-30.0
 62
     5
 63
     7
 74
     1
 91
        4
 64
     7
 65
   257
 75
     1
175
     1
 42
1.0
 92
        0
 66
   257
 43
1.0
 76
     1
 77
     6
 78
     2
 67
     7
 79
     5
170
     0
171
     0
290
     0
174
     0
 93
        1
 44
0.0
173
     0
291
     0
 45
0.0
1001
ACAD
1000
AcDbSavedByObjectVersion
1070
     0
  0
VISUALSTYLE
  5
8E3
102
{ACAD_XDICTIONARY
360
E7A
102
}
102
{ACAD_REACTORS
330
8DE
102
}
330
8DE
100
AcDbVisualStyle
  2

 70
     7
 71
     1
 72
     0
 73
     1
 90
        0
 40
-0.6
 41
-30.0
 62
     5
 63
     7
 74
     0
 91
        4
 64
     7
 65
   257
 75
     1
175
     1
 42
1.0
 92
        8
 66
     7
 43
1.0
 76
     1
 77
     6
 78
     2
 67
     7
 79
     5
170
     0
171
     0
290
     0
174
     0
 93
        1
 44
0.0
173
     0
291
     1
 45
0.0
1001
ACAD
1000
AcDbSavedByObjectVersion
1070
     0
  0
VISUALSTYLE
  5
8EA
102
{ACAD_XDICTIONARY
360
E88
102
}
102
{ACAD_REACTORS
330
8DE
102
}
330
8DE
100
AcDbVisualStyle
  2

 70
    12
 71
     2
 72
     2
 73
     0
 90
        0
 40
-0.6
 41
-30.0
 62
     5
 63
     7
 74
     1
 91
        4
 64
     7
 65
   257
 75
     1
175
     1
 42
1.0
 92
        8
 66
     7
 43
1.0
 76
     1
 77
     6
 78
     2
 67
     7
 79
     5
170
     0
171
     0
290
     0
174
     0
 93
        1
 44
50.0
173
     0
291
     1
 45
0.0
1001
ACAD
1000
AcDbSavedByObjectVersion
1070
     0
  0
VISUALSTYLE
  5
8EE
102
{ACAD_XDICTIONARY
360
E90
102
}
102
{ACAD_REACTORS
330
8DE
102
}
330
8DE
100
AcDbVisualStyle
  2

 70
    16
 71
     2
 72
     2
 73
     3
 90
        0
 40
-0.6
 41
-30.0
 62
     5
 63
     8
 74
     1
 91
        4
 64
     7
 65
   257
 75
     1
175
     1
 42
1.0
 92
        8
 66
     8
 43
1.0
 76
     1
 77
     6
 78
     2
 67
     7
 79
     5
170
     0
171
     0
290
     0
174
     0
 93
        1
 44
0.0
173
     0
291
     1
 45
0.0
1001
ACAD
1000
AcDbSavedByObjectVersion
1070
     0
  0
VISUALSTYLE
  5
8E7
102
{ACAD_XDICTIONARY
360
E82
102
}
102
{ACAD_REACTORS
330
8DE
102
}
330
8DE
100
AcDbVisualStyle
  2

 70
     9
 71
     3
 72
     2
 73
     0
 90
        0
 40
-0.6
 41
-30.0
 62
     5
 63
     7
 74
     2
 91
        2
 64
     7
 65
   257
 75
     1
175
     1
 42
179.0
 92
        8
 66
     7
 43
1.0
 76
     1
 77
     6
 78
     2
 67
     7
 79
     3
170
     0
171
     0
290
     0
174
     0
 93
        1
 44
0.0
173
     0
291
     0
 45
0.0
1001
ACAD
1000
AcDbSavedByObjectVersion
1070
     0
  0
VISUALSTYLE
  5
8E9
102
{ACAD_XDICTIONARY
360
E86
102
}
102
{ACAD_REACTORS
330
8DE
102
}
330
8DE
100
AcDbVisualStyle
  2

 70
    11
 71
     2
 72
     2
 73
     0
 90
        0
 40
-0.6
 41
-30.0
 62
     5
 63
     7
 74
     1
 91
        4
 64
     7
 65
   257
 75
     1
175
     1
 42
1.0
 92
        8
 66
     7
 43
1.0
 76
     1
 77
     6
 78
     2
 67
     7
 79
     5
170
     0
171
     0
290
     0
174
     0
 93
        1
 44
-50.0
173
     0
291
     1
 45
0.0
1001
ACAD
1000
AcDbSavedByObjectVersion
1070
     0
  0
VISUALSTYLE
  5
8F6
102
{ACAD_XDICTIONARY
360
EA0
102
}
102
{ACAD_REACTORS
330
8DE
102
}
330
8DE
100
AcDbVisualStyle
  2

 70
    22
 71
     2
 72
     2
 73
     0
 90
        0
 40
-0.6
 41
-30.0
 62
     5
 63
     7
 74
     1
 91
        4
 64
     7
 65
   257
 75
     1
175
     1
 42
1.0
 92
        8
 66
     7
 43
1.0
 76
     1
 77
     6
 78
     2
 67
     7
 79
     5
170
     0
171
     0
290
     0
174
     0
 93
        1
 44
0.0
173
     0
291
     1
 45
0.0
1001
ACAD
1000
AcDbSavedByObjectVersion
1070
     0
  0
VISUALSTYLE
  5
8ED
102
{ACAD_XDICTIONARY
360
E8E
102
}
102
{ACAD_REACTORS
330
8DE
102
}
330
8DE
100
AcDbVisualStyle
  2

 70
    15
 71
     2
 72
     2
 73
     0
 90
        0
 40
-0.6
 41
-30.0
 62
     5
 63
     7
 74
     1
 91
        4
 64
     7
 65
   257
 75
     1
175
     1
 42
1.0
 92
        8
 66
     7
 43
1.0
 76
     1
 77
     6
 78
     2
 67
     7
 79
     5
170
     0
171
     0
290
     0
174
     0
 93
        1
 44
0.0
173
     0
291
     1
 45
0.0
1001
ACAD
1000
AcDbSavedByObjectVersion
1070
     0
  0
VISUALSTYLE
  5
8DF
102
{ACAD_XDICTIONARY
360
E72
102
}
102
{ACAD_REACTORS
330
8DE
102
}
330
8DE
100
AcDbVisualStyle
  2

 70
     0
 71
     2
 72
     1
 73
     1
 90
        2
 40
-0.6
 41
30.0
 62
     5
 63
     7
 74
     0
 91
        0
 64
     7
 65
   257
 75
     1
175
     1
 42
1.0
 92
        8
 66
     7
 43
1.0
 76
     1
 77
     6
 78
     2
 67
     7
 79
     5
170
     0
171
     0
290
     0
174
     0
 93
       13
 44
0.0
173
     0
291
     1
 45
0.0
1001
ACAD
1000
AcDbSavedByObjectVersion
1070
     0
  0
VISUALSTYLE
  5
8E0
102
{ACAD_XDICTIONARY
360
E74
102
}
102
{ACAD_REACTORS
330
8DE
102
}
330
8DE
100
AcDbVisualStyle
  2

 70
     1
 71
     2
 72
     1
 73
     1
 90
        2
 40
-0.6
 41
30.0
 62
     5
 63
     7
 74
     1
 91
        0
 64
     7
 65
   257
 75
     1
175
     1
 42
1.0
 92
        0
 66
   257
 43
1.0
 76
     1
 77
     6
 78
     2
 67
     7
 79
     5
170
     0
171
     0
290
     0
174
     0
 93
       13
 44
0.0
173
     0
291
     1
 45
0.0
1001
ACAD
1000
AcDbSavedByObjectVersion
1070
     0
  0
VISUALSTYLE
  5
8E1
102
{ACAD_XDICTIONARY
360
E76
102
}
102
{ACAD_REACTORS
330
8DE
102
}
330
8DE
100
AcDbVisualStyle
  2

 70
     2
 71
     2
 72
     2
 73
     1
 90
        2
 40
-0.6
 41
30.0
 62
     5
 63
     7
 74
     0
 91
        0
 64
     7
 65
   257
 75
     1
175
     1
 42
1.0
 92
        0
 66
     7
 43
1.0
 76
     1
 77
     6
 78
     2
 67
     7
 79
     5
170
     0
171
     0
290
     0
174
     0
 93
       13
 44
0.0
173
     0
291
     1
 45
0.0
1001
ACAD
1000
AcDbSavedByObjectVersion
1070
     0
  0
VISUALSTYLE
  5
8E2
102
{ACAD_XDICTIONARY
360
E78
102
}
102
{ACAD_REACTORS
330
8DE
102
}
330
8DE
100
AcDbVisualStyle
  2

 70
     3
 71
     2
 72
     2
 73
     1
 90
        2
 40
-0.6
 41
30.0
 62
     5
 63
     7
 74
     1
 91
        0
 64
     7
 65
   257
 75
     1
175
     1
 42
1.0
 92
        0
 66
   257
 43
1.0
 76
     1
 77
     6
 78
     2
 67
     7
 79
     5
170
     0
171
     0
290
     0
174
     0
 93
       13
 44
0.0
173
     0
291
     1
 45
0.0
1001
ACAD
1000
AcDbSavedByObjectVersion
1070
     0
  0
VISUALSTYLE
  5
8E6
102
{ACAD_XDICTIONARY
360
E80
102
}
102
{ACAD_REACTORS
330
8DE
102
}
330
8DE
100
AcDbVisualStyle
  2

 70
     6
 71
     1
 72
     2
 73
     2
 90
        0
 40
-0.6
 41
-30.0
 62
     5
 63
     7
 74
     2
 91
        2
 64
     7
 65
   257
 75
     2
175
     1
 42
40.0
 92
        0
 66
   257
 43
1.0
 76
     1
 77
     6
 78
     2
 67
     7
 79
     3
170
     0
171
     0
290
     0
174
     0
 93
        1
 44
0.0
173
     0
291
     0
 45
0.0
1001
ACAD
1000
AcDbSavedByObjectVersion
1070
     0
  0
VISUALSTYLE
  5
8F4
102
{ACAD_XDICTIONARY
360
E9C
102
}
102
{ACAD_REACTORS
330
8DE
102
}
330
8DE
100
AcDbVisualStyle
  2

 70
    20
 71
     2
 72
     2
 73
     0
 90
        0
 40
-0.6
 41
-30.0
 62
     5
 63
     7
 74
     1
 91
        4
 64
     7
 65
   257
 75
     1
175
     1
 42
1.0
 92
       10
 66
     7
 43
1.0
 76
     1
 77
     6
 78
     2
 67
     7
 79
     5
170
     0
171
     0
290
     0
174
     0
 93
        1
 44
0.0
173
     0
291
     1
 45
0.0
1001
ACAD
1000
AcDbSavedByObjectVersion
1070
     0
  0
VISUALSTYLE
  5
8EC
102
{ACAD_XDICTIONARY
360
E8C
102
}
102
{ACAD_REACTORS
330
8DE
102
}
330
8DE
100
AcDbVisualStyle
  2

 70
    14
 71
     2
 72
     2
 73
     0
 90
        0
 40
-0.6
 41
-30.0
 62
     5
 63
     7
 74
     1
 91
        4
 64
     7
 65
   257
 75
     7
175
     7
 42
1.0
 92
        8
 66
     7
 43
1.0
 76
     1
 77
     6
 78
     2
 67
     7
 79
     5
170
     0
171
     0
290
     0
174
     0
 93
        1
 44
0.0
173
     0
291
     1
 45
0.0
1001
ACAD
1000
AcDbSavedByObjectVersion
1070
     0
  0
VISUALSTYLE
  5
8F5
102
{ACAD_XDICTIONARY
360
E9E
102
}
102
{ACAD_REACTORS
330
8DE
102
}
330
8DE
100
AcDbVisualStyle
  2

 70
    21
 71
     2
 72
     2
 73
     0
 90
        0
 40
-0.6
 41
-30.0
 62
     5
 63
     7
 74
     1
 91
        4
 64
     7
 65
   257
 75
     1
175
     1
 42
1.0
 92
        9
 66
     7
 43
1.0
 76
     1
 77
     6
 78
     2
 67
     7
 79
     5
170
     0
171
     0
290
     0
174
     0
 93
        1
 44
0.0
173
     0
291
     1
 45
0.0
1001
ACAD
1000
AcDbSavedByObjectVersion
1070
     0
  0
VISUALSTYLE
  5
8E8
102
{ACAD_XDICTIONARY
360
E84
102
}
102
{ACAD_REACTORS
330
8DE
102
}
330
8DE
100
AcDbVisualStyle
  2

 70
     8
 71
     2
 72
     3
 73
     0
 90
        2
 40
-0.6
 41
30.0
 62
     5
 63
     7
 74
     0
 91
        0
 64
     7
 65
   257
 75
     1
175
     1
 42
1.0
 92
        8
 66
   257
 43
1.0
 76
     1
 77
     6
 78
     2
 67
     7
 79
     3
170
     0
171
     0
290
     0
174
     0
 93
       13
 44
0.0
173
     0
291
     0
 45
0.0
1001
ACAD
1000
AcDbSavedByObjectVersion
1070
     0
  0
VISUALSTYLE
  5
8F3
102
{ACAD_XDICTIONARY
360
E9A
102
}
102
{ACAD_REACTORS
330
8DE
102
}
330
8DE
100
AcDbVisualStyle
  2

 70
    27
 71
     2
 72
     2
 73
     1
 90
        2
 40
-0.6
 41
30.0
 62
     5
 63
     7
 74
     0
 91
        4
 64
     7
 65
   257
 75
     1
175
     1
 42
1.0
 92
        8
 66
   257
 43
1.0
 76
     1
 77
     6
 78
     2
 67
     8
 79
     3
170
     0
171
     0
290
     0
174
     0
 93
        5
 44
0.0
173
     0
291
     0
 45
0.0
1001
ACAD
1000
AcDbSavedByObjectVersion
1070
     0
  0
VISUALSTYLE
  5
8F2
102
{ACAD_XDICTIONARY
360
E98
102
}
102
{ACAD_REACTORS
330
8DE
102
}
330
8DE
100
AcDbVisualStyle
  2

 70
    26
 71
     2
 72
     2
 73
     1
 90
        2
 40
-0.6
 41
30.0
 62
     5
 63
     7
 74
     1
 91
       10
 64
     7
 65
   257
 75
     2
175
     1
 42
1.0
 92
        8
 66
   257
 43
1.0
 76
     1
 77
     6
 78
     2
 67
     7
 79
     3
170
     0
171
     0
290
     0
174
     0
 93
        5
 44
0.0
173
     0
291
     0
 45
0.0
1001
ACAD
1000
AcDbSavedByObjectVersion
1070
     0
  0
VISUALSTYLE
  5
8EF
102
{ACAD_XDICTIONARY
360
E92
102
}
102
{ACAD_REACTORS
330
8DE
102
}
330
8DE
100
AcDbVisualStyle
  2

 70
    23
 71
     2
 72
     2
 73
     3
 90
        0
 40
-0.6
 41
-30.0
 62
     5
 63
     7
 74
     2
 91
        2
 64
     7
 65
     7
 75
     1
175
     1
 42
40.0
 92
        8
 66
     7
 43
1.0
 76
     1
 77
     6
 78
     2
 67
     7
 79
     3
170
     0
171
     0
290
     0
174
     0
 93
        1
 44
0.0
173
     0
291
     0
 45
0.0
1001
ACAD
1000
AcDbSavedByObjectVersion
1070
     0
  0
VISUALSTYLE
  5
8F0
102
{ACAD_XDICTIONARY
360
E94
102
}
102
{ACAD_REACTORS
330
8DE
102
}
330
8DE
100
AcDbVisualStyle
  2

 70
    24
 71
     1
 72
     2
 73
     2
 90
        0
 40
-0.6
 41
-30.0
 62
     5
 63
     7
 74
     2
 91
        2
 64
     7
 65
     7
 75
     1
175
     1
 42
40.0
 92
       11
 66
     7
 43
1.0
 76
     1
 77
     6
 78
     2
 67
     7
 79
     6
170
     0
171
     0
290
     0
174
     0
 93
        1
 44
0.0
173
     0
291
     0
 45
0.0
1001
ACAD
1000
AcDbSavedByObjectVersion
1070
     0
  0
VISUALSTYLE
  5
8EB
102
{ACAD_XDICTIONARY
360
E8A
102
}
102
{ACAD_REACTORS
330
8DE
102
}
330
8DE
100
AcDbVisualStyle
  2

 70
    13
 71
     2
 72
     2
 73
     0
 90
        0
 40
-0.6
 41
-30.0
 62
     5
 63
     7
 74
     1
 91
        4
 64
     7
 65
   257
 75
     1
175
     1
 42
1.0
 92
       12
 66
     7
 43
1.0
 76
     1
 77
     6
 78
     2
 67
     7
 79
     5
170
     0
171
     0
290
     0
174
     0
 93
        1
 44
0.0
173
     0
291
     1
 45
0.0
1001
ACAD
1000
AcDbSavedByObjectVersion
1070
     0
  0
VISUALSTYLE
  5
8E5
102
{ACAD_XDICTIONARY
360
E7E
102
}
102
{ACAD_REACTORS
330
8DE
102
}
330
8DE
100
AcDbVisualStyle
  2

 70
     5
 71
     0
 72
     2
 73
     0
 90
        0
 40
-0.6
 41
-30.0
 62
     5
 63
     7
 74
     1
 91
        4
 64
     7
 65
   257
 75
     1
175
     1
 42
1.0
 92
        0
 66
   257
 43
1.0
 76
     1
 77
     6
 78
     2
 67
     7
 79
     3
170
     0
171
     0
290
     0
174
     0
 93
        1
 44
0.0
173
     0
291
     0
 45
0.0
1001
ACAD
1000
AcDbSavedByObjectVersion
1070
     0
  0
VISUALSTYLE
  5
8F1
102
{ACAD_XDICTIONARY
360
E96
102
}
102
{ACAD_REACTORS
330
8DE
102
}
330
8DE
100
AcDbVisualStyle
  2

 70
    25
 71
     2
 72
     2
 73
     1
 90
        1
 40
0.5
 41
-30.0
 62
     5
 63
     7
 74
     1
 91
        0
 64
     7
 65
   257
 75
     1
175
     1
 42
1.0
 92
        8
 66
     7
 43
1.0
 76
     1
 77
     6
 78
     2
 67
     7
 79
     3
170
     0
171
     0
290
     0
174
     0
 93
       13
 44
0.0
173
     0
291
     0
 45
0.0
1001
ACAD
1000
AcDbSavedByObjectVersion
1070
     0
  0
DICTIONARYVAR
  5
D9C
102
{ACAD_REACTORS
330
D59
102
}
330
D59
100
DictionaryVariables
280
     0
  1
1:1
  0
DICTIONARYVAR
  5
D9B
102
{ACAD_REACTORS
330
D59
102
}
330
D59
100
DictionaryVariables
280
     0
  1
STANDARD
  0
DICTIONARYVAR
  5
D9A
102
{ACAD_REACTORS
330
D59
102
}
330
D59
100
DictionaryVariables
280
     0
  1
STANDARD
  0
DICTIONARYVAR
  5
D9F
102
{ACAD_REACTORS
330
D59
102
}
330
D59
100
DictionaryVariables
280
     0
  1
1
  0
DICTIONARYVAR
  5
D9E
102
{ACAD_REACTORS
330
D59
102
}
330
D59
100
DictionaryVariables
280
     0
  1
0
  0
DICTIONARYVAR
  5
D9D
102
{ACAD_REACTORS
330
D59
102
}
330
D59
100
DictionaryVariables
280
     0
  1
127
  0
DICTIONARYVAR
  5
E2A
102
{ACAD_REACTORS
330
D59
102
}
330
D59
100
DictionaryVariables
280
     0
  1
2
  0
XRECORD
  5
682
102
{ACAD_REACTORS
330
681
102
}
330
681
100
AcDbXrecord
280
     1
  1
全て非表示
  1
*
  1
*
  1
*
 70
     3
  1
*
  1
*
  0
DICTIONARY
  5
EA3
330
90E
100
AcDbDictionary
280
     1
281
     1
  3
ACAD_XREC_ROUNDTRIP
360
EA4
  0
DICTIONARY
  5
EA5
330
90F
100
AcDbDictionary
280
     1
281
     1
  3
ACAD_XREC_ROUNDTRIP
360
EA6
  0
DICTIONARY
  5
8CF
330
8CE
100
AcDbDictionary
280
     1
281
     1
  3
ACAD_XREC_ROUNDTRIP
360
DE7
  3
BUMPTILE
360
8D1
  3
DIFFUSETILE
360
8D0
  3
OPACITYTILE
360
8D4
  3
REFLECTIONTILE
360
8D3
  3
REFRACTIONTILE
360
8D5
  3
SPECULARTILE
360
8D2
  0
DICTIONARY
  5
8C7
330
8C6
100
AcDbDictionary
280
     1
281
     1
  3
ACAD_XREC_ROUNDTRIP
360
DE6
  3
BUMPTILE
360
8C9
  3
DIFFUSETILE
360
8C8
  3
OPACITYTILE
360
8CC
  3
REFLECTIONTILE
360
8CB
  3
REFRACTIONTILE
360
8CD
  3
SPECULARTILE
360
8CA
  0
DICTIONARY
  5
8D7
330
8D6
100
AcDbDictionary
280
     1
281
     1
  3
ACAD_XREC_ROUNDTRIP
360
DE8
  3
BUMPTILE
360
8D9
  3
DIFFUSETILE
360
8D8
  3
OPACITYTILE
360
8DC
  3
REFLECTIONTILE
360
8DB
  3
REFRACTIONTILE
360
8DD
  3
SPECULARTILE
360
8DA
  0
DICTIONARY
  5
DE2
330
8F9
100
AcDbDictionary
280
     1
281
     1
  3
ACAD_ROUNDTRIP_2008_TABLESTYLE_CELLSTYLEMAP
360
E6F
  3
ACAD_XREC_ROUNDTRIP
360
EA2
  0
DICTIONARY
  5
E7C
330
8E4
100
AcDbDictionary
280
     1
281
     1
  3
ACAD_XREC_ROUNDTRIP
360
E7D
  0
DICTIONARY
  5
E7A
330
8E3
100
AcDbDictionary
280
     1
281
     1
  3
ACAD_XREC_ROUNDTRIP
360
E7B
  0
DICTIONARY
  5
E88
330
8EA
100
AcDbDictionary
280
     1
281
     1
  3
ACAD_XREC_ROUNDTRIP
360
E89
  0
DICTIONARY
  5
E90
330
8EE
100
AcDbDictionary
280
     1
281
     1
  3
ACAD_XREC_ROUNDTRIP
360
E91
  0
DICTIONARY
  5
E82
330
8E7
100
AcDbDictionary
280
     1
281
     1
  3
ACAD_XREC_ROUNDTRIP
360
E83
  0
DICTIONARY
  5
E86
330
8E9
100
AcDbDictionary
280
     1
281
     1
  3
ACAD_XREC_ROUNDTRIP
360
E87
  0
DICTIONARY
  5
EA0
330
8F6
100
AcDbDictionary
280
     1
281
     1
  3
ACAD_XREC_ROUNDTRIP
360
EA1
  0
DICTIONARY
  5
E8E
330
8ED
100
AcDbDictionary
280
     1
281
     1
  3
ACAD_XREC_ROUNDTRIP
360
E8F
  0
DICTIONARY
  5
E72
330
8DF
100
AcDbDictionary
280
     1
281
     1
  3
ACAD_XREC_ROUNDTRIP
360
E73
  0
DICTIONARY
  5
E74
330
8E0
100
AcDbDictionary
280
     1
281
     1
  3
ACAD_XREC_ROUNDTRIP
360
E75
  0
DICTIONARY
  5
E76
330
8E1
100
AcDbDictionary
280
     1
281
     1
  3
ACAD_XREC_ROUNDTRIP
360
E77
  0
DICTIONARY
  5
E78
330
8E2
100
AcDbDictionary
280
     1
281
     1
  3
ACAD_XREC_ROUNDTRIP
360
E79
  0
DICTIONARY
  5
E80
330
8E6
100
AcDbDictionary
280
     1
281
     1
  3
ACAD_XREC_ROUNDTRIP
360
E81
  0
DICTIONARY
  5
E9C
330
8F4
100
AcDbDictionary
280
     1
281
     1
  3
ACAD_XREC_ROUNDTRIP
360
E9D
  0
DICTIONARY
  5
E8C
330
8EC
100
AcDbDictionary
280
     1
281
     1
  3
ACAD_XREC_ROUNDTRIP
360
E8D
  0
DICTIONARY
  5
E9E
330
8F5
100
AcDbDictionary
280
     1
281
     1
  3
ACAD_XREC_ROUNDTRIP
360
E9F
  0
DICTIONARY
  5
E84
330
8E8
100
AcDbDictionary
280
     1
281
     1
  3
ACAD_XREC_ROUNDTRIP
360
E85
  0
DICTIONARY
  5
E9A
330
8F3
100
AcDbDictionary
280
     1
281
     1
  3
ACAD_XREC_ROUNDTRIP
360
E9B
  0
DICTIONARY
  5
E98
330
8F2
100
AcDbDictionary
280
     1
281
     1
  3
ACAD_XREC_ROUNDTRIP
360
E99
  0
DICTIONARY
  5
E92
330
8EF
100
AcDbDictionary
280
     1
281
     1
  3
ACAD_XREC_ROUNDTRIP
360
E93
  0
DICTIONARY
  5
E94
330
8F0
100
AcDbDictionary
280
     1
281
     1
  3
ACAD_XREC_ROUNDTRIP
360
E95
  0
DICTIONARY
  5
E8A
330
8EB
100
AcDbDictionary
280
     1
281
     1
  3
ACAD_XREC_ROUNDTRIP
360
E8B
  0
DICTIONARY
  5
E7E
330
8E5
100
AcDbDictionary
280
     1
281
     1
  3
ACAD_XREC_ROUNDTRIP
360
E7F
  0
DICTIONARY
  5
E96
330
8F1
100
AcDbDictionary
280
     1
281
     1
  3
ACAD_XREC_ROUNDTRIP
360
E97
  0
XRECORD
  5
EA4
102
{ACAD_REACTORS
330
EA3
102
}
330
EA3
100
AcDbXrecord
280
     1
102
SHADEPLOT
 70
     0
102
SHADEPLOTRESLEVEL
 70
     2
102
SHADEPLOTCUSTOMDPI
 70
   300
  0
XRECORD
  5
EA6
102
{ACAD_REACTORS
330
EA5
102
}
330
EA5
100
AcDbXrecord
280
     1
102
SHADEPLOT
 70
     0
102
SHADEPLOTRESLEVEL
 70
     2
102
SHADEPLOTCUSTOMDPI
 70
   300
  0
XRECORD
  5
DE7
102
{ACAD_REACTORS
330
8CF
102
}
330
8CF
100
AcDbXrecord
280
     1
102
MATERIAL
148
0.0
149
0.0
149
0.0
 93
        0
 94
      127
282
     0
 72
     0
 77
     0
171
     0
175
     0
179
     0
273
     0
  0
XRECORD
  5
8D1
102
{ACAD_REACTORS
330
8CF
102
}
330
8CF
100
AcDbXrecord
280
     1
270
     1
271
     1
  0
XRECORD
  5
8D0
102
{ACAD_REACTORS
330
8CF
102
}
330
8CF
100
AcDbXrecord
280
     1
270
     1
271
     1
  0
XRECORD
  5
8D4
102
{ACAD_REACTORS
330
8CF
102
}
330
8CF
100
AcDbXrecord
280
     1
270
     1
271
     1
  0
XRECORD
  5
8D3
102
{ACAD_REACTORS
330
8CF
102
}
330
8CF
100
AcDbXrecord
280
     1
270
     1
271
     1
  0
XRECORD
  5
8D5
102
{ACAD_REACTORS
330
8CF
102
}
330
8CF
100
AcDbXrecord
280
     1
270
     1
271
     1
  0
XRECORD
  5
8D2
102
{ACAD_REACTORS
330
8CF
102
}
330
8CF
100
AcDbXrecord
280
     1
270
     1
271
     1
  0
XRECORD
  5
DE6
102
{ACAD_REACTORS
330
8C7
102
}
330
8C7
100
AcDbXrecord
280
     1
102
MATERIAL
148
0.0
149
0.0
149
0.0
 93
        0
 94
      127
282
     0
 72
     0
 77
     0
171
     0
175
     0
179
     0
273
     0
  0
XRECORD
  5
8C9
102
{ACAD_REACTORS
330
8C7
102
}
330
8C7
100
AcDbXrecord
280
     1
270
     1
271
     1
  0
XRECORD
  5
8C8
102
{ACAD_REACTORS
330
8C7
102
}
330
8C7
100
AcDbXrecord
280
     1
270
     1
271
     1
  0
XRECORD
  5
8CC
102
{ACAD_REACTORS
330
8C7
102
}
330
8C7
100
AcDbXrecord
280
     1
270
     1
271
     1
  0
XRECORD
  5
8CB
102
{ACAD_REACTORS
330
8C7
102
}
330
8C7
100
AcDbXrecord
280
     1
270
     1
271
     1
  0
XRECORD
  5
8CD
102
{ACAD_REACTORS
330
8C7
102
}
330
8C7
100
AcDbXrecord
280
     1
270
     1
271
     1
  0
XRECORD
  5
8CA
102
{ACAD_REACTORS
330
8C7
102
}
330
8C7
100
AcDbXrecord
280
     1
270
     1
271
     1
  0
XRECORD
  5
DE8
102
{ACAD_REACTORS
330
8D7
102
}
330
8D7
100
AcDbXrecord
280
     1
102
MATERIAL
148
0.0
149
0.0
149
0.0
 93
        0
 94
      127
282
     0
 72
     0
 77
     0
171
     0
175
     0
179
     0
273
     0
  0
XRECORD
  5
8D9
102
{ACAD_REACTORS
330
8D7
102
}
330
8D7
100
AcDbXrecord
280
     1
270
     1
271
     1
  0
XRECORD
  5
8D8
102
{ACAD_REACTORS
330
8D7
102
}
330
8D7
100
AcDbXrecord
280
     1
270
     1
271
     1
  0
XRECORD
  5
8DC
102
{ACAD_REACTORS
330
8D7
102
}
330
8D7
100
AcDbXrecord
280
     1
270
     1
271
     1
  0
XRECORD
  5
8DB
102
{ACAD_REACTORS
330
8D7
102
}
330
8D7
100
AcDbXrecord
280
     1
270
     1
271
     1
  0
XRECORD
  5
8DD
102
{ACAD_REACTORS
330
8D7
102
}
330
8D7
100
AcDbXrecord
280
     1
270
     1
271
     1
  0
XRECORD
  5
8DA
102
{ACAD_REACTORS
330
8D7
102
}
330
8D7
100
AcDbXrecord
280
     1
270
     1
271
     1
  0
CELLSTYLEMAP
  5
E6F
102
{ACAD_REACTORS
330
DE2
102
}
330
DE2
100
AcDbCellStyleMap
 90
        3
300
CELLSTYLE
  1
TABLEFORMAT_BEGIN
 90
        5
170
     1
 91
        0
 92
    32768
 62
   257
 93
        1
300
CONTENTFORMAT
  1
CONTENTFORMAT_BEGIN
 90
        0
 91
        0
 92
      512
 93
        0
300

 40
0.0
140
1.0
 94
        5
 62
     0
340
A
144
6.0
309
CONTENTFORMAT_END
171
     1
301
MARGIN
  1
CELLMARGIN_BEGIN
 40
1.5
 40
1.5
 40
1.5
 40
1.5
 40
0.18
 40
0.18
309
CELLMARGIN_END
 94
        6
 95
        1
302
GRIDFORMAT
  1
GRIDFORMAT_BEGIN
 90
        0
 91
        1
 62
     0
 92
       -2
340
0
 93
        0
 40
1.125
309
GRIDFORMAT_END
 95
        2
302
GRIDFORMAT
  1
GRIDFORMAT_BEGIN
 90
        0
 91
        1
 62
     0
 92
       -2
340
0
 93
        0
 40
1.125
309
GRIDFORMAT_END
 95
        4
302
GRIDFORMAT
  1
GRIDFORMAT_BEGIN
 90
        0
 91
        1
 62
     0
 92
       -2
340
0
 93
        0
 40
1.125
309
GRIDFORMAT_END
 95
        8
302
GRIDFORMAT
  1
GRIDFORMAT_BEGIN
 90
        0
 91
        1
 62
     0
 92
       -2
340
0
 93
        0
 40
1.125
309
GRIDFORMAT_END
 95
       16
302
GRIDFORMAT
  1
GRIDFORMAT_BEGIN
 90
        0
 91
        1
 62
     0
 92
       -2
340
0
 93
        0
 40
1.125
309
GRIDFORMAT_END
 95
       32
302
GRIDFORMAT
  1
GRIDFORMAT_BEGIN
 90
        0
 91
        1
 62
     0
 92
       -2
340
0
 93
        0
 40
1.125
309
GRIDFORMAT_END
309
TABLEFORMAT_END
  1
CELLSTYLE_BEGIN
 90
        1
 91
        1
300
_TITLE
309
CELLSTYLE_END
300
CELLSTYLE
  1
TABLEFORMAT_BEGIN
 90
        5
170
     1
 91
        0
 92
        0
 62
   257
 93
        1
300
CONTENTFORMAT
  1
CONTENTFORMAT_BEGIN
 90
        0
 91
        0
 92
      512
 93
        0
300

 40
0.0
140
1.0
 94
        5
 62
     0
340
A
144
4.5
309
CONTENTFORMAT_END
171
     1
301
MARGIN
  1
CELLMARGIN_BEGIN
 40
1.5
 40
1.5
 40
1.5
 40
1.5
 40
0.18
 40
0.18
309
CELLMARGIN_END
 94
        6
 95
        1
302
GRIDFORMAT
  1
GRIDFORMAT_BEGIN
 90
        0
 91
        1
 62
     0
 92
       -2
340
0
 93
        0
 40
1.125
309
GRIDFORMAT_END
 95
        2
302
GRIDFORMAT
  1
GRIDFORMAT_BEGIN
 90
        0
 91
        1
 62
     0
 92
       -2
340
0
 93
        0
 40
1.125
309
GRIDFORMAT_END
 95
        4
302
GRIDFORMAT
  1
GRIDFORMAT_BEGIN
 90
        0
 91
        1
 62
     0
 92
       -2
340
0
 93
        0
 40
1.125
309
GRIDFORMAT_END
 95
        8
302
GRIDFORMAT
  1
GRIDFORMAT_BEGIN
 90
        0
 91
        1
 62
     0
 92
       -2
340
0
 93
        0
 40
1.125
309
GRIDFORMAT_END
 95
       16
302
GRIDFORMAT
  1
GRIDFORMAT_BEGIN
 90
        0
 91
        1
 62
     0
 92
       -2
340
0
 93
        0
 40
1.125
309
GRIDFORMAT_END
 95
       32
302
GRIDFORMAT
  1
GRIDFORMAT_BEGIN
 90
        0
 91
        1
 62
     0
 92
       -2
340
0
 93
        0
 40
1.125
309
GRIDFORMAT_END
309
TABLEFORMAT_END
  1
CELLSTYLE_BEGIN
 90
        2
 91
        1
300
_HEADER
309
CELLSTYLE_END
300
CELLSTYLE
  1
TABLEFORMAT_BEGIN
 90
        5
170
     1
 91
        0
 92
        0
 62
   257
 93
        1
300
CONTENTFORMAT
  1
CONTENTFORMAT_BEGIN
 90
        0
 91
        0
 92
      512
 93
        0
300

 40
0.0
140
1.0
 94
        2
 62
     0
340
A
144
4.5
309
CONTENTFORMAT_END
171
     1
301
MARGIN
  1
CELLMARGIN_BEGIN
 40
1.5
 40
1.5
 40
1.5
 40
1.5
 40
0.18
 40
0.18
309
CELLMARGIN_END
 94
        6
 95
        1
302
GRIDFORMAT
  1
GRIDFORMAT_BEGIN
 90
        0
 91
        1
 62
     0
 92
       -2
340
0
 93
        0
 40
1.125
309
GRIDFORMAT_END
 95
        2
302
GRIDFORMAT
  1
GRIDFORMAT_BEGIN
 90
        0
 91
        1
 62
     0
 92
       -2
340
0
 93
        0
 40
1.125
309
GRIDFORMAT_END
 95
        4
302
GRIDFORMAT
  1
GRIDFORMAT_BEGIN
 90
        0
 91
        1
 62
     0
 92
       -2
340
0
 93
        0
 40
1.125
309
GRIDFORMAT_END
 95
        8
302
GRIDFORMAT
  1
GRIDFORMAT_BEGIN
 90
        0
 91
        1
 62
     0
 92
       -2
340
0
 93
        0
 40
1.125
309
GRIDFORMAT_END
 95
       16
302
GRIDFORMAT
  1
GRIDFORMAT_BEGIN
 90
        0
 91
        1
 62
     0
 92
       -2
340
0
 93
        0
 40
1.125
309
GRIDFORMAT_END
 95
       32
302
GRIDFORMAT
  1
GRIDFORMAT_BEGIN
 90
        0
 91
        1
 62
     0
 92
       -2
340
0
 93
        0
 40
1.125
309
GRIDFORMAT_END
309
TABLEFORMAT_END
  1
CELLSTYLE_BEGIN
 90
        3
 91
        2
300
_DATA
309
CELLSTYLE_END
  0
XRECORD
  5
EA2
102
{ACAD_REACTORS
330
DE2
102
}
330
DE2
100
AcDbXrecord
280
     1
102
ACAD_ROUNDTRIP_PRE2007_TABLESTYLE
 90
      512
 91
        0
  1

 92
      512
 93
        0
  2

 94
      512
 95
        0
  3

  0
XRECORD
  5
E7D
102
{ACAD_REACTORS
330
E7C
102
}
330
E7C
100
AcDbXrecord
280
     1
102
RTVSPropertyOp0
 70
     1
102
RTVSPropertyOp1
 70
     1
102
RTVSPropertyOp2
 70
     1
102
RTVSPropertyOp3
 70
     1
102
RTVSPropertyOp4
 70
     1
102
RTVSPropertyOp5
 70
     1
102
RTVSPropertyOp6
 70
     1
102
RTVSPropertyOp7
 70
     1
102
RTVSPropertyOp8
 70
     1
102
RTVSPropertyOp9
 70
     1
102
RTVSPropertyOp10
 70
     1
102
RTVSPropertyOp11
 70
     1
102
RTVSPropertyOp12
 70
     1
102
RTVSPropertyOp13
 70
     1
102
RTVSPropertyOp14
 70
     1
102
RTVSPropertyOp15
 70
     1
102
RTVSPropertyOp16
 70
     1
102
RTVSPropertyOp17
 70
     1
102
RTVSPropertyOp18
 70
     1
102
RTVSPropertyOp19
 70
     1
102
RTVSPropertyOp20
 70
     1
102
RTVSPropertyOp21
 70
     1
102
RTVSPropertyOp22
 70
     1
102
RTVSPropertyOp23
 70
     1
102
RTVSPropertyOp24
 70
     1
102
RTVSPropertyOp25
 70
     1
102
RTVSPropertyOp26
 70
     1
102
RTVSPropertyOp27
 70
     1
102
RTVSPropertyOp28
 70
     1
102
RTVSPropertyOp29
 70
     1
102
RTVSPropertyOp30
 70
     1
102
RTVSPropertyOp31
 70
     1
102
RTVSPropertyOp32
 70
     1
  0
XRECORD
  5
E7B
102
{ACAD_REACTORS
330
E7A
102
}
330
E7A
100
AcDbXrecord
280
     1
102
RTVSPropertyOp0
 70
     1
102
RTVSPropertyOp1
 70
     1
102
RTVSPropertyOp2
 70
     1
102
RTVSPropertyOp3
 70
     1
102
RTVSPropertyOp4
 70
     1
102
RTVSPropertyOp5
 70
     1
102
RTVSPropertyOp6
 70
     1
102
RTVSPropertyOp7
 70
     1
102
RTVSPropertyOp8
 70
     1
102
RTVSPropertyOp9
 70
     1
102
RTVSPropertyOp10
 70
     1
102
RTVSPropertyOp11
 70
     1
102
RTVSPropertyOp12
 70
     1
102
RTVSPropertyOp13
 70
     1
102
RTVSPropertyOp14
 70
     1
102
RTVSPropertyOp15
 70
     1
102
RTVSPropertyOp16
 70
     1
102
RTVSPropertyOp17
 70
     1
102
RTVSPropertyOp18
 70
     1
102
RTVSPropertyOp19
 70
     1
102
RTVSPropertyOp20
 70
     1
102
RTVSPropertyOp21
 70
     1
102
RTVSPropertyOp22
 70
     1
102
RTVSPropertyOp23
 70
     1
102
RTVSPropertyOp24
 70
     1
102
RTVSPropertyOp25
 70
     1
102
RTVSPropertyOp26
 70
     1
102
RTVSPropertyOp27
 70
     1
102
RTVSPropertyOp28
 70
     1
102
RTVSPropertyOp29
 70
     1
102
RTVSPropertyOp30
 70
     1
102
RTVSPropertyOp31
 70
     1
102
RTVSPropertyOp32
 70
     1
  0
XRECORD
  5
E89
102
{ACAD_REACTORS
330
E88
102
}
330
E88
100
AcDbXrecord
280
     1
102
RTVSPropertyOp0
 70
     1
102
RTVSPropertyOp1
 70
     1
102
RTVSPropertyOp2
 70
     1
102
RTVSPropertyOp3
 70
     1
102
RTVSPropertyOp4
 70
     1
102
RTVSPropertyOp5
 70
     1
102
RTVSPropertyOp6
 70
     1
102
RTVSPropertyOp7
 70
     1
102
RTVSPropertyOp8
 70
     1
102
RTVSPropertyOp9
 70
     1
102
RTVSPropertyOp10
 70
     1
102
RTVSPropertyOp11
 70
     1
102
RTVSPropertyOp12
 70
     1
102
RTVSPropertyOp13
 70
     1
102
RTVSPropertyOp14
 70
     1
102
RTVSPropertyOp15
 70
     1
102
RTVSPropertyOp16
 70
     1
102
RTVSPropertyOp17
 70
     1
102
RTVSPropertyOp18
 70
     1
102
RTVSPropertyOp19
 70
     1
102
RTVSPropertyOp20
 70
     1
102
RTVSPropertyOp21
 70
     1
102
RTVSPropertyOp22
 70
     1
102
RTVSPropertyOp23
 70
     1
102
RTVSPropertyOp24
 70
     1
102
RTVSPropertyOp25
 70
     1
102
RTVSPropertyOp26
 70
     1
102
RTVSPropertyOp27
 70
     1
102
RTVSPropertyOp28
 70
     1
102
RTVSPropertyOp29
 70
     1
102
RTVSPropertyOp30
 70
     1
102
RTVSPropertyOp31
 70
     1
102
RTVSPropertyOp32
 70
     1
  0
XRECORD
  5
E91
102
{ACAD_REACTORS
330
E90
102
}
330
E90
100
AcDbXrecord
280
     1
102
RTVSPropertyOp0
 70
     1
102
RTVSPropertyOp1
 70
     1
102
RTVSPropertyOp2
 70
     1
102
RTVSPropertyOp3
 70
     1
102
RTVSPropertyOp4
 70
     1
102
RTVSPropertyOp5
 70
     1
102
RTVSPropertyOp6
 70
     1
102
RTVSPropertyOp7
 70
     1
102
RTVSPropertyOp8
 70
     1
102
RTVSPropertyOp9
 70
     1
102
RTVSPropertyOp10
 70
     1
102
RTVSPropertyOp11
 70
     1
102
RTVSPropertyOp12
 70
     1
102
RTVSPropertyOp13
 70
     1
102
RTVSPropertyOp14
 70
     1
102
RTVSPropertyOp15
 70
     1
102
RTVSPropertyOp16
 70
     1
102
RTVSPropertyOp17
 70
     1
102
RTVSPropertyOp18
 70
     1
102
RTVSPropertyOp19
 70
     1
102
RTVSPropertyOp20
 70
     1
102
RTVSPropertyOp21
 70
     1
102
RTVSPropertyOp22
 70
     1
102
RTVSPropertyOp23
 70
     1
102
RTVSPropertyOp24
 70
     1
102
RTVSPropertyOp25
 70
     1
102
RTVSPropertyOp26
 70
     1
102
RTVSPropertyOp27
 70
     1
102
RTVSPropertyOp28
 70
     1
102
RTVSPropertyOp29
 70
     1
102
RTVSPropertyOp30
 70
     1
102
RTVSPropertyOp31
 70
     1
102
RTVSPropertyOp32
 70
     1
  0
XRECORD
  5
E83
102
{ACAD_REACTORS
330
E82
102
}
330
E82
100
AcDbXrecord
280
     1
102
RTVSPropertyOp0
 70
     1
102
RTVSPropertyOp1
 70
     1
102
RTVSPropertyOp2
 70
     1
102
RTVSPropertyOp3
 70
     1
102
RTVSPropertyOp4
 70
     1
102
RTVSPropertyOp5
 70
     1
102
RTVSPropertyOp6
 70
     1
102
RTVSPropertyOp7
 70
     1
102
RTVSPropertyOp8
 70
     1
102
RTVSPropertyOp9
 70
     1
102
RTVSPropertyOp10
 70
     1
102
RTVSPropertyOp11
 70
     1
102
RTVSPropertyOp12
 70
     1
102
RTVSPropertyOp13
 70
     1
102
RTVSPropertyOp14
 70
     1
102
RTVSPropertyOp15
 70
     1
102
RTVSPropertyOp16
 70
     1
102
RTVSPropertyOp17
 70
     1
102
RTVSPropertyOp18
 70
     1
102
RTVSPropertyOp19
 70
     1
102
RTVSPropertyOp20
 70
     1
102
RTVSPropertyOp21
 70
     1
102
RTVSPropertyOp22
 70
     1
102
RTVSPropertyOp23
 70
     1
102
RTVSPropertyOp24
 70
     1
102
RTVSPropertyOp25
 70
     1
102
RTVSPropertyOp26
 70
     1
102
RTVSPropertyOp27
 70
     1
102
RTVSPropertyOp28
 70
     1
102
RTVSPropertyOp29
 70
     1
102
RTVSPropertyOp30
 70
     1
102
RTVSPropertyOp31
 70
     1
102
RTVSPropertyOp32
 70
     1
  0
XRECORD
  5
E87
102
{ACAD_REACTORS
330
E86
102
}
330
E86
100
AcDbXrecord
280
     1
102
RTVSPropertyOp0
 70
     1
102
RTVSPropertyOp1
 70
     1
102
RTVSPropertyOp2
 70
     1
102
RTVSPropertyOp3
 70
     1
102
RTVSPropertyOp4
 70
     1
102
RTVSPropertyOp5
 70
     1
102
RTVSPropertyOp6
 70
     1
102
RTVSPropertyOp7
 70
     1
102
RTVSPropertyOp8
 70
     1
102
RTVSPropertyOp9
 70
     1
102
RTVSPropertyOp10
 70
     1
102
RTVSPropertyOp11
 70
     1
102
RTVSPropertyOp12
 70
     1
102
RTVSPropertyOp13
 70
     1
102
RTVSPropertyOp14
 70
     1
102
RTVSPropertyOp15
 70
     1
102
RTVSPropertyOp16
 70
     1
102
RTVSPropertyOp17
 70
     1
102
RTVSPropertyOp18
 70
     1
102
RTVSPropertyOp19
 70
     1
102
RTVSPropertyOp20
 70
     1
102
RTVSPropertyOp21
 70
     1
102
RTVSPropertyOp22
 70
     1
102
RTVSPropertyOp23
 70
     1
102
RTVSPropertyOp24
 70
     1
102
RTVSPropertyOp25
 70
     1
102
RTVSPropertyOp26
 70
     1
102
RTVSPropertyOp27
 70
     1
102
RTVSPropertyOp28
 70
     1
102
RTVSPropertyOp29
 70
     1
102
RTVSPropertyOp30
 70
     1
102
RTVSPropertyOp31
 70
     1
102
RTVSPropertyOp32
 70
     1
  0
XRECORD
  5
EA1
102
{ACAD_REACTORS
330
EA0
102
}
330
EA0
100
AcDbXrecord
280
     1
102
RTVSPropertyOp0
 70
     0
102
RTVSPropertyOp1
 70
     0
102
RTVSPropertyOp2
 70
     0
102
RTVSPropertyOp3
 70
     0
102
RTVSPropertyOp4
 70
     0
102
RTVSPropertyOp5
 70
     0
102
RTVSPropertyOp6
 70
     0
102
RTVSPropertyOp7
 70
     0
102
RTVSPropertyOp8
 70
     0
102
RTVSPropertyOp9
 70
     0
102
RTVSPropertyOp10
 70
     0
102
RTVSPropertyOp11
 70
     0
102
RTVSPropertyOp12
 70
     0
102
RTVSPropertyOp13
 70
     0
102
RTVSPropertyOp14
 70
     2
102
RTVSPropertyOp15
 70
     0
102
RTVSPropertyOp16
 70
     0
102
RTVSPropertyOp17
 70
     0
102
RTVSPropertyOp18
 70
     0
102
RTVSPropertyOp19
 70
     0
102
RTVSPropertyOp20
 70
     0
102
RTVSPropertyOp21
 70
     0
102
RTVSPropertyOp22
 70
     0
102
RTVSPropertyOp23
 70
     0
102
RTVSPropertyOp24
 70
     0
102
RTVSPropertyOp25
 70
     0
102
RTVSPropertyOp26
 70
     0
102
RTVSPropertyOp27
 70
     0
102
RTVSPropertyOp28
 70
     0
102
RTVSPropertyOp29
 70
     0
102
RTVSPropertyOp30
 70
     0
102
RTVSPropertyOp31
 70
     0
102
RTVSPropertyOp32
 70
     0
  0
XRECORD
  5
E8F
102
{ACAD_REACTORS
330
E8E
102
}
330
E8E
100
AcDbXrecord
280
     1
102
RTVSPropertyOp0
 70
     1
102
RTVSPropertyOp1
 70
     1
102
RTVSPropertyOp2
 70
     1
102
RTVSPropertyOp3
 70
     1
102
RTVSPropertyOp4
 70
     1
102
RTVSPropertyOp5
 70
     1
102
RTVSPropertyOp6
 70
     1
102
RTVSPropertyOp7
 70
     1
102
RTVSPropertyOp8
 70
     1
102
RTVSPropertyOp9
 70
     1
102
RTVSPropertyOp10
 70
     1
102
RTVSPropertyOp11
 70
     1
102
RTVSPropertyOp12
 70
     1
102
RTVSPropertyOp13
 70
     1
102
RTVSPropertyOp14
 70
     1
102
RTVSPropertyOp15
 70
     1
102
RTVSPropertyOp16
 70
     1
102
RTVSPropertyOp17
 70
     1
102
RTVSPropertyOp18
 70
     1
102
RTVSPropertyOp19
 70
     1
102
RTVSPropertyOp20
 70
     1
102
RTVSPropertyOp21
 70
     1
102
RTVSPropertyOp22
 70
     1
102
RTVSPropertyOp23
 70
     1
102
RTVSPropertyOp24
 70
     1
102
RTVSPropertyOp25
 70
     1
102
RTVSPropertyOp26
 70
     1
102
RTVSPropertyOp27
 70
     1
102
RTVSPropertyOp28
 70
     1
102
RTVSPropertyOp29
 70
     1
102
RTVSPropertyOp30
 70
     1
102
RTVSPropertyOp31
 70
     1
102
RTVSPropertyOp32
 70
     1
  0
XRECORD
  5
E73
102
{ACAD_REACTORS
330
E72
102
}
330
E72
100
AcDbXrecord
280
     1
102
RTVSPropertyOp0
 70
     1
102
RTVSPropertyOp1
 70
     1
102
RTVSPropertyOp2
 70
     1
102
RTVSPropertyOp3
 70
     1
102
RTVSPropertyOp4
 70
     1
102
RTVSPropertyOp5
 70
     1
102
RTVSPropertyOp6
 70
     1
102
RTVSPropertyOp7
 70
     1
102
RTVSPropertyOp8
 70
     1
102
RTVSPropertyOp9
 70
     1
102
RTVSPropertyOp10
 70
     1
102
RTVSPropertyOp11
 70
     1
102
RTVSPropertyOp12
 70
     1
102
RTVSPropertyOp13
 70
     1
102
RTVSPropertyOp14
 70
     1
102
RTVSPropertyOp15
 70
     1
102
RTVSPropertyOp16
 70
     1
102
RTVSPropertyOp17
 70
     1
102
RTVSPropertyOp18
 70
     1
102
RTVSPropertyOp19
 70
     1
102
RTVSPropertyOp20
 70
     1
102
RTVSPropertyOp21
 70
     1
102
RTVSPropertyOp22
 70
     1
102
RTVSPropertyOp23
 70
     1
102
RTVSPropertyOp24
 70
     1
102
RTVSPropertyOp25
 70
     1
102
RTVSPropertyOp26
 70
     1
102
RTVSPropertyOp27
 70
     1
102
RTVSPropertyOp28
 70
     1
102
RTVSPropertyOp29
 70
     1
102
RTVSPropertyOp30
 70
     1
102
RTVSPropertyOp31
 70
     1
102
RTVSPropertyOp32
 70
     1
  0
XRECORD
  5
E75
102
{ACAD_REACTORS
330
E74
102
}
330
E74
100
AcDbXrecord
280
     1
102
RTVSPropertyOp0
 70
     1
102
RTVSPropertyOp1
 70
     1
102
RTVSPropertyOp2
 70
     1
102
RTVSPropertyOp3
 70
     1
102
RTVSPropertyOp4
 70
     1
102
RTVSPropertyOp5
 70
     1
102
RTVSPropertyOp6
 70
     1
102
RTVSPropertyOp7
 70
     1
102
RTVSPropertyOp8
 70
     1
102
RTVSPropertyOp9
 70
     1
102
RTVSPropertyOp10
 70
     1
102
RTVSPropertyOp11
 70
     1
102
RTVSPropertyOp12
 70
     1
102
RTVSPropertyOp13
 70
     1
102
RTVSPropertyOp14
 70
     1
102
RTVSPropertyOp15
 70
     1
102
RTVSPropertyOp16
 70
     1
102
RTVSPropertyOp17
 70
     1
102
RTVSPropertyOp18
 70
     1
102
RTVSPropertyOp19
 70
     1
102
RTVSPropertyOp20
 70
     1
102
RTVSPropertyOp21
 70
     1
102
RTVSPropertyOp22
 70
     1
102
RTVSPropertyOp23
 70
     1
102
RTVSPropertyOp24
 70
     1
102
RTVSPropertyOp25
 70
     1
102
RTVSPropertyOp26
 70
     1
102
RTVSPropertyOp27
 70
     1
102
RTVSPropertyOp28
 70
     1
102
RTVSPropertyOp29
 70
     1
102
RTVSPropertyOp30
 70
     1
102
RTVSPropertyOp31
 70
     1
102
RTVSPropertyOp32
 70
     1
  0
XRECORD
  5
E77
102
{ACAD_REACTORS
330
E76
102
}
330
E76
100
AcDbXrecord
280
     1
102
RTVSPropertyOp0
 70
     1
102
RTVSPropertyOp1
 70
     1
102
RTVSPropertyOp2
 70
     1
102
RTVSPropertyOp3
 70
     1
102
RTVSPropertyOp4
 70
     1
102
RTVSPropertyOp5
 70
     1
102
RTVSPropertyOp6
 70
     1
102
RTVSPropertyOp7
 70
     1
102
RTVSPropertyOp8
 70
     1
102
RTVSPropertyOp9
 70
     1
102
RTVSPropertyOp10
 70
     1
102
RTVSPropertyOp11
 70
     1
102
RTVSPropertyOp12
 70
     1
102
RTVSPropertyOp13
 70
     1
102
RTVSPropertyOp14
 70
     1
102
RTVSPropertyOp15
 70
     1
102
RTVSPropertyOp16
 70
     1
102
RTVSPropertyOp17
 70
     1
102
RTVSPropertyOp18
 70
     1
102
RTVSPropertyOp19
 70
     1
102
RTVSPropertyOp20
 70
     1
102
RTVSPropertyOp21
 70
     1
102
RTVSPropertyOp22
 70
     1
102
RTVSPropertyOp23
 70
     1
102
RTVSPropertyOp24
 70
     1
102
RTVSPropertyOp25
 70
     1
102
RTVSPropertyOp26
 70
     1
102
RTVSPropertyOp27
 70
     1
102
RTVSPropertyOp28
 70
     1
102
RTVSPropertyOp29
 70
     1
102
RTVSPropertyOp30
 70
     1
102
RTVSPropertyOp31
 70
     1
102
RTVSPropertyOp32
 70
     1
  0
XRECORD
  5
E79
102
{ACAD_REACTORS
330
E78
102
}
330
E78
100
AcDbXrecord
280
     1
102
RTVSPropertyOp0
 70
     1
102
RTVSPropertyOp1
 70
     1
102
RTVSPropertyOp2
 70
     1
102
RTVSPropertyOp3
 70
     1
102
RTVSPropertyOp4
 70
     1
102
RTVSPropertyOp5
 70
     1
102
RTVSPropertyOp6
 70
     1
102
RTVSPropertyOp7
 70
     1
102
RTVSPropertyOp8
 70
     1
102
RTVSPropertyOp9
 70
     1
102
RTVSPropertyOp10
 70
     1
102
RTVSPropertyOp11
 70
     1
102
RTVSPropertyOp12
 70
     1
102
RTVSPropertyOp13
 70
     1
102
RTVSPropertyOp14
 70
     1
102
RTVSPropertyOp15
 70
     1
102
RTVSPropertyOp16
 70
     1
102
RTVSPropertyOp17
 70
     1
102
RTVSPropertyOp18
 70
     1
102
RTVSPropertyOp19
 70
     1
102
RTVSPropertyOp20
 70
     1
102
RTVSPropertyOp21
 70
     1
102
RTVSPropertyOp22
 70
     1
102
RTVSPropertyOp23
 70
     1
102
RTVSPropertyOp24
 70
     1
102
RTVSPropertyOp25
 70
     1
102
RTVSPropertyOp26
 70
     1
102
RTVSPropertyOp27
 70
     1
102
RTVSPropertyOp28
 70
     1
102
RTVSPropertyOp29
 70
     1
102
RTVSPropertyOp30
 70
     1
102
RTVSPropertyOp31
 70
     1
102
RTVSPropertyOp32
 70
     1
  0
XRECORD
  5
E81
102
{ACAD_REACTORS
330
E80
102
}
330
E80
100
AcDbXrecord
280
     1
102
RTVSPropertyOp0
 70
     1
102
RTVSPropertyOp1
 70
     1
102
RTVSPropertyOp2
 70
     1
102
RTVSPropertyOp3
 70
     1
102
RTVSPropertyOp4
 70
     1
102
RTVSPropertyOp5
 70
     1
102
RTVSPropertyOp6
 70
     1
102
RTVSPropertyOp7
 70
     1
102
RTVSPropertyOp8
 70
     1
102
RTVSPropertyOp9
 70
     1
102
RTVSPropertyOp10
 70
     1
102
RTVSPropertyOp11
 70
     1
102
RTVSPropertyOp12
 70
     1
102
RTVSPropertyOp13
 70
     1
102
RTVSPropertyOp14
 70
     1
102
RTVSPropertyOp15
 70
     1
102
RTVSPropertyOp16
 70
     1
102
RTVSPropertyOp17
 70
     1
102
RTVSPropertyOp18
 70
     1
102
RTVSPropertyOp19
 70
     1
102
RTVSPropertyOp20
 70
     1
102
RTVSPropertyOp21
 70
     1
102
RTVSPropertyOp22
 70
     1
102
RTVSPropertyOp23
 70
     1
102
RTVSPropertyOp24
 70
     1
102
RTVSPropertyOp25
 70
     1
102
RTVSPropertyOp26
 70
     1
102
RTVSPropertyOp27
 70
     1
102
RTVSPropertyOp28
 70
     1
102
RTVSPropertyOp29
 70
     1
102
RTVSPropertyOp30
 70
     1
102
RTVSPropertyOp31
 70
     1
102
RTVSPropertyOp32
 70
     1
  0
XRECORD
  5
E9D
102
{ACAD_REACTORS
330
E9C
102
}
330
E9C
100
AcDbXrecord
280
     1
102
RTVSPropertyOp0
 70
     0
102
RTVSPropertyOp1
 70
     0
102
RTVSPropertyOp2
 70
     0
102
RTVSPropertyOp3
 70
     0
102
RTVSPropertyOp4
 70
     0
102
RTVSPropertyOp5
 70
     0
102
RTVSPropertyOp6
 70
     0
102
RTVSPropertyOp7
 70
     0
102
RTVSPropertyOp8
 70
     0
102
RTVSPropertyOp9
 70
     0
102
RTVSPropertyOp10
 70
     0
102
RTVSPropertyOp11
 70
     0
102
RTVSPropertyOp12
 70
     0
102
RTVSPropertyOp13
 70
     0
102
RTVSPropertyOp14
 70
     2
102
RTVSPropertyOp15
 70
     0
102
RTVSPropertyOp16
 70
     0
102
RTVSPropertyOp17
 70
     0
102
RTVSPropertyOp18
 70
     0
102
RTVSPropertyOp19
 70
     0
102
RTVSPropertyOp20
 70
     0
102
RTVSPropertyOp21
 70
     0
102
RTVSPropertyOp22
 70
     0
102
RTVSPropertyOp23
 70
     0
102
RTVSPropertyOp24
 70
     0
102
RTVSPropertyOp25
 70
     0
102
RTVSPropertyOp26
 70
     0
102
RTVSPropertyOp27
 70
     0
102
RTVSPropertyOp28
 70
     0
102
RTVSPropertyOp29
 70
     0
102
RTVSPropertyOp30
 70
     0
102
RTVSPropertyOp31
 70
     0
102
RTVSPropertyOp32
 70
     0
  0
XRECORD
  5
E8D
102
{ACAD_REACTORS
330
E8C
102
}
330
E8C
100
AcDbXrecord
280
     1
102
RTVSPropertyOp0
 70
     1
102
RTVSPropertyOp1
 70
     1
102
RTVSPropertyOp2
 70
     1
102
RTVSPropertyOp3
 70
     1
102
RTVSPropertyOp4
 70
     1
102
RTVSPropertyOp5
 70
     1
102
RTVSPropertyOp6
 70
     1
102
RTVSPropertyOp7
 70
     1
102
RTVSPropertyOp8
 70
     1
102
RTVSPropertyOp9
 70
     1
102
RTVSPropertyOp10
 70
     1
102
RTVSPropertyOp11
 70
     1
102
RTVSPropertyOp12
 70
     1
102
RTVSPropertyOp13
 70
     1
102
RTVSPropertyOp14
 70
     1
102
RTVSPropertyOp15
 70
     1
102
RTVSPropertyOp16
 70
     1
102
RTVSPropertyOp17
 70
     1
102
RTVSPropertyOp18
 70
     1
102
RTVSPropertyOp19
 70
     1
102
RTVSPropertyOp20
 70
     1
102
RTVSPropertyOp21
 70
     1
102
RTVSPropertyOp22
 70
     1
102
RTVSPropertyOp23
 70
     1
102
RTVSPropertyOp24
 70
     1
102
RTVSPropertyOp25
 70
     1
102
RTVSPropertyOp26
 70
     1
102
RTVSPropertyOp27
 70
     1
102
RTVSPropertyOp28
 70
     1
102
RTVSPropertyOp29
 70
     1
102
RTVSPropertyOp30
 70
     1
102
RTVSPropertyOp31
 70
     1
102
RTVSPropertyOp32
 70
     1
  0
XRECORD
  5
E9F
102
{ACAD_REACTORS
330
E9E
102
}
330
E9E
100
AcDbXrecord
280
     1
102
RTVSPropertyOp0
 70
     0
102
RTVSPropertyOp1
 70
     0
102
RTVSPropertyOp2
 70
     0
102
RTVSPropertyOp3
 70
     0
102
RTVSPropertyOp4
 70
     0
102
RTVSPropertyOp5
 70
     0
102
RTVSPropertyOp6
 70
     0
102
RTVSPropertyOp7
 70
     0
102
RTVSPropertyOp8
 70
     0
102
RTVSPropertyOp9
 70
     0
102
RTVSPropertyOp10
 70
     0
102
RTVSPropertyOp11
 70
     0
102
RTVSPropertyOp12
 70
     0
102
RTVSPropertyOp13
 70
     0
102
RTVSPropertyOp14
 70
     2
102
RTVSPropertyOp15
 70
     0
102
RTVSPropertyOp16
 70
     0
102
RTVSPropertyOp17
 70
     0
102
RTVSPropertyOp18
 70
     0
102
RTVSPropertyOp19
 70
     0
102
RTVSPropertyOp20
 70
     0
102
RTVSPropertyOp21
 70
     0
102
RTVSPropertyOp22
 70
     0
102
RTVSPropertyOp23
 70
     0
102
RTVSPropertyOp24
 70
     0
102
RTVSPropertyOp25
 70
     0
102
RTVSPropertyOp26
 70
     0
102
RTVSPropertyOp27
 70
     0
102
RTVSPropertyOp28
 70
     0
102
RTVSPropertyOp29
 70
     0
102
RTVSPropertyOp30
 70
     0
102
RTVSPropertyOp31
 70
     0
102
RTVSPropertyOp32
 70
     0
  0
XRECORD
  5
E85
102
{ACAD_REACTORS
330
E84
102
}
330
E84
100
AcDbXrecord
280
     1
102
RTVSPropertyOp0
 70
     1
102
RTVSPropertyOp1
 70
     1
102
RTVSPropertyOp2
 70
     1
102
RTVSPropertyOp3
 70
     1
102
RTVSPropertyOp4
 70
     1
102
RTVSPropertyOp5
 70
     1
102
RTVSPropertyOp6
 70
     1
102
RTVSPropertyOp7
 70
     1
102
RTVSPropertyOp8
 70
     1
102
RTVSPropertyOp9
 70
     1
102
RTVSPropertyOp10
 70
     1
102
RTVSPropertyOp11
 70
     1
102
RTVSPropertyOp12
 70
     1
102
RTVSPropertyOp13
 70
     1
102
RTVSPropertyOp14
 70
     1
102
RTVSPropertyOp15
 70
     1
102
RTVSPropertyOp16
 70
     1
102
RTVSPropertyOp17
 70
     1
102
RTVSPropertyOp18
 70
     1
102
RTVSPropertyOp19
 70
     1
102
RTVSPropertyOp20
 70
     1
102
RTVSPropertyOp21
 70
     1
102
RTVSPropertyOp22
 70
     1
102
RTVSPropertyOp23
 70
     1
102
RTVSPropertyOp24
 70
     1
102
RTVSPropertyOp25
 70
     1
102
RTVSPropertyOp26
 70
     1
102
RTVSPropertyOp27
 70
     1
102
RTVSPropertyOp28
 70
     1
102
RTVSPropertyOp29
 70
     1
102
RTVSPropertyOp30
 70
     1
102
RTVSPropertyOp31
 70
     1
102
RTVSPropertyOp32
 70
     1
  0
XRECORD
  5
E9B
102
{ACAD_REACTORS
330
E9A
102
}
330
E9A
100
AcDbXrecord
280
     1
102
RTVSPropertyOp0
 70
     1
102
RTVSPropertyOp1
 70
     1
102
RTVSPropertyOp2
 70
     1
102
RTVSPropertyOp3
 70
     1
102
RTVSPropertyOp4
 70
     1
102
RTVSPropertyOp5
 70
     1
102
RTVSPropertyOp6
 70
     1
102
RTVSPropertyOp7
 70
     1
102
RTVSPropertyOp8
 70
     1
102
RTVSPropertyOp9
 70
     1
102
RTVSPropertyOp10
 70
     1
102
RTVSPropertyOp11
 70
     1
102
RTVSPropertyOp12
 70
     1
102
RTVSPropertyOp13
 70
     1
102
RTVSPropertyOp14
 70
     1
102
RTVSPropertyOp15
 70
     1
102
RTVSPropertyOp16
 70
     1
102
RTVSPropertyOp17
 70
     1
102
RTVSPropertyOp18
 70
     1
102
RTVSPropertyOp19
 70
     1
102
RTVSPropertyOp20
 70
     1
102
RTVSPropertyOp21
 70
     1
102
RTVSPropertyOp22
 70
     1
102
RTVSPropertyOp23
 70
     1
102
RTVSPropertyOp24
 70
     1
102
RTVSPropertyOp25
 70
     1
102
RTVSPropertyOp26
 70
     1
102
RTVSPropertyOp27
 70
     1
102
RTVSPropertyOp28
 70
     1
102
RTVSPropertyOp29
 70
     1
102
RTVSPropertyOp30
 70
     1
102
RTVSPropertyOp31
 70
     1
102
RTVSPropertyOp32
 70
     1
  0
XRECORD
  5
E99
102
{ACAD_REACTORS
330
E98
102
}
330
E98
100
AcDbXrecord
280
     1
102
RTVSPropertyOp0
 70
     1
102
RTVSPropertyOp1
 70
     1
102
RTVSPropertyOp2
 70
     1
102
RTVSPropertyOp3
 70
     1
102
RTVSPropertyOp4
 70
     1
102
RTVSPropertyOp5
 70
     1
102
RTVSPropertyOp6
 70
     1
102
RTVSPropertyOp7
 70
     1
102
RTVSPropertyOp8
 70
     1
102
RTVSPropertyOp9
 70
     1
102
RTVSPropertyOp10
 70
     1
102
RTVSPropertyOp11
 70
     1
102
RTVSPropertyOp12
 70
     1
102
RTVSPropertyOp13
 70
     1
102
RTVSPropertyOp14
 70
     1
102
RTVSPropertyOp15
 70
     1
102
RTVSPropertyOp16
 70
     1
102
RTVSPropertyOp17
 70
     1
102
RTVSPropertyOp18
 70
     1
102
RTVSPropertyOp19
 70
     1
102
RTVSPropertyOp20
 70
     1
102
RTVSPropertyOp21
 70
     1
102
RTVSPropertyOp22
 70
     1
102
RTVSPropertyOp23
 70
     1
102
RTVSPropertyOp24
 70
     1
102
RTVSPropertyOp25
 70
     1
102
RTVSPropertyOp26
 70
     1
102
RTVSPropertyOp27
 70
     1
102
RTVSPropertyOp28
 70
     1
102
RTVSPropertyOp29
 70
     1
102
RTVSPropertyOp30
 70
     1
102
RTVSPropertyOp31
 70
     1
102
RTVSPropertyOp32
 70
     1
  0
XRECORD
  5
E93
102
{ACAD_REACTORS
330
E92
102
}
330
E92
100
AcDbXrecord
280
     1
102
RTVSPropertyOp0
 70
     1
102
RTVSPropertyOp1
 70
     1
102
RTVSPropertyOp2
 70
     1
102
RTVSPropertyOp3
 70
     1
102
RTVSPropertyOp4
 70
     1
102
RTVSPropertyOp5
 70
     1
102
RTVSPropertyOp6
 70
     1
102
RTVSPropertyOp7
 70
     1
102
RTVSPropertyOp8
 70
     1
102
RTVSPropertyOp9
 70
     1
102
RTVSPropertyOp10
 70
     1
102
RTVSPropertyOp11
 70
     1
102
RTVSPropertyOp12
 70
     1
102
RTVSPropertyOp13
 70
     1
102
RTVSPropertyOp14
 70
     1
102
RTVSPropertyOp15
 70
     1
102
RTVSPropertyOp16
 70
     1
102
RTVSPropertyOp17
 70
     1
102
RTVSPropertyOp18
 70
     1
102
RTVSPropertyOp19
 70
     1
102
RTVSPropertyOp20
 70
     1
102
RTVSPropertyOp21
 70
     1
102
RTVSPropertyOp22
 70
     1
102
RTVSPropertyOp23
 70
     1
102
RTVSPropertyOp24
 70
     1
102
RTVSPropertyOp25
 70
     1
102
RTVSPropertyOp26
 70
     1
102
RTVSPropertyOp27
 70
     1
102
RTVSPropertyOp28
 70
     1
102
RTVSPropertyOp29
 70
     1
102
RTVSPropertyOp30
 70
     1
102
RTVSPropertyOp31
 70
     1
102
RTVSPropertyOp32
 70
     1
  0
XRECORD
  5
E95
102
{ACAD_REACTORS
330
E94
102
}
330
E94
100
AcDbXrecord
280
     1
102
RTVSPropertyOp0
 70
     1
102
RTVSPropertyOp1
 70
     1
102
RTVSPropertyOp2
 70
     1
102
RTVSPropertyOp3
 70
     1
102
RTVSPropertyOp4
 70
     1
102
RTVSPropertyOp5
 70
     1
102
RTVSPropertyOp6
 70
     1
102
RTVSPropertyOp7
 70
     1
102
RTVSPropertyOp8
 70
     1
102
RTVSPropertyOp9
 70
     1
102
RTVSPropertyOp10
 70
     1
102
RTVSPropertyOp11
 70
     1
102
RTVSPropertyOp12
 70
     1
102
RTVSPropertyOp13
 70
     1
102
RTVSPropertyOp14
 70
     1
102
RTVSPropertyOp15
 70
     1
102
RTVSPropertyOp16
 70
     1
102
RTVSPropertyOp17
 70
     1
102
RTVSPropertyOp18
 70
     1
102
RTVSPropertyOp19
 70
     1
102
RTVSPropertyOp20
 70
     1
102
RTVSPropertyOp21
 70
     1
102
RTVSPropertyOp22
 70
     1
102
RTVSPropertyOp23
 70
     1
102
RTVSPropertyOp24
 70
     1
102
RTVSPropertyOp25
 70
     1
102
RTVSPropertyOp26
 70
     1
102
RTVSPropertyOp27
 70
     1
102
RTVSPropertyOp28
 70
     1
102
RTVSPropertyOp29
 70
     1
102
RTVSPropertyOp30
 70
     1
102
RTVSPropertyOp31
 70
     1
102
RTVSPropertyOp32
 70
     1
  0
XRECORD
  5
E8B
102
{ACAD_REACTORS
330
E8A
102
}
330
E8A
100
AcDbXrecord
280
     1
102
RTVSPropertyOp0
 70
     1
102
RTVSPropertyOp1
 70
     1
102
RTVSPropertyOp2
 70
     1
102
RTVSPropertyOp3
 70
     1
102
RTVSPropertyOp4
 70
     1
102
RTVSPropertyOp5
 70
     1
102
RTVSPropertyOp6
 70
     1
102
RTVSPropertyOp7
 70
     1
102
RTVSPropertyOp8
 70
     1
102
RTVSPropertyOp9
 70
     1
102
RTVSPropertyOp10
 70
     1
102
RTVSPropertyOp11
 70
     1
102
RTVSPropertyOp12
 70
     1
102
RTVSPropertyOp13
 70
     1
102
RTVSPropertyOp14
 70
     1
102
RTVSPropertyOp15
 70
     1
102
RTVSPropertyOp16
 70
     1
102
RTVSPropertyOp17
 70
     1
102
RTVSPropertyOp18
 70
     1
102
RTVSPropertyOp19
 70
     1
102
RTVSPropertyOp20
 70
     1
102
RTVSPropertyOp21
 70
     1
102
RTVSPropertyOp22
 70
     1
102
RTVSPropertyOp23
 70
     1
102
RTVSPropertyOp24
 70
     1
102
RTVSPropertyOp25
 70
     1
102
RTVSPropertyOp26
 70
     1
102
RTVSPropertyOp27
 70
     1
102
RTVSPropertyOp28
 70
     1
102
RTVSPropertyOp29
 70
     1
102
RTVSPropertyOp30
 70
     1
102
RTVSPropertyOp31
 70
     1
102
RTVSPropertyOp32
 70
     1
  0
XRECORD
  5
E7F
102
{ACAD_REACTORS
330
E7E
102
}
330
E7E
100
AcDbXrecord
280
     1
102
RTVSPropertyOp0
 70
     1
102
RTVSPropertyOp1
 70
     1
102
RTVSPropertyOp2
 70
     1
102
RTVSPropertyOp3
 70
     1
102
RTVSPropertyOp4
 70
     1
102
RTVSPropertyOp5
 70
     1
102
RTVSPropertyOp6
 70
     1
102
RTVSPropertyOp7
 70
     1
102
RTVSPropertyOp8
 70
     1
102
RTVSPropertyOp9
 70
     1
102
RTVSPropertyOp10
 70
     1
102
RTVSPropertyOp11
 70
     1
102
RTVSPropertyOp12
 70
     1
102
RTVSPropertyOp13
 70
     1
102
RTVSPropertyOp14
 70
     1
102
RTVSPropertyOp15
 70
     1
102
RTVSPropertyOp16
 70
     1
102
RTVSPropertyOp17
 70
     1
102
RTVSPropertyOp18
 70
     1
102
RTVSPropertyOp19
 70
     1
102
RTVSPropertyOp20
 70
     1
102
RTVSPropertyOp21
 70
     1
102
RTVSPropertyOp22
 70
     1
102
RTVSPropertyOp23
 70
     1
102
RTVSPropertyOp24
 70
     1
102
RTVSPropertyOp25
 70
     1
102
RTVSPropertyOp26
 70
     1
102
RTVSPropertyOp27
 70
     1
102
RTVSPropertyOp28
 70
     1
102
RTVSPropertyOp29
 70
     1
102
RTVSPropertyOp30
 70
     1
102
RTVSPropertyOp31
 70
     1
102
RTVSPropertyOp32
 70
     1
  0
XRECORD
  5
E97
102
{ACAD_REACTORS
330
E96
102
}
330
E96
100
AcDbXrecord
280
     1
102
RTVSPropertyOp0
 70
     1
102
RTVSPropertyOp1
 70
     1
102
RTVSPropertyOp2
 70
     1
102
RTVSPropertyOp3
 70
     1
102
RTVSPropertyOp4
 70
     1
102
RTVSPropertyOp5
 70
     1
102
RTVSPropertyOp6
 70
     1
102
RTVSPropertyOp7
 70
     1
102
RTVSPropertyOp8
 70
     1
102
RTVSPropertyOp9
 70
     1
102
RTVSPropertyOp10
 70
     1
102
RTVSPropertyOp11
 70
     1
102
RTVSPropertyOp12
 70
     1
102
RTVSPropertyOp13
 70
     1
102
RTVSPropertyOp14
 70
     1
102
RTVSPropertyOp15
 70
     1
102
RTVSPropertyOp16
 70
     1
102
RTVSPropertyOp17
 70
     1
102
RTVSPropertyOp18
 70
     1
102
RTVSPropertyOp19
 70
     1
102
RTVSPropertyOp20
 70
     1
102
RTVSPropertyOp21
 70
     1
102
RTVSPropertyOp22
 70
     1
102
RTVSPropertyOp23
 70
     1
102
RTVSPropertyOp24
 70
     1
102
RTVSPropertyOp25
 70
     1
102
RTVSPropertyOp26
 70
     1
102
RTVSPropertyOp27
 70
     1
102
RTVSPropertyOp28
 70
     1
102
RTVSPropertyOp29
 70
     1
102
RTVSPropertyOp30
 70
     1
102
RTVSPropertyOp31
 70
     1
102
RTVSPropertyOp32
 70
     1
  0
ENDSEC
  0
EOF
