  0
SECTION
  2
HEADER
  9
$ACADVER
  1
AC1015
  9
$ACADMAINTVER
 70
    10
  9
$DWGCODEPAGE
  3
ANSI_932
  9
$INSBASE
 10
0.0
 20
0.0
 30
0.0
  9
$EXTMIN
 10
337.4590673428563
 20
158.8256503631698
 30
0.0
  9
$EXTMAX
 10
897.3678868312424
 20
445.4978261961129
 30
0.0
  9
$LIMMIN
 10
0.0
 20
0.0
  9
$LIMMAX
 10
420.0
 20
297.0
  9
$ORTHOMODE
 70
     1
  9
$REGENMODE
 70
     1
  9
$FILLMODE
 70
     1
  9
$QTEXTMODE
 70
     0
  9
$MIRRTEXT
 70
     0
  9
$LTSCALE
 40
2.0
  9
$ATTMODE
 70
     1
  9
$TEXTSIZE
 40
2.5
  9
$TRACEWID
 40
1.0
  9
$TEXTSTYLE
  7
Standard
  9
$CLAYER
  8
寸法
  9
$CELTYPE
  6
ByLayer
  9
$CECOLOR
 62
     5
  9
$CELTSCALE
 40
1.0
  9
$DISPSILH
 70
     0
  9
$DIMSCALE
 40
7.0
  9
$DIMASZ
 40
1.0
  9
$DIMEXO
 40
0.2
  9
$DIMDLI
 40
3.75
  9
$DIMRND
 40
0.0
  9
$DIMDLE
 40
0.0
  9
$DIMEXE
 40
0.5
  9
$DIMTP
 40
0.0
  9
$DIMTM
 40
0.0
  9
$DIMTXT
 40
0.7
  9
$DIMCEN
 40
2.5
  9
$DIMTSZ
 40
0.0
  9
$DIMTOL
 70
     0
  9
$DIMLIM
 70
     0
  9
$DIMTIH
 70
     0
  9
$DIMTOH
 70
     0
  9
$DIMSE1
 70
     0
  9
$DIMSE2
 70
     0
  9
$DIMTAD
 70
     1
  9
$DIMZIN
 70
     8
  9
$DIMBLK
  1

  9
$DIMASO
 70
     1
  9
$DIMSHO
 70
     1
  9
$DIMPOST
  1

  9
$DIMAPOST
  1

  9
$DIMALT
 70
     0
  9
$DIMALTD
 70
     3
  9
$DIMALTF
 40
0.03937007874016
  9
$DIMLFAC
 40
1.0
  9
$DIMTOFL
 70
     1
  9
$DIMTVP
 40
0.0
  9
$DIMTIX
 70
     0
  9
$DIMSOXD
 70
     0
  9
$DIMSAH
 70
     0
  9
$DIMBLK1
  1

  9
$DIMBLK2
  1

  9
$DIMSTYLE
  2
ISO-25
  9
$DIMCLRD
 70
     0
  9
$DIMCLRE
 70
     0
  9
$DIMCLRT
 70
     0
  9
$DIMTFAC
 40
1.0
  9
$DIMGAP
 40
0.2
  9
$DIMJUST
 70
     0
  9
$DIMSD1
 70
     0
  9
$DIMSD2
 70
     0
  9
$DIMTOLJ
 70
     0
  9
$DIMTZIN
 70
     8
  9
$DIMALTZ
 70
     0
  9
$DIMALTTZ
 70
     0
  9
$DIMUPT
 70
     0
  9
$DIMDEC
 70
     2
  9
$DIMTDEC
 70
     2
  9
$DIMALTU
 70
     2
  9
$DIMALTTD
 70
     3
  9
$DIMTXSTY
  7
Standard
  9
$DIMAUNIT
 70
     0
  9
$DIMADEC
 70
     0
  9
$DIMALTRND
 40
0.0
  9
$DIMAZIN
 70
     0
  9
$DIMDSEP
 70
    46
  9
$DIMATFIT
 70
     3
  9
$DIMFRAC
 70
     0
  9
$DIMLDRBLK
  1

  9
$DIMLUNIT
 70
     2
  9
$DIMLWD
 70
    -2
  9
$DIMLWE
 70
    -2
  9
$DIMTMOVE
 70
     0
  9
$LUNITS
 70
     2
  9
$LUPREC
 70
     4
  9
$SKETCHINC
 40
1.0
  9
$FILLETRAD
 40
0.5
  9
$AUNITS
 70
     0
  9
$AUPREC
 70
     0
  9
$MENU
  1
.
  9
$ELEVATION
 40
0.0
  9
$PELEVATION
 40
0.0
  9
$THICKNESS
 40
0.0
  9
$LIMCHECK
 70
     0
  9
$CHAMFERA
 40
0.0
  9
$CHAMFERB
 40
0.0
  9
$CHAMFERC
 40
0.0
  9
$CHAMFERD
 40
0.0
  9
$SKPOLY
 70
     0
  9
$TDCREATE
 40
2453483.907673240
  9
$TDUCREATE
 40
2453483.532673240
  9
$TDUPDATE
 40
2453518.748451053
  9
$TDUUPDATE
 40
2453518.373451053
  9
$TDINDWG
 40
0.3368382292
  9
$TDUSRTIMER
 40
0.3368380440
  9
$USRTIMER
 70
     1
  9
$ANGBASE
 50
0.0
  9
$ANGDIR
 70
     0
  9
$PDMODE
 70
     0
  9
$PDSIZE
 40
0.0
  9
$PLINEWID
 40
0.0
  9
$SPLFRAME
 70
     0
  9
$SPLINETYPE
 70
     6
  9
$SPLINESEGS
 70
     8
  9
$HANDSEED
  5
2496
  9
$SURFTAB1
 70
     6
  9
$SURFTAB2
 70
     6
  9
$SURFTYPE
 70
     6
  9
$SURFU
 70
     6
  9
$SURFV
 70
     6
  9
$UCSBASE
  2

  9
$UCSNAME
  2

  9
$UCSORG
 10
0.0
 20
0.0
 30
0.0
  9
$UCSXDIR
 10
1.0
 20
0.0
 30
0.0
  9
$UCSYDIR
 10
0.0
 20
1.0
 30
0.0
  9
$UCSORTHOREF
  2

  9
$UCSORTHOVIEW
 70
     0
  9
$UCSORGTOP
 10
0.0
 20
0.0
 30
0.0
  9
$UCSORGBOTTOM
 10
0.0
 20
0.0
 30
0.0
  9
$UCSORGLEFT
 10
0.0
 20
0.0
 30
0.0
  9
$UCSORGRIGHT
 10
0.0
 20
0.0
 30
0.0
  9
$UCSORGFRONT
 10
0.0
 20
0.0
 30
0.0
  9
$UCSORGBACK
 10
0.0
 20
0.0
 30
0.0
  9
$PUCSBASE
  2

  9
$PUCSNAME
  2

  9
$PUCSORG
 10
0.0
 20
0.0
 30
0.0
  9
$PUCSXDIR
 10
1.0
 20
0.0
 30
0.0
  9
$PUCSYDIR
 10
0.0
 20
1.0
 30
0.0
  9
$PUCSORTHOREF
  2

  9
$PUCSORTHOVIEW
 70
     0
  9
$PUCSORGTOP
 10
0.0
 20
0.0
 30
0.0
  9
$PUCSORGBOTTOM
 10
0.0
 20
0.0
 30
0.0
  9
$PUCSORGLEFT
 10
0.0
 20
0.0
 30
0.0
  9
$PUCSORGRIGHT
 10
0.0
 20
0.0
 30
0.0
  9
$PUCSORGFRONT
 10
0.0
 20
0.0
 30
0.0
  9
$PUCSORGBACK
 10
0.0
 20
0.0
 30
0.0
  9
$USERI1
 70
     0
  9
$USERI2
 70
     0
  9
$USERI3
 70
     0
  9
$USERI4
 70
     0
  9
$USERI5
 70
     0
  9
$USERR1
 40
0.0
  9
$USERR2
 40
0.0
  9
$USERR3
 40
0.0
  9
$USERR4
 40
0.0
  9
$USERR5
 40
0.0
  9
$WORLDVIEW
 70
     1
  9
$SHADEDGE
 70
     3
  9
$SHADEDIF
 70
    70
  9
$TILEMODE
 70
     1
  9
$MAXACTVP
 70
    64
  9
$PINSBASE
 10
0.0
 20
0.0
 30
0.0
  9
$PLIMCHECK
 70
     0
  9
$PEXTMIN
 10
0.0
 20
0.0
 30
0.0
  9
$PEXTMAX
 10
200.3425021171569
 20
287.3798336982726
 30
0.0
  9
$PLIMMIN
 10
-4.773083209991455
 20
-4.773089885711669
  9
$PLIMMAX
 10
205.2002444267273
 20
292.1529049873352
  9
$UNITMODE
 70
     0
  9
$VISRETAIN
 70
     1
  9
$PLINEGEN
 70
     0
  9
$PSLTSCALE
 70
     1
  9
$TREEDEPTH
 70
  3020
  9
$CMLSTYLE
  2
Standard
  9
$CMLJUST
 70
     0
  9
$CMLSCALE
 40
20.0
  9
$PROXYGRAPHICS
 70
     1
  9
$MEASUREMENT
 70
     1
  9
$CELWEIGHT
370
    -1
  9
$ENDCAPS
280
     0
  9
$JOINSTYLE
280
     0
  9
$LWDISPLAY
290
     0
  9
$INSUNITS
 70
     4
  9
$HYPERLINKBASE
  1

  9
$STYLESHEET
  1
monochrome.ctb
  9
$XEDIT
290
     1
  9
$CEPSNTYPE
380
     0
  9
$PSTYLEMODE
290
     1
  9
$FINGERPRINTGUID
  2
{FDEAD578-A652-11D2-9A35-0060089B3A3F}
  9
$VERSIONGUID
  2
{316ECFD4-9CEA-4417-8F9D-44659ABB030F}
  9
$EXTNAMES
290
     1
  9
$PSVPSCALE
 40
0.0
  9
$OLESTARTUP
290
     0
  0
ENDSEC
  0
SECTION
  2
CLASSES
  0
CLASS
  1
ACDBDICTIONARYWDFLT
  2
AcDbDictionaryWithDefault
  3
AutoCAD 2000
 90
        0
280
     0
281
     0
  0
CLASS
  1
ACDBPLACEHOLDER
  2
AcDbPlaceHolder
  3
AutoCAD 2000
 90
        0
280
     0
281
     0
  0
CLASS
  1
LAYOUT
  2
AcDbLayout
  3
AutoCAD 2000
 90
        0
280
     0
281
     0
  0
CLASS
  1
TABLESTYLE
  2
AcDbTableStyle
  3
ObjectDBX Classes
 90
     2047
280
     0
281
     0
  0
CLASS
  1
DICTIONARYVAR
  2
AcDbDictionaryVar
  3
AutoCAD 2000
 90
        0
280
     0
281
     0
  0
ENDSEC
  0
SECTION
  2
TABLES
  0
TABLE
  2
VPORT
  5
8
330
0
100
AcDbSymbolTable
 70
     2
  0
VPORT
  5
2495
330
8
100
AcDbSymbolTableRecord
100
AcDbViewportTableRecord
  2
*Active
 70
     0
 10
0.0
 20
0.0
 11
1.0
 21
1.0
 12
611.3307576803697
 22
286.5990119899294
 13
0.0
 23
0.0
 14
10.0
 24
10.0
 15
10.0
 25
10.0
 16
0.0
 26
0.0
 36
1.0
 17
0.0
 27
0.0
 37
0.0
 40
381.576526467342
 41
1.561128526645767
 42
50.0
 43
0.0
 44
0.0
 50
0.0
 51
0.0
 71
     0
 72
   100
 73
     1
 74
     3
 75
     0
 76
     0
 77
     0
 78
     0
281
     0
 65
     1
110
0.0
120
0.0
130
0.0
111
1.0
121
0.0
131
0.0
112
0.0
122
1.0
132
0.0
 79
     0
146
0.0
  0
ENDTAB
  0
TABLE
  2
LTYPE
  5
5
330
0
100
AcDbSymbolTable
 70
     3
  0
LTYPE
  5
14
330
5
100
AcDbSymbolTableRecord
100
AcDbLinetypeTableRecord
  2
ByBlock
 70
     0
  3

 72
    65
 73
     0
 40
0.0
  0
LTYPE
  5
15
330
5
100
AcDbSymbolTableRecord
100
AcDbLinetypeTableRecord
  2
ByLayer
 70
     0
  3

 72
    65
 73
     0
 40
0.0
  0
LTYPE
  5
16
330
5
100
AcDbSymbolTableRecord
100
AcDbLinetypeTableRecord
  2
Continuous
 70
     0
  3
Solid line
 72
    65
 73
     0
 40
0.0
  0
LTYPE
  5
79
330
5
100
AcDbSymbolTableRecord
100
AcDbLinetypeTableRecord
  2
CENTER
 70
     0
  3
Center ____ _ ____ _ ____ _ ____ _ ____ _ ____
 72
    65
 73
     4
 40
50.8
 49
31.75
 74
     0
 49
-6.349999999999998
 74
     0
 49
6.349999999999998
 74
     0
 49
-6.349999999999998
 74
     0
  0
LTYPE
  5
1E0D
330
5
100
AcDbSymbolTableRecord
100
AcDbLinetypeTableRecord
  2
DASHED2
 70
     0
  3
Dashed (.5x) _ _ _ _ _ _ _ _ _ _ _ _ _ _ _ _ _
 72
    65
 73
     2
 40
9.524999999999998
 49
6.349999999999999
 74
     0
 49
-3.174999999999999
 74
     0
  0
ENDTAB
  0
TABLE
  2
LAYER
  5
2
330
0
100
AcDbSymbolTable
 70
     4
  0
LAYER
  5
10
330
2
100
AcDbSymbolTableRecord
100
AcDbLayerTableRecord
  2
0
 70
     0
 62
     7
  6
Continuous
370
    -3
390
F
  0
LAYER
  5
64
330
2
100
AcDbSymbolTableRecord
100
AcDbLayerTableRecord
  2
外形
 70
     0
 62
     7
  6
Continuous
370
    -3
390
F
  0
LAYER
  5
65
330
2
100
AcDbSymbolTableRecord
100
AcDbLayerTableRecord
  2
寸法
 70
     0
 62
     7
  6
Continuous
370
    -3
390
F
  0
LAYER
  5
E3
330
2
100
AcDbSymbolTableRecord
100
AcDbLayerTableRecord
  2
Defpoints
 70
     0
 62
     7
  6
Continuous
290
     0
370
    -3
390
F
  0
ENDTAB
  0
TABLE
  2
STYLE
  5
3
330
0
100
AcDbSymbolTable
 70
     1
  0
STYLE
  5
11
330
3
100
AcDbSymbolTableRecord
100
AcDbTextStyleTableRecord
  2
Standard
 70
     0
 40
0.0
 41
1.0
 50
0.0
 71
     0
 42
2.5
  3
txt
  4

  0
ENDTAB
  0
TABLE
  2
VIEW
  5
6
330
0
100
AcDbSymbolTable
 70
     0
  0
ENDTAB
  0
TABLE
  2
UCS
  5
7
330
0
100
AcDbSymbolTable
 70
     0
  0
ENDTAB
  0
TABLE
  2
APPID
  5
9
330
0
100
AcDbSymbolTable
 70
     1
  0
APPID
  5
12
330
9
100
AcDbSymbolTableRecord
100
AcDbRegAppTableRecord
  2
ACAD
 70
     0
  0
ENDTAB
  0
TABLE
  2
DIMSTYLE
  5
A
330
0
100
AcDbSymbolTable
 70
     1
100
AcDbDimStyleTable
 71
     1
340
27
  0
DIMSTYLE
105
27
102
{ACAD_REACTORS
330
1FE1
330
1FE2
330
2018
330
20A4
330
200B
330
2034
330
2066
330
224B
102
}
330
A
100
AcDbSymbolTableRecord
100
AcDbDimStyleTableRecord
  2
ISO-25
 70
     0
 40
7.0
 41
1.0
 42
0.2
 43
3.75
 44
0.5
 73
     0
 74
     0
 77
     1
 78
     8
140
0.7
141
2.5
143
0.03937007874016
147
0.2
171
     3
172
     1
271
     2
272
     2
274
     3
283
     0
284
     8
340
11
  0
ENDTAB
  0
TABLE
  2
BLOCK_RECORD
  5
1
330
0
100
AcDbSymbolTable
 70
     5
  0
BLOCK_RECORD
  5
1F
330
1
100
AcDbSymbolTableRecord
100
AcDbBlockTableRecord
  2
*Model_Space
340
22
  0
BLOCK_RECORD
  5
2D1
330
1
100
AcDbSymbolTableRecord
100
AcDbBlockTableRecord
  2
*Paper_Space
340
2D2
  0
BLOCK_RECORD
  5
20FE
330
1
100
AcDbSymbolTableRecord
100
AcDbBlockTableRecord
  2
*D0
340
0
  0
BLOCK_RECORD
  5
210A
330
1
100
AcDbSymbolTableRecord
100
AcDbBlockTableRecord
  2
*D1
340
0
  0
BLOCK_RECORD
  5
2116
330
1
100
AcDbSymbolTableRecord
100
AcDbBlockTableRecord
  2
*D2
340
0
  0
BLOCK_RECORD
  5
212E
330
1
100
AcDbSymbolTableRecord
100
AcDbBlockTableRecord
  2
*D3
340
0
  0
BLOCK_RECORD
  5
224C
330
1
100
AcDbSymbolTableRecord
100
AcDbBlockTableRecord
  2
*D4
340
0
  0
ENDTAB
  0
ENDSEC
  0
SECTION
  2
BLOCKS
  0
BLOCK
  5
20
330
1F
100
AcDbEntity
  8
0
100
AcDbBlockBegin
  2
*Model_Space
 70
     0
 10
0.0
 20
0.0
 30
0.0
  3
*Model_Space
  1

  0
ENDBLK
  5
21
330
1F
100
AcDbEntity
  8
0
100
AcDbBlockEnd
  0
BLOCK
  5
2D3
330
2D1
100
AcDbEntity
 67
     1
  8
0
 62
     5
100
AcDbBlockBegin
  2
*Paper_Space
 70
     0
 10
0.0
 20
0.0
 30
0.0
  3
*Paper_Space
  1

  0
ENDBLK
  5
2D4
330
2D1
100
AcDbEntity
 67
     1
  8
0
 62
     5
100
AcDbBlockEnd
  0
BLOCK
  5
2108
330
20FE
100
AcDbEntity
  8
0
100
AcDbBlockBegin
  2
*D0
 70
     1
 10
0.0
 20
0.0
 30
0.0
  3
*D0
  1

  0
LINE
  5
2355
330
20FE
100
AcDbEntity
  8
寸法
 62
     0
370
    -2
100
AcDbLine
 10
337.4822319186911
 20
217.3740166865813
 30
0.0
 11
337.4822319186911
 21
173.2740166865813
 31
0.0
  0
LINE
  5
2356
330
20FE
100
AcDbEntity
  8
寸法
 62
     0
370
    -2
100
AcDbLine
 10
523.482231918691
 20
217.3740166865813
 30
0.0
 11
523.482231918691
 21
173.2740166865813
 31
0.0
  0
LINE
  5
2357
330
20FE
100
AcDbEntity
  8
寸法
 62
     0
370
    -2
100
AcDbLine
 10
344.4822319186911
 20
176.7740166865813
 30
0.0
 11
516.4822319186911
 21
176.7740166865813
 31
0.0
  0
SOLID
  5
2358
330
20FE
100
AcDbEntity
  8
寸法
 62
     0
100
AcDbTrace
 10
344.4822319186911
 20
177.9406833532479
 30
0.0
 11
344.4822319186911
 21
175.6073500199146
 31
0.0
 12
337.4822319186911
 22
176.7740166865813
 32
0.0
 13
337.4822319186911
 23
176.7740166865813
 33
0.0
  0
SOLID
  5
2359
330
20FE
100
AcDbEntity
  8
寸法
 62
     0
100
AcDbTrace
 10
516.4822319186911
 20
177.9406833532479
 30
0.0
 11
516.4822319186911
 21
175.6073500199146
 31
0.0
 12
523.482231918691
 22
176.7740166865813
 32
0.0
 13
523.482231918691
 23
176.7740166865813
 33
0.0
  0
MTEXT
  5
235A
330
20FE
100
AcDbEntity
  8
寸法
 62
     0
100
AcDbMText
 10
430.4822319186911
 20
180.6240166865813
 30
0.0
 40
4.899999999999999
 41
0.0
 71
     5
 72
     1
  1
186
 73
     1
 44
1.0
  0
POINT
  5
235B
330
20FE
100
AcDbEntity
  8
Defpoints
 62
     0
100
AcDbPoint
 10
337.4822319186911
 20
218.7740166865813
 30
0.0
  0
POINT
  5
235C
330
20FE
100
AcDbEntity
  8
Defpoints
 62
     0
100
AcDbPoint
 10
523.482231918691
 20
218.7740166865813
 30
0.0
  0
POINT
  5
235D
330
20FE
100
AcDbEntity
  8
Defpoints
 62
     0
100
AcDbPoint
 10
523.482231918691
 20
176.7740166865813
 30
0.0
  0
ENDBLK
  5
2109
330
20FE
100
AcDbEntity
  8
0
100
AcDbBlockEnd
  0
BLOCK
  5
2114
330
210A
100
AcDbEntity
  8
0
100
AcDbBlockBegin
  2
*D1
 70
     1
 10
0.0
 20
0.0
 30
0.0
  3
*D1
  1

  0
LINE
  5
23A0
330
210A
100
AcDbEntity
  8
寸法
 62
     0
370
    -2
100
AcDbLine
 10
344.9822319186911
 20
227.1240166865813
 30
0.0
 11
344.9822319186911
 21
194.2740166865813
 31
0.0
  0
LINE
  5
23A1
330
210A
100
AcDbEntity
  8
寸法
 62
     0
370
    -2
100
AcDbLine
 10
515.9822319186909
 20
227.1240166865813
 30
0.0
 11
515.9822319186909
 21
194.2740166865813
 31
0.0
  0
LINE
  5
23A2
330
210A
100
AcDbEntity
  8
寸法
 62
     0
370
    -2
100
AcDbLine
 10
351.9822319186911
 20
197.7740166865813
 30
0.0
 11
508.982231918691
 21
197.7740166865813
 31
0.0
  0
SOLID
  5
23A3
330
210A
100
AcDbEntity
  8
寸法
 62
     0
100
AcDbTrace
 10
351.9822319186911
 20
198.9406833532479
 30
0.0
 11
351.9822319186911
 21
196.6073500199146
 31
0.0
 12
344.9822319186911
 22
197.7740166865813
 32
0.0
 13
344.9822319186911
 23
197.7740166865813
 33
0.0
  0
SOLID
  5
23A4
330
210A
100
AcDbEntity
  8
寸法
 62
     0
100
AcDbTrace
 10
508.982231918691
 20
198.9406833532479
 30
0.0
 11
508.982231918691
 21
196.6073500199146
 31
0.0
 12
515.9822319186909
 22
197.7740166865813
 32
0.0
 13
515.9822319186909
 23
197.7740166865813
 33
0.0
  0
MTEXT
  5
23A5
330
210A
100
AcDbEntity
  8
寸法
 62
     0
100
AcDbMText
 10
430.482231918691
 20
201.6240166865812
 30
0.0
 40
4.899999999999999
 41
0.0
 71
     5
 72
     1
  1
171
 73
     1
 44
1.0
  0
POINT
  5
23A6
330
210A
100
AcDbEntity
  8
Defpoints
 62
     0
100
AcDbPoint
 10
344.9822319186911
 20
228.5240166865813
 30
0.0
  0
POINT
  5
23A7
330
210A
100
AcDbEntity
  8
Defpoints
 62
     0
100
AcDbPoint
 10
515.9822319186909
 20
228.5240166865813
 30
0.0
  0
POINT
  5
23A8
330
210A
100
AcDbEntity
  8
Defpoints
 62
     0
100
AcDbPoint
 10
515.9822319186909
 20
197.7740166865813
 30
0.0
  0
ENDBLK
  5
2115
330
210A
100
AcDbEntity
  8
0
100
AcDbBlockEnd
  0
BLOCK
  5
2120
330
2116
100
AcDbEntity
  8
0
100
AcDbBlockBegin
  2
*D2
 70
     1
 10
0.0
 20
0.0
 30
0.0
  3
*D2
  1

  0
LINE
  5
235E
330
2116
100
AcDbEntity
  8
寸法
 62
     0
370
    -2
100
AcDbLine
 10
524.8822319186911
 20
218.7740166865813
 30
0.0
 11
568.9224830715334
 21
218.7740166865813
 31
0.0
  0
LINE
  5
235F
330
2116
100
AcDbEntity
  8
寸法
 62
     0
370
    -2
100
AcDbLine
 10
524.8822319186911
 20
374.7740166865813
 30
0.0
 11
568.9224830715335
 21
374.7740166865813
 31
0.0
  0
LINE
  5
2360
330
2116
100
AcDbEntity
  8
寸法
 62
     0
370
    -2
100
AcDbLine
 10
565.4224830715333
 20
225.7740166865813
 30
0.0
 11
565.4224830715334
 21
367.7740166865813
 31
0.0
  0
SOLID
  5
2361
330
2116
100
AcDbEntity
  8
寸法
 62
     0
100
AcDbTrace
 10
564.2558164048668
 20
225.7740166865813
 30
0.0
 11
566.5891497382
 21
225.7740166865813
 31
0.0
 12
565.4224830715333
 22
218.7740166865813
 32
0.0
 13
565.4224830715333
 23
218.7740166865813
 33
0.0
  0
SOLID
  5
2362
330
2116
100
AcDbEntity
  8
寸法
 62
     0
100
AcDbTrace
 10
564.2558164048669
 20
367.7740166865813
 30
0.0
 11
566.5891497382001
 21
367.7740166865813
 31
0.0
 12
565.4224830715334
 22
374.7740166865813
 32
0.0
 13
565.4224830715334
 23
374.7740166865813
 33
0.0
  0
MTEXT
  5
2363
330
2116
100
AcDbEntity
  8
寸法
 62
     0
100
AcDbMText
 10
561.5724830715334
 20
296.7740166865813
 30
0.0
 40
4.899999999999999
 41
0.0
 71
     5
 72
     1
  1
156
 11
0.0000000000000001
 21
1.0
 31
0.0
 73
     1
 44
1.0
  0
POINT
  5
2364
330
2116
100
AcDbEntity
  8
Defpoints
 62
     0
100
AcDbPoint
 10
523.482231918691
 20
218.7740166865813
 30
0.0
  0
POINT
  5
2365
330
2116
100
AcDbEntity
  8
Defpoints
 62
     0
100
AcDbPoint
 10
523.482231918691
 20
374.7740166865813
 30
0.0
  0
POINT
  5
2366
330
2116
100
AcDbEntity
  8
Defpoints
 62
     0
100
AcDbPoint
 10
565.4224830715334
 20
374.7740166865813
 30
0.0
  0
ENDBLK
  5
2121
330
2116
100
AcDbEntity
  8
0
100
AcDbBlockEnd
  0
BLOCK
  5
2138
330
212E
100
AcDbEntity
  8
0
100
AcDbBlockBegin
  2
*D3
 70
     1
 10
0.0
 20
0.0
 30
0.0
  3
*D3
  1

  0
LINE
  5
2466
330
212E
100
AcDbEntity
  8
寸法
 62
     0
370
    -2
100
AcDbLine
 10
771.8996771708453
 20
233.7740166865814
 30
0.0
 11
784.2879847097938
 21
233.7740166865814
 31
0.0
  0
LINE
  5
2467
330
212E
100
AcDbEntity
  8
寸法
 62
     0
370
    -2
100
AcDbLine
 10
738.4098418340947
 20
359.7692599766056
 30
0.0
 11
784.2879847097939
 21
359.7692599766056
 31
0.0
  0
LINE
  5
2468
330
212E
100
AcDbEntity
  8
寸法
 62
     0
370
    -2
100
AcDbLine
 10
780.7879847097938
 20
240.7740166865814
 30
0.0
 11
780.7879847097939
 21
352.7692599766055
 31
0.0
  0
SOLID
  5
2469
330
212E
100
AcDbEntity
  8
寸法
 62
     0
100
AcDbTrace
 10
779.6213180431272
 20
240.7740166865814
 30
0.0
 11
781.9546513764604
 21
240.7740166865814
 31
0.0
 12
780.7879847097938
 22
233.7740166865814
 32
0.0
 13
780.7879847097938
 23
233.7740166865814
 33
0.0
  0
SOLID
  5
246A
330
212E
100
AcDbEntity
  8
寸法
 62
     0
100
AcDbTrace
 10
779.6213180431273
 20
352.7692599766055
 30
0.0
 11
781.9546513764605
 21
352.7692599766055
 31
0.0
 12
780.7879847097939
 22
359.7692599766056
 32
0.0
 13
780.7879847097939
 23
359.7692599766056
 33
0.0
  0
MTEXT
  5
246B
330
212E
100
AcDbEntity
  8
寸法
 62
     0
100
AcDbMText
 10
776.9379847097938
 20
296.7716383315936
 30
0.0
 40
4.899999999999999
 41
0.0
 71
     5
 72
     1
  1
126
 11
0.0000000000000001
 21
1.0
 31
0.0
 73
     1
 44
1.0
  0
POINT
  5
246C
330
212E
100
AcDbEntity
  8
Defpoints
 62
     0
100
AcDbPoint
 10
770.4996771708453
 20
233.7740166865814
 30
0.0
  0
POINT
  5
246D
330
212E
100
AcDbEntity
  8
Defpoints
 62
     0
100
AcDbPoint
 10
737.0098418340948
 20
359.7692599766056
 30
0.0
  0
POINT
  5
246E
330
212E
100
AcDbEntity
  8
Defpoints
 62
     0
100
AcDbPoint
 10
780.7879847097939
 20
359.7692599766056
 30
0.0
  0
ENDBLK
  5
2139
330
212E
100
AcDbEntity
  8
0
100
AcDbBlockEnd
  0
BLOCK
  5
2256
330
224C
100
AcDbEntity
  8
0
 62
     5
100
AcDbBlockBegin
  2
*D4
 70
     1
 10
0.0
 20
0.0
 30
0.0
  3
*D4
  1

  0
LINE
  5
2367
330
224C
100
AcDbEntity
  8
寸法
 62
     0
370
    -2
100
AcDbLine
 10
522.6639960162731
 20
359.7740166865812
 30
0.0
 11
547.9224830715334
 21
359.7740166865812
 31
0.0
  0
LINE
  5
2368
330
224C
100
AcDbEntity
  8
寸法
 62
     0
370
    -2
100
AcDbLine
 10
522.6639960162732
 20
233.7740166865813
 30
0.0
 11
547.9224830715333
 21
233.7740166865813
 31
0.0
  0
LINE
  5
2369
330
224C
100
AcDbEntity
  8
寸法
 62
     0
370
    -2
100
AcDbLine
 10
544.4224830715334
 20
352.7740166865812
 30
0.0
 11
544.4224830715333
 21
240.7740166865813
 31
0.0
  0
SOLID
  5
236A
330
224C
100
AcDbEntity
  8
寸法
 62
     0
100
AcDbTrace
 10
543.2558164048668
 20
352.7740166865812
 30
0.0
 11
545.5891497382
 21
352.7740166865812
 31
0.0
 12
544.4224830715334
 22
359.7740166865812
 32
0.0
 13
544.4224830715334
 23
359.7740166865812
 33
0.0
  0
SOLID
  5
236B
330
224C
100
AcDbEntity
  8
寸法
 62
     0
100
AcDbTrace
 10
543.2558164048666
 20
240.7740166865813
 30
0.0
 11
545.5891497381998
 21
240.7740166865813
 31
0.0
 12
544.4224830715333
 22
233.7740166865813
 32
0.0
 13
544.4224830715333
 23
233.7740166865813
 33
0.0
  0
MTEXT
  5
236C
330
224C
100
AcDbEntity
  8
寸法
 62
     0
100
AcDbMText
 10
540.5724830715333
 20
296.7740166865813
 30
0.0
 40
4.899999999999999
 41
0.0
 71
     5
 72
     1
  1
126
 11
0.0000000000000001
 21
1.0
 31
0.0
 73
     1
 44
1.0
  0
POINT
  5
236D
330
224C
100
AcDbEntity
  8
Defpoints
 62
     0
100
AcDbPoint
 10
521.2639960162731
 20
359.7740166865812
 30
0.0
  0
POINT
  5
236E
330
224C
100
AcDbEntity
  8
Defpoints
 62
     0
100
AcDbPoint
 10
521.2639960162732
 20
233.7740166865813
 30
0.0
  0
POINT
  5
236F
330
224C
100
AcDbEntity
  8
Defpoints
 62
     0
100
AcDbPoint
 10
544.4224830715333
 20
233.7740166865813
 30
0.0
  0
ENDBLK
  5
2257
330
224C
100
AcDbEntity
  8
0
 62
     5
100
AcDbBlockEnd
  0
ENDSEC
  0
SECTION
  2
ENTITIES
  0
MTEXT
  5
1FDB
330
1F
100
AcDbEntity
  8
外形
100
AcDbMText
 10
387.2246923428562
 20
432.5219739233857
 30
0.0
 40
17.5
 41
150.2842164783383
 71
     5
 72
     5
  1
{\fMS UI Gothic|b0|i0|c128|p17;外形寸法}
 73
     1
 44
1.0
  0
CIRCLE
  5
1FDC
330
1F
100
AcDbEntity
  8
外形
  6
DASHED2
 48
0.25
100
AcDbCircle
 10
416.5981545605136
 20
355.3743318611195
 30
0.0
 40
7.5
  0
LINE
  5
1FDD
330
1F
100
AcDbEntity
  8
外形
  6
DASHED2
 48
0.25
100
AcDbLine
 10
406.5981545605136
 20
346.740168146326
 30
0.0
 11
426.5981545605136
 21
346.7401681463259
 31
0.0
  0
LINE
  5
1FDE
330
1F
100
AcDbEntity
  8
外形
  6
DASHED2
 48
0.25
100
AcDbLine
 10
406.5981545605136
 20
364.0084955759129
 30
0.0
 11
426.5981545605136
 21
364.0084955759129
 31
0.0
  0
LINE
  5
1FDF
330
1F
100
AcDbEntity
  8
外形
  6
DASHED2
 48
0.25
100
AcDbLine
 10
405.0981545605136
 20
345.2401681463259
 30
0.0
 11
455.8663092768688
 21
345.2401681463259
 31
0.0
  0
LINE
  5
1FE0
330
1F
100
AcDbEntity
  8
外形
  6
DASHED2
 48
0.25
100
AcDbLine
 10
405.0981545605136
 20
365.508495575913
 30
0.0
 11
455.8663092768687
 21
365.508495575913
 31
0.0
  0
DIMENSION
  5
1FE1
330
1F
100
AcDbEntity
  8
寸法
 62
     5
100
AcDbDimension
  2
*D0
 10
523.482231918691
 20
176.7740166865813
 30
0.0
 11
430.4822319186911
 21
180.6240166865813
 31
0.0
 70
    32
 71
     5
 42
186.0
  3
ISO-25
100
AcDbAlignedDimension
 13
337.4822319186911
 23
218.7740166865813
 33
0.0
 14
523.482231918691
 24
218.7740166865813
 34
0.0
100
AcDbRotatedDimension
1001
ACAD
1000
DSTYLE
1002
{
1070
   140
1040
0.7
1002
}
  0
DIMENSION
  5
1FE2
330
1F
100
AcDbEntity
  8
寸法
 62
     5
100
AcDbDimension
  2
*D1
 10
515.9822319186909
 20
197.7740166865813
 30
0.0
 11
430.482231918691
 21
201.6240166865812
 31
0.0
 70
    32
 71
     5
 42
170.9999999999998
  3
ISO-25
100
AcDbAlignedDimension
 13
344.9822319186911
 23
228.5240166865813
 33
0.0
 14
515.9822319186909
 24
228.5240166865813
 34
0.0
100
AcDbRotatedDimension
1001
ACAD
1000
DSTYLE
1002
{
1070
   140
1040
0.7
1002
}
  0
LINE
  5
1FE3
330
1F
100
AcDbEntity
  8
外形
100
AcDbLine
 10
377.4822319186911
 20
340.6074075909918
 30
0.0
 11
483.4822319186912
 21
340.6074075909919
 31
0.0
  0
LINE
  5
1FE4
330
1F
100
AcDbEntity
  8
外形
100
AcDbLine
 10
377.4822319186911
 20
370.1412561312471
 30
0.0
 11
483.4822319186912
 21
370.141256131247
 31
0.0
  0
LINE
  5
1FE5
330
1F
100
AcDbEntity
  8
外形
  6
CENTER
 62
     1
 48
0.08
100
AcDbLine
 10
408.7738635696423
 20
241.4657778249031
 30
0.0
 11
414.7738635696423
 21
241.4657778249031
 31
0.0
  0
LINE
  5
1FE6
330
1F
100
AcDbEntity
  8
外形
100
AcDbLine
 10
405.0981545605138
 20
232.4898042489432
 30
0.0
 11
455.8663092768689
 21
232.4898042489431
 31
0.0
  0
LINE
  5
1FE7
330
1F
100
AcDbEntity
  8
外形
100
AcDbLine
 10
405.0981545605136
 20
250.441751400863
 30
0.0
 11
455.8663092768688
 21
250.441751400863
 31
0.0
  0
LINE
  5
1FE8
330
1F
100
AcDbEntity
  8
外形
100
AcDbLine
 10
337.4822319186911
 20
218.7740166865813
 30
0.0
 11
523.482231918691
 21
218.7740166865813
 31
0.0
  0
LINE
  5
1FE9
330
1F
100
AcDbEntity
  8
外形
100
AcDbLine
 10
337.4822319186911
 20
374.7740166865813
 30
0.0
 11
523.482231918691
 21
374.7740166865813
 31
0.0
  0
LINE
  5
1FEA
330
1F
100
AcDbEntity
  8
外形
100
AcDbLine
 10
388.4822319186911
 20
340.6074075909918
 30
0.0
 11
388.4822319186911
 21
218.7740166865813
 31
0.0
  0
LINE
  5
1FEB
330
1F
100
AcDbEntity
  8
外形
100
AcDbLine
 10
387.4822319186912
 20
340.6074075909918
 30
0.0
 11
387.4822319186911
 21
218.7740166865813
 31
0.0
  0
LINE
  5
1FED
330
1F
100
AcDbEntity
  8
外形
100
AcDbLine
 10
371.4822319186911
 20
374.7740166865813
 30
0.0
 11
371.4822319186911
 21
218.7740166865813
 31
0.0
  0
LINE
  5
1FEE
330
1F
100
AcDbEntity
  8
外形
100
AcDbLine
 10
377.4822319186911
 20
374.7740166865813
 30
0.0
 11
377.4822319186911
 21
218.7740166865813
 31
0.0
  0
LINE
  5
1FF0
330
1F
100
AcDbEntity
  8
外形
100
AcDbLine
 10
337.4822319186911
 20
374.7740166865813
 30
0.0
 11
337.4822319186911
 21
218.7740166865813
 31
0.0
  0
LINE
  5
1FF1
330
1F
100
AcDbEntity
  8
外形
100
AcDbLine
 10
414.7738635696422
 20
250.441751400863
 30
0.0
 11
414.7738635696423
 21
232.4898042489432
 31
0.0
  0
LINE
  5
1FF2
330
1F
100
AcDbEntity
  8
外形
100
AcDbLine
 10
405.0981545605136
 20
250.441751400863
 30
0.0
 11
405.0981545605138
 21
232.4898042489432
 31
0.0
  0
LINE
  5
1FF3
330
1F
100
AcDbEntity
  8
外形
  6
CENTER
 62
     1
 48
0.08
100
AcDbLine
 10
393.5727458493504
 20
229.4898042489431
 30
0.0
 11
393.5727458493505
 21
235.4898042489431
 31
0.0
  0
CIRCLE
  5
1FF4
330
1F
100
AcDbEntity
  8
外形
100
AcDbCircle
 10
393.5727458493504
 20
232.4898042489432
 30
0.0
 40
3.0
  0
CIRCLE
  5
1FF5
330
1F
100
AcDbEntity
  8
外形
100
AcDbCircle
 10
344.9822319186912
 20
233.7740166865813
 30
0.0
 40
3.25
  0
ARC
  5
1FF8
330
1F
100
AcDbEntity
  8
外形
100
AcDbCircle
 10
401.4009549591625
 20
219.7453009148131
 30
0.0
 40
3.0
100
AcDbArc
 50
198.8905522342808
 51
341.109447765719
  0
LINE
  5
1FF9
330
1F
100
AcDbEntity
  8
外形
  6
CENTER
 62
     1
 48
0.08
100
AcDbLine
 10
390.5727458493504
 20
232.4898042489432
 30
0.0
 11
396.5727458493504
 21
232.4898042489432
 31
0.0
  0
CIRCLE
  5
1FFA
330
1F
100
AcDbEntity
  8
外形
100
AcDbCircle
 10
411.7738635696423
 20
241.4657778249031
 30
0.0
 40
3.0
  0
LINE
  5
1FFB
330
1F
100
AcDbEntity
  8
外形
  6
CENTER
 62
     1
 48
0.08
100
AcDbLine
 10
411.7738635696424
 20
238.4657778249031
 30
0.0
 11
411.7738635696424
 21
244.4657778249031
 31
0.0
  0
LINE
  5
1FFC
330
1F
100
AcDbEntity
  8
外形
  6
DASHED2
 48
0.5
100
AcDbLine
 10
387.4822319186911
 20
370.1412561312472
 30
0.0
 11
387.4822319186911
 21
340.6074075909918
 31
0.0
  0
LINE
  5
1FFD
330
1F
100
AcDbEntity
  8
外形
  6
DASHED2
 48
0.5
100
AcDbLine
 10
388.4822319186909
 20
370.1412561312471
 30
0.0
 11
388.4822319186913
 21
340.6074075909919
 31
0.0
  0
LINE
  5
1FFE
330
1F
100
AcDbEntity
  8
外形
  6
DASHED2
 48
0.25
100
AcDbLine
 10
406.5981545605136
 20
364.0084955759129
 30
0.0
 11
406.5981545605136
 21
346.740168146326
 31
0.0
  0
LINE
  5
1FFF
330
1F
100
AcDbEntity
  8
外形
  6
DASHED2
 48
0.25
100
AcDbLine
 10
405.0981545605136
 20
365.508495575913
 30
0.0
 11
405.0981545605136
 21
345.2401681463259
 31
0.0
  0
LINE
  5
2000
330
1F
100
AcDbEntity
  8
外形
  6
CENTER
 62
     1
 48
0.08
100
AcDbLine
 10
382.4822319186911
 20
352.0112165148411
 30
0.0
 11
382.4822319186911
 21
358.0112165148412
 31
0.0
  0
CIRCLE
  5
2001
330
1F
100
AcDbEntity
  8
外形
100
AcDbCircle
 10
382.4822319186911
 20
355.0112165148411
 30
0.0
 40
3.0
  0
CIRCLE
  5
2004
330
1F
100
AcDbEntity
  8
外形
100
AcDbCircle
 10
344.9822319186912
 20
359.7740166865812
 30
0.0
 40
3.25
  0
LINE
  5
2005
330
1F
100
AcDbEntity
  8
外形
  6
CENTER
 62
     1
 48
0.08
100
AcDbLine
 10
379.4822319186911
 20
355.0112165148411
 30
0.0
 11
385.4822319186911
 21
355.0112165148411
 31
0.0
  0
ARC
  5
2006
330
1F
100
AcDbEntity
  8
外形
100
AcDbCircle
 10
401.4009549591625
 20
373.8027324583494
 30
0.0
 40
3.0
100
AcDbArc
 50
18.89055223428089
 51
161.109447765719
  0
LINE
  5
2007
330
1F
100
AcDbEntity
  8
外形
100
AcDbLine
 10
388.4822319186911
 20
374.7740166865813
 30
0.0
 11
388.4822319186912
 21
370.1412561312472
 31
0.0
  0
LINE
  5
2008
330
1F
100
AcDbEntity
  8
外形
100
AcDbLine
 10
387.4822319186911
 20
374.7740166865813
 30
0.0
 11
387.4822319186911
 21
370.1412561312472
 31
0.0
  0
MTEXT
  5
2009
330
1F
100
AcDbEntity
  8
外形
100
AcDbMText
 10
803.0707277403333
 20
227.4642429709026
 30
0.0
 40
4.9
 41
0.0
 71
     4
 72
     1
  1
{\fMS UI Gothic|b0|i0|c128|p17;\U+203B締付トルク\P\fMS UI Gothic|b0|i0|c128|p49;　 M3端子     0.8N ・ ｍ （ＭＡＸ）\P　 M8端子     2.0N ・ ｍ （ＭＡＸ）}
 73
     2
 44
1.0
  0
MTEXT
  5
200A
330
1F
100
AcDbEntity
  8
寸法
 62
     5
100
AcDbMText
 10
524.7608948647247
 20
159.0795848901886
 30
0.0
 40
4.9
 41
0.0
 71
     8
 72
     1
  1
{\fMS UI Gothic|b0|i0|c128|p17;2xM3ネジ端子}
 73
     2
 44
1.0
  0
LEADER
  5
200B
330
1F
100
AcDbEntity
  8
寸法
 62
     5
100
AcDbLeader
  3
ISO-25
 76
     3
 10
448.0526711759412
 20
232.4808668787381
 30
0.0
 10
502.6896164140835
 20
158.8256503631698
 30
0.0
 10
546.1485344755713
 20
158.8256503631698
 30
0.0
1001
ACAD
1000
DSTYLE
1002
{
1070
   140
1040
2.0
1002
}
  0
CIRCLE
  5
200C
330
1F
100
AcDbEntity
  8
外形
100
AcDbCircle
 10
662.3925258343111
 20
309.5872531712278
 30
0.0
 40
2.0
  0
CIRCLE
  5
200D
330
1F
100
AcDbEntity
  8
外形
100
AcDbCircle
 10
662.3925258343111
 20
317.0872531712278
 30
0.0
 40
2.0
  0
ELLIPSE
  5
200E
330
1F
100
AcDbEntity
  8
外形
100
AcDbEllipse
 10
663.5604361285025
 20
348.537828178246
 30
0.0
 11
-7.383158619015434
 21
0.0000000000000185
 31
0.0
210
0.0
220
0.0
230
1.0
 40
0.8819231739723376
 41
3.141592653589793
 42
6.283185307179586
  0
LINE
  5
200F
330
1F
100
AcDbEntity
  8
外形
100
AcDbLine
 10
656.320397736391
 20
349.8136864338706
 30
0.0
 11
670.8004745206141
 21
349.8136864338706
 31
0.0
  0
LINE
  5
2010
330
1F
100
AcDbEntity
  8
外形
100
AcDbLine
 10
655.5241878121598
 20
348.537828178246
 30
0.0
 11
671.5280434762706
 21
348.537828178246
 31
0.0
  0
LINE
  5
2011
330
1F
100
AcDbEntity
  8
外形
100
AcDbLine
 10
662.8366800697088
 20
345.0228668224748
 30
0.0
 11
664.2686874165101
 21
345.0228668224748
 31
0.0
  0
LINE
  5
2012
330
1F
100
AcDbEntity
  8
外形
100
AcDbLine
 10
638.7792701437843
 20
332.6618834740421
 30
0.0
 11
716.2245143600213
 21
332.6618834740421
 31
0.0
  0
LINE
  5
2013
330
1F
100
AcDbEntity
  8
外形
100
AcDbLine
 10
637.3838603380862
 20
326.3825393484014
 30
0.0
 11
717.6199241657194
 21
326.3825393484014
 31
0.0
  0
LINE
  5
2014
330
1F
100
AcDbEntity
  8
外形
100
AcDbLine
 10
617.9939426697109
 20
359.7692599766055
 30
0.0
 11
737.0098418340948
 21
359.7692599766056
 31
0.0
  0
LINE
  5
2015
330
1F
100
AcDbEntity
  8
外形
100
AcDbLine
 10
626.9182867953517
 20
356.4884403652095
 30
0.0
 11
728.085497708454
 21
356.4884403652095
 31
0.0
  0
LINE
  5
2016
330
1F
100
AcDbEntity
  8
外形
100
AcDbLine
 10
643.6632044637278
 20
233.7740166865813
 30
0.0
 11
711.3405800400779
 21
233.7740166865813
 31
0.0
  0
CIRCLE
  5
2017
330
1F
100
AcDbEntity
  8
外形
100
AcDbCircle
 10
655.392525834311
 20
309.5872531712278
 30
0.0
 40
2.0
  0
DIMENSION
  5
2018
330
1F
100
AcDbEntity
  8
寸法
 62
     5
100
AcDbDimension
  2
*D2
 10
565.4224830715334
 20
374.7740166865813
 30
0.0
 11
561.5724830715334
 21
296.7740166865813
 31
0.0
 70
    32
 71
     5
 42
156.0
  3
ISO-25
100
AcDbAlignedDimension
 13
523.482231918691
 23
218.7740166865813
 33
0.0
 14
523.482231918691
 24
374.7740166865813
 34
0.0
 50
90.0
100
AcDbRotatedDimension
1001
ACAD
1000
DSTYLE
1002
{
1070
   140
1040
0.7
1002
}
  0
LINE
  5
201A
330
1F
100
AcDbEntity
  8
外形
100
AcDbLine
 10
641.57008975518
 20
309.0355179271384
 30
0.0
 11
641.57008975518
 21
302.4201333117537
 31
0.0
  0
LINE
  5
201B
330
1F
100
AcDbEntity
  8
外形
100
AcDbLine
 10
643.6632044637278
 20
233.7740166865813
 30
0.0
 11
643.6632044637278
 21
326.3825393484014
 31
0.0
  0
LINE
  5
201C
330
1F
100
AcDbEntity
  8
外形
100
AcDbLine
 10
473.4822319186912
 20
340.6074075909919
 30
0.0
 11
473.482231918691
 21
218.7740166865813
 31
0.0
  0
LINE
  5
201D
330
1F
100
AcDbEntity
  8
外形
100
AcDbLine
 10
472.4822319186911
 20
340.6074075909919
 30
0.0
 11
472.4822319186911
 21
218.7740166865813
 31
0.0
  0
LINE
  5
201E
330
1F
100
AcDbEntity
  8
外形
100
AcDbLine
 10
523.482231918691
 20
374.7740166865813
 30
0.0
 11
523.482231918691
 21
218.7740166865813
 31
0.0
  0
LINE
  5
2020
330
1F
100
AcDbEntity
  8
外形
100
AcDbLine
 10
483.4822319186911
 20
374.7740166865813
 30
0.0
 11
483.4822319186911
 21
218.7740166865813
 31
0.0
  0
LINE
  5
2021
330
1F
100
AcDbEntity
  8
外形
100
AcDbLine
 10
489.4822319186911
 20
374.7740166865813
 30
0.0
 11
489.4822319186911
 21
218.7740166865813
 31
0.0
  0
CIRCLE
  5
2023
330
1F
100
AcDbEntity
  8
外形
100
AcDbCircle
 10
467.3917179880318
 20
232.4898042489432
 30
0.0
 40
3.0
  0
LINE
  5
2024
330
1F
100
AcDbEntity
  8
外形
  6
CENTER
 62
     1
 48
0.08
100
AcDbLine
 10
467.3917179880317
 20
229.4898042489431
 30
0.0
 11
467.3917179880318
 21
235.4898042489431
 31
0.0
  0
CIRCLE
  5
2026
330
1F
100
AcDbEntity
  8
外形
100
AcDbCircle
 10
515.9822319186911
 20
233.7740166865813
 30
0.0
 40
3.25
  0
LINE
  5
2027
330
1F
100
AcDbEntity
  8
外形
100
AcDbLine
 10
446.2091424548889
 20
250.4328098081785
 30
0.0
 11
446.1968297201813
 21
232.4808668787381
 31
0.0
  0
LINE
  5
2028
330
1F
100
AcDbEntity
  8
外形
100
AcDbLine
 10
444.7124068330305
 20
250.4340443774587
 30
0.0
 11
444.700094098323
 21
232.4821014480183
 31
0.0
  0
LINE
  5
2029
330
1F
100
AcDbEntity
  8
外形
100
AcDbLine
 10
455.8663092768688
 20
250.441751400863
 30
0.0
 11
455.8663092768689
 21
232.4898042489431
 31
0.0
  0
LINE
  5
202A
330
1F
100
AcDbEntity
  8
外形
100
AcDbLine
 10
434.3663092768686
 20
250.441751400863
 30
0.0
 11
434.3663092768686
 21
232.4898042489432
 31
0.0
  0
LINE
  5
202B
330
1F
100
AcDbEntity
  8
外形
100
AcDbLine
 10
426.5981545605136
 20
250.441751400863
 30
0.0
 11
426.5981545605136
 21
232.4898042489432
 31
0.0
  0
LINE
  5
202C
330
1F
100
AcDbEntity
  8
外形
100
AcDbLine
 10
416.2705996148788
 20
250.441751400863
 30
0.0
 11
416.2705996148789
 21
232.4898042489432
 31
0.0
  0
ARC
  5
2031
330
1F
100
AcDbEntity
  8
外形
100
AcDbCircle
 10
459.5590787161047
 20
219.7453009148131
 30
0.0
 40
3.0
100
AcDbArc
 50
198.8905522342809
 51
341.1094477657191
  0
LINE
  5
2032
330
1F
100
AcDbEntity
  8
外形
  6
CENTER
 62
     1
 48
0.08
100
AcDbLine
 10
470.3917179880318
 20
232.4898042489432
 30
0.0
 11
464.3917179880317
 21
232.4898042489432
 31
0.0
  0
MTEXT
  5
2033
330
1F
100
AcDbEntity
  8
寸法
 62
     5
100
AcDbMText
 10
557.7096046373307
 20
205.9713158021318
 30
0.0
 40
4.9
 41
0.0
 71
     8
 72
     1
  1
{\fMS UI Gothic|b0|i0|c128|p17;4-φ6.5}
 73
     2
 44
1.0
  0
LEADER
  5
2034
330
1F
100
AcDbEntity
  8
寸法
 62
     5
100
AcDbLeader
  3
ISO-25
 76
     3
 10
515.7602756744114
 20
231.3952731459586
 30
0.0
 10
545.5817604072615
 20
205.717381275113
 30
0.0
 10
570.0500797737898
 20
205.717381275113
 30
0.0
1001
ACAD
1000
DSTYLE
1002
{
1070
   140
1040
2.0
1002
}
  0
LINE
  5
2036
330
1F
100
AcDbEntity
  8
外形
100
AcDbLine
 10
444.7103492175635
 20
247.434045083089
 30
0.0
 11
434.382796701074
 21
247.4411284620198
 31
0.0
  0
LINE
  5
2037
330
1F
100
AcDbEntity
  8
外形
100
AcDbLine
 10
436.3206235945255
 20
238.1779288342996
 30
0.0
 11
442.764233877707
 21
244.6127061922036
 31
0.0
  0
LINE
  5
2038
330
1F
100
AcDbEntity
  8
外形
100
AcDbLine
 10
436.3250400571643
 20
244.6171226548423
 30
0.0
 11
442.7598174150682
 21
238.1735123716608
 31
0.0
  0
CIRCLE
  5
203A
330
1F
100
AcDbEntity
  8
外形
100
AcDbCircle
 10
439.5424742074322
 20
241.4616146022039
 30
0.0
 40
5.0
  0
LINE
  5
203B
330
1F
100
AcDbEntity
  8
外形
100
AcDbLine
 10
424.6539747552493
 20
244.6190783879103
 30
0.0
 11
418.2147794201427
 21
238.1798830528037
 31
0.0
  0
LINE
  5
203C
330
1F
100
AcDbEntity
  8
外形
100
AcDbLine
 10
424.6539747552493
 20
238.1798830528037
 30
0.0
 11
418.2147794201427
 21
244.6190783879103
 31
0.0
  0
CIRCLE
  5
203D
330
1F
100
AcDbEntity
  8
外形
100
AcDbCircle
 10
421.4343770876961
 20
241.4657778249031
 30
0.0
 40
5.0
  0
LINE
  5
203E
330
1F
100
AcDbEntity
  8
外形
100
AcDbLine
 10
416.2705996148788
 20
235.4898042489432
 30
0.0
 11
426.5981545605135
 21
235.4898042489431
 31
0.0
  0
LINE
  5
203F
330
1F
100
AcDbEntity
  8
外形
100
AcDbLine
 10
416.2705996148787
 20
247.441751400863
 30
0.0
 11
426.5981545605136
 21
247.441751400863
 31
0.0
  0
CIRCLE
  5
2040
330
1F
100
AcDbEntity
  8
外形
100
AcDbCircle
 10
449.2029853819047
 20
241.4547807279913
 30
0.0
 40
3.0
  0
LINE
  5
2041
330
1F
100
AcDbEntity
  8
外形
  6
CENTER
 62
     1
 48
0.08
100
AcDbLine
 10
449.2009277664378
 20
238.4547814336217
 30
0.0
 11
449.2050429973716
 21
244.454780022361
 31
0.0
  0
LINE
  5
2042
330
1F
100
AcDbEntity
  8
外形
  6
CENTER
 62
     1
 48
0.08
100
AcDbLine
 10
452.2029846762745
 20
241.4527231125244
 30
0.0
 11
446.2029860875351
 21
241.4568383434583
 31
0.0
  0
CIRCLE
  5
2043
330
1F
100
AcDbEntity
  8
外形
100
AcDbCircle
 10
648.4228303734316
 20
248.4950475389674
 30
0.0
 40
3.0
  0
LINE
  5
2044
330
1F
100
AcDbEntity
  8
外形
  6
CENTER
 62
     1
 48
0.08
100
AcDbLine
 10
648.4228303734318
 20
245.4950475389674
 30
0.0
 11
648.4228303734318
 21
251.4950475389674
 31
0.0
  0
LINE
  5
2045
330
1F
100
AcDbEntity
  8
外形
100
AcDbLine
 10
641.5700897551801
 20
256.5355179271383
 30
0.0
 11
641.5700897551801
 21
250.4201333117537
 31
0.0
  0
LINE
  5
2046
330
1F
100
AcDbEntity
  8
外形
100
AcDbLine
 10
601.8470577752058
 20
233.7740166865813
 30
0.0
 11
584.5041073329603
 21
233.7740166865813
 31
0.0
  0
LINE
  5
2047
330
1F
100
AcDbEntity
  8
外形
100
AcDbLine
 10
641.5700897551801
 20
241.2510657150709
 30
0.0
 11
584.5041073329603
 21
241.2510657150709
 31
0.0
  0
LINE
  5
2048
330
1F
100
AcDbEntity
  8
外形
100
AcDbLine
 10
584.5041073329603
 20
241.2510657150709
 30
0.0
 11
584.5041073329603
 21
233.7740166865813
 31
0.0
  0
LINE
  5
2049
330
1F
100
AcDbEntity
  8
外形
100
AcDbLine
 10
643.6632044637278
 20
236.591164784877
 30
0.0
 11
603.05440696019
 21
236.591164784877
 31
0.0
  0
LINE
  5
204A
330
1F
100
AcDbEntity
  8
外形
100
AcDbLine
 10
641.5700897551801
 20
250.4201333117537
 30
0.0
 11
601.739838919304
 21
249.7368444554927
 31
0.0
  0
LINE
  5
204B
330
1F
100
AcDbEntity
  8
外形
100
AcDbLine
 10
641.5700897551801
 20
246.5355179271383
 30
0.0
 11
601.7398389193037
 21
247.2188067833992
 31
0.0
  0
LINE
  5
204C
330
1F
100
AcDbEntity
  8
外形
100
AcDbLine
 10
601.8470577752061
 20
233.7740166865814
 30
0.0
 11
603.05440696019
 21
236.591164784877
 31
0.0
  0
LINE
  5
204D
330
1F
100
AcDbEntity
  8
外形
100
AcDbLine
 10
601.2490250013357
 20
249.2369288467177
 30
0.0
 11
601.2490250013354
 21
247.7187223921742
 31
0.0
  0
LINE
  5
204E
330
1F
100
AcDbEntity
  8
外形
  6
CENTER
 62
     1
 48
0.08
100
AcDbLine
 10
645.4228303734317
 20
248.4950475389674
 30
0.0
 11
651.4228303734316
 21
248.4950475389674
 31
0.0
  0
LINE
  5
204F
330
1F
100
AcDbEntity
  8
外形
100
AcDbLine
 10
641.5700897551803
 20
246.5355179271384
 30
0.0
 11
641.5700897551801
 21
241.2510657150709
 31
0.0
  0
LINE
  5
2050
330
1F
100
AcDbEntity
  8
外形
100
AcDbLine
 10
601.2490250013357
 20
280.2369288467177
 30
0.0
 11
601.2490250013354
 21
278.7187223921742
 31
0.0
  0
LINE
  5
2051
330
1F
100
AcDbEntity
  8
外形
100
AcDbLine
 10
641.5700897551801
 20
270.9201333117537
 30
0.0
 11
601.739838919304
 21
270.2368444554927
 31
0.0
  0
LINE
  5
2052
330
1F
100
AcDbEntity
  8
外形
100
AcDbLine
 10
641.5700897551801
 20
267.0355179271384
 30
0.0
 11
601.7398389193039
 21
267.7188067833991
 31
0.0
  0
LINE
  5
2053
330
1F
100
AcDbEntity
  8
外形
100
AcDbLine
 10
641.5700897551801
 20
256.5355179271383
 30
0.0
 11
601.7398389193039
 21
257.2188067833992
 31
0.0
  0
LINE
  5
2054
330
1F
100
AcDbEntity
  8
外形
100
AcDbLine
 10
641.5700897551801
 20
260.4201333117537
 30
0.0
 11
601.739838919304
 21
259.7368444554926
 31
0.0
  0
LINE
  5
2055
330
1F
100
AcDbEntity
  8
外形
100
AcDbLine
 10
641.5700897551801
 20
277.5355179271384
 30
0.0
 11
601.7398389193037
 21
278.2188067833991
 31
0.0
  0
LINE
  5
2056
330
1F
100
AcDbEntity
  8
外形
100
AcDbLine
 10
601.2490250013357
 20
259.2369288467177
 30
0.0
 11
601.2490250013355
 21
257.7187223921743
 31
0.0
  0
LINE
  5
2057
330
1F
100
AcDbEntity
  8
外形
100
AcDbLine
 10
601.2490250013357
 20
269.7369288467177
 30
0.0
 11
601.2490250013355
 21
268.2187223921743
 31
0.0
  0
LINE
  5
2058
330
1F
100
AcDbEntity
  8
外形
100
AcDbLine
 10
641.5700897551801
 20
267.0355179271384
 30
0.0
 11
641.5700897551801
 21
260.4201333117537
 31
0.0
  0
LINE
  5
2059
330
1F
100
AcDbEntity
  8
外形
100
AcDbLine
 10
641.57008975518
 20
277.5355179271383
 30
0.0
 11
641.5700897551801
 21
270.9201333117537
 31
0.0
  0
LINE
  5
205A
330
1F
100
AcDbEntity
  8
外形
100
AcDbLine
 10
641.5700897551801
 20
281.4201333117537
 30
0.0
 11
601.739838919304
 21
280.7368444554926
 31
0.0
  0
LINE
  5
205B
330
1F
100
AcDbEntity
  8
外形
100
AcDbLine
 10
641.5700897551801
 20
291.9201333117537
 30
0.0
 11
601.7398389193041
 21
291.2368444554927
 31
0.0
  0
LINE
  5
205C
330
1F
100
AcDbEntity
  8
外形
100
AcDbLine
 10
641.5700897551801
 20
288.0355179271384
 30
0.0
 11
601.7398389193037
 21
288.7188067833992
 31
0.0
  0
LINE
  5
205D
330
1F
100
AcDbEntity
  8
外形
100
AcDbLine
 10
641.5700897551801
 20
298.5355179271384
 30
0.0
 11
601.739838919304
 21
299.2188067833992
 31
0.0
  0
LINE
  5
205E
330
1F
100
AcDbEntity
  8
外形
100
AcDbLine
 10
641.5700897551801
 20
302.4201333117537
 30
0.0
 11
601.7398389193041
 21
301.7368444554926
 31
0.0
  0
LINE
  5
205F
330
1F
100
AcDbEntity
  8
外形
100
AcDbLine
 10
601.2490250013358
 20
290.7369288467177
 30
0.0
 11
601.2490250013354
 21
289.2187223921743
 31
0.0
  0
LINE
  5
2060
330
1F
100
AcDbEntity
  8
外形
100
AcDbLine
 10
601.2490250013358
 20
301.2369288467177
 30
0.0
 11
601.2490250013357
 21
299.7187223921743
 31
0.0
  0
ARC
  5
2061
330
1F
100
AcDbEntity
  8
外形
100
AcDbCircle
 10
655.5391402464068
 20
294.7126633381
 30
0.0
 40
2.192401695296626
100
AcDbArc
 50
54.67748220363293
 51
224.6081555418474
  0
LINE
  5
2062
330
1F
100
AcDbEntity
  8
外形
100
AcDbLine
 10
641.57008975518
 20
298.5355179271383
 30
0.0
 11
641.57008975518
 21
291.9201333117537
 31
0.0
  0
LINE
  5
2063
330
1F
100
AcDbEntity
  8
外形
100
AcDbLine
 10
641.5700897551799
 20
288.0355179271383
 30
0.0
 11
641.5700897551799
 21
281.4201333117537
 31
0.0
  0
CIRCLE
  5
2064
330
1F
100
AcDbEntity
  8
外形
100
AcDbCircle
 10
655.392525834311
 20
302.0872531712278
 30
0.0
 40
2.0
  0
ARC
  5
2065
330
1F
100
AcDbEntity
  8
外形
100
AcDbCircle
 10
662.3925258343111
 20
302.0872531712278
 30
0.0
 40
2.0
100
AcDbArc
 50
45.0
 51
225.0
  0
LEADER
  5
2066
330
1F
100
AcDbEntity
  8
寸法
 62
     5
100
AcDbLeader
  3
ISO-25
 76
     3
 10
445.6948977342062
 20
355.1760049417238
 30
0.0
 10
501.3523852028899
 20
394.5025059311816
 30
0.0
 10
547.3792233675631
 20
394.5025059311816
 30
0.0
1001
ACAD
1000
DSTYLE
1002
{
1070
   140
1040
2.0
1002
}
  0
LINE
  5
2067
330
1F
100
AcDbEntity
  8
外形
  6
DASHED2
 48
0.5
100
AcDbLine
 10
473.4822319186912
 20
370.1412561312471
 30
0.0
 11
473.482231918691
 21
340.6074075909919
 31
0.0
  0
LINE
  5
2068
330
1F
100
AcDbEntity
  8
外形
  6
DASHED2
 48
0.5
100
AcDbLine
 10
472.482231918691
 20
370.141256131247
 30
0.0
 11
472.4822319186912
 21
340.6074075909919
 31
0.0
  0
LINE
  5
2069
330
1F
100
AcDbEntity
  8
外形
  6
DASHED2
 48
0.25
100
AcDbLine
 10
454.3663092768687
 20
363.8833266963281
 30
0.0
 11
454.3663092768686
 21
346.6149992667411
 31
0.0
  0
CIRCLE
  5
206B
330
1F
100
AcDbEntity
  8
外形
  6
DASHED2
 48
0.25
100
AcDbCircle
 10
444.3663092768686
 20
355.2491629815347
 30
0.0
 40
7.5
  0
LINE
  5
206D
330
1F
100
AcDbEntity
  8
外形
  6
DASHED2
 48
0.25
100
AcDbLine
 10
455.8663092768687
 20
365.508495575913
 30
0.0
 11
455.8663092768688
 21
345.2401681463259
 31
0.0
  0
LINE
  5
206E
330
1F
100
AcDbEntity
  8
外形
  6
CENTER
 62
     1
 48
0.08
100
AcDbLine
 10
478.4822319186911
 20
352.0112165148411
 30
0.0
 11
478.4822319186911
 21
358.0112165148412
 31
0.0
  0
CIRCLE
  5
206F
330
1F
100
AcDbEntity
  8
外形
100
AcDbCircle
 10
478.4822319186912
 20
355.0112165148411
 30
0.0
 40
3.0
  0
LINE
  5
2070
330
1F
100
AcDbEntity
  8
外形
  6
DASHED2
 48
0.25
100
AcDbLine
 10
434.3663092768686
 20
346.6149992667411
 30
0.0
 11
454.3663092768686
 21
346.6149992667411
 31
0.0
  0
LINE
  5
2071
330
1F
100
AcDbEntity
  8
外形
  6
DASHED2
 48
0.25
100
AcDbLine
 10
434.3663092768688
 20
363.8833266963282
 30
0.0
 11
454.3663092768687
 21
363.8833266963281
 31
0.0
  0
CIRCLE
  5
2072
330
1F
100
AcDbEntity
  8
外形
100
AcDbCircle
 10
411.4806679156211
 20
380.8836736942782
 30
0.0
 40
2.937884547468911
  0
MTEXT
  5
2073
330
1F
100
AcDbEntity
  8
外形
100
AcDbMText
 10
411.4806679156211
 20
380.8836736942782
 30
0.0
 40
4.9
 41
1.0
 71
     5
 72
     5
  1
{\fＭＳ ゴシック|b0|i0|c128|p49;1}
 73
     1
 44
1.0
  0
ARC
  5
2077
330
1F
100
AcDbEntity
  8
外形
100
AcDbCircle
 10
459.5590787161047
 20
373.8027324583494
 30
0.0
 40
3.0
100
AcDbArc
 50
18.8905522342809
 51
161.109447765719
  0
LINE
  5
2078
330
1F
100
AcDbEntity
  8
外形
100
AcDbLine
 10
473.482231918691
 20
374.7740166865813
 30
0.0
 11
473.482231918691
 21
370.141256131247
 31
0.0
  0
LINE
  5
2079
330
1F
100
AcDbEntity
  8
外形
100
AcDbLine
 10
472.4822319186911
 20
374.7740166865813
 30
0.0
 11
472.4822319186912
 21
370.1412561312471
 31
0.0
  0
LINE
  5
207A
330
1F
100
AcDbEntity
  8
外形
  6
CENTER
 62
     1
 48
0.08
100
AcDbLine
 10
515.9822319186911
 20
354.5240166865812
 30
0.0
 11
515.9822319186911
 21
365.0240166865812
 31
0.0
  0
LINE
  5
207B
330
1F
100
AcDbEntity
  8
外形
  6
CENTER
 62
     1
 48
0.08
100
AcDbLine
 10
521.2322319186911
 20
359.7740166865812
 30
0.0
 11
510.7322319186911
 21
359.7740166865812
 31
0.0
  0
CIRCLE
  5
207C
330
1F
100
AcDbEntity
  8
外形
100
AcDbCircle
 10
515.9822319186911
 20
359.7740166865812
 30
0.0
 40
3.25
  0
MTEXT
  5
207D
330
1F
100
AcDbEntity
  8
寸法
 62
     5
100
AcDbMText
 10
525.8071608257515
 20
394.7564404582004
 30
0.0
 40
4.9
 41
0.0
 71
     8
 72
     1
  1
{\fMS UI Gothic|b0|i0|c128|p17;2xM8ネジ端子}
 73
     2
 44
1.0
  0
LINE
  5
207E
330
1F
100
AcDbEntity
  8
外形
100
AcDbLine
 10
631.1045162124454
 20
340.2278256194461
 30
0.0
 11
631.1045162124456
 21
333.2278256194459
 31
0.0
  0
LINE
  5
207F
330
1F
100
AcDbEntity
  8
外形
100
AcDbLine
 10
650.6402534922173
 20
341.5343423082298
 30
0.0
 11
650.6402534922174
 21
332.6618834740422
 31
0.0
  0
LINE
  5
2080
330
1F
100
AcDbEntity
  8
外形
100
AcDbLine
 10
637.3838603380862
 20
326.3825393484014
 30
0.0
 11
634.5232702364058
 21
356.4884403652095
 31
0.0
  0
LINE
  5
2081
330
1F
100
AcDbEntity
  8
外形
100
AcDbLine
 10
641.5700897551801
 20
312.9201333117536
 30
0.0
 11
601.7398389193041
 21
312.2368444554926
 31
0.0
  0
LINE
  5
2082
330
1F
100
AcDbEntity
  8
外形
100
AcDbLine
 10
641.5700897551801
 20
309.0355179271384
 30
0.0
 11
601.7398389193039
 21
309.7188067833992
 31
0.0
  0
LINE
  5
2083
330
1F
100
AcDbEntity
  8
外形
100
AcDbLine
 10
641.5700897551799
 20
319.5355179271383
 30
0.0
 11
601.7398389193037
 21
320.2188067833992
 31
0.0
  0
LINE
  5
2084
330
1F
100
AcDbEntity
  8
外形
100
AcDbLine
 10
631.1045162124456
 20
323.227825619446
 30
0.0
 11
601.739838919304
 21
322.7368444554926
 31
0.0
  0
LINE
  5
2085
330
1F
100
AcDbEntity
  8
外形
100
AcDbLine
 10
631.1045162124456
 20
333.227825619446
 30
0.0
 11
601.7398389193041
 21
332.7368444554927
 31
0.0
  0
LINE
  5
2086
330
1F
100
AcDbEntity
  8
外形
100
AcDbLine
 10
631.1045162124456
 20
329.727825619446
 30
0.0
 11
601.7398389193039
 21
330.2188067833992
 31
0.0
  0
LINE
  5
2087
330
1F
100
AcDbEntity
  8
外形
100
AcDbLine
 10
601.2490250013358
 20
311.7369288467177
 30
0.0
 11
601.2490250013355
 21
310.2187223921743
 31
0.0
  0
LINE
  5
2088
330
1F
100
AcDbEntity
  8
外形
100
AcDbLine
 10
601.2490250013357
 20
322.2369288467176
 30
0.0
 11
601.2490250013354
 21
320.7187223921743
 31
0.0
  0
LINE
  5
2089
330
1F
100
AcDbEntity
  8
外形
100
AcDbLine
 10
601.2490250013358
 20
332.2369288467177
 30
0.0
 11
601.2490250013355
 21
330.7187223921743
 31
0.0
  0
LINE
  5
208A
330
1F
100
AcDbEntity
  8
外形
100
AcDbLine
 10
631.1045162124456
 20
329.727825619446
 30
0.0
 11
631.1045162124456
 21
323.227825619446
 31
0.0
  0
LINE
  5
208B
330
1F
100
AcDbEntity
  8
外形
  6
CENTER
 62
     1
 48
0.08
100
AcDbLine
 10
645.4228303734317
 20
315.7085932178941
 30
0.0
 11
651.4228303734316
 21
315.7085932178941
 31
0.0
  0
CIRCLE
  5
208C
330
1F
100
AcDbEntity
  8
外形
100
AcDbCircle
 10
648.4228303734316
 20
315.7085932178941
 30
0.0
 40
3.0
  0
LINE
  5
208D
330
1F
100
AcDbEntity
  8
外形
100
AcDbLine
 10
641.5700897551799
 20
319.5355179271383
 30
0.0
 11
641.57008975518
 21
312.9201333117536
 31
0.0
  0
CIRCLE
  5
208E
330
1F
100
AcDbEntity
  8
外形
100
AcDbCircle
 10
655.392525834311
 20
317.0872531712278
 30
0.0
 40
2.0
  0
LINE
  5
208F
330
1F
100
AcDbEntity
  8
外形
  6
CENTER
 62
     1
 48
0.08
100
AcDbLine
 10
648.4228303734318
 20
318.7085932178941
 30
0.0
 11
648.4228303734318
 21
312.7085932178942
 31
0.0
  0
ARC
  5
2090
330
1F
100
AcDbEntity
  8
外形
100
AcDbCircle
 10
644.6632305727002
 20
332.6618834740421
 30
0.0
 40
3.31264452882209
100
AcDbArc
 50
0.0
 51
180.0
  0
LINE
  5
2091
330
1F
100
AcDbEntity
  8
外形
100
AcDbLine
 10
638.7792701437843
 20
326.3825393484014
 30
0.0
 11
638.7792701437843
 21
332.6618834740421
 31
0.0
  0
LINE
  5
2092
330
1F
100
AcDbEntity
  8
外形
100
AcDbLine
 10
631.1045162124456
 20
340.227825619446
 30
0.0
 11
601.7398389193037
 21
340.7188067833992
 31
0.0
  0
LINE
  5
2093
330
1F
100
AcDbEntity
  8
外形
100
AcDbLine
 10
631.1045162124456
 20
343.727825619446
 30
0.0
 11
601.7398389193041
 21
343.2368444554926
 31
0.0
  0
LINE
  5
2094
330
1F
100
AcDbEntity
  8
外形
100
AcDbLine
 10
601.7490250013357
 20
350.4068011424175
 30
0.0
 11
631.1045162124456
 21
350.4068011424175
 31
0.0
  0
ARC
  5
2095
330
1F
100
AcDbEntity
  8
外形
100
AcDbCircle
 10
631.6872662668107
 20
359.4876945565165
 30
0.0
 40
3.101309475670404
100
AcDbArc
 50
5.209011059543245
 51
174.7909889404567
  0
LINE
  5
2096
330
1F
100
AcDbEntity
  8
外形
100
AcDbLine
 10
601.2490250013354
 20
356.9719704853682
 30
0.0
 11
601.2490250013357
 21
350.9068011424175
 31
0.0
  0
LINE
  5
2097
330
1F
100
AcDbEntity
  8
外形
100
AcDbLine
 10
601.2490250013358
 20
342.7369288467177
 30
0.0
 11
601.2490250013354
 21
341.2187223921743
 31
0.0
  0
LINE
  5
2098
330
1F
100
AcDbEntity
  8
外形
100
AcDbLine
 10
617.9939426697109
 20
355.7907354623607
 30
0.0
 11
605.4350266426552
 21
355.7907354623607
 31
0.0
  0
ARC
  5
2099
330
1F
100
AcDbEntity
  8
外形
100
AcDbCircle
 10
603.3421397098824
 20
356.9719704853682
 30
0.0
 40
2.093114708546863
100
AcDbArc
 50
0.0
 51
180.0
  0
LINE
  5
209A
330
1F
100
AcDbEntity
  8
外形
100
AcDbLine
 10
605.4350266426551
 20
356.9410921796365
 30
0.0
 11
605.4350266426552
 21
355.7907354623607
 31
0.0
  0
LINE
  5
209B
330
1F
100
AcDbEntity
  8
外形
100
AcDbLine
 10
617.9939426697109
 20
359.7692599766055
 30
0.0
 11
617.993942669711
 21
355.7907354623608
 31
0.0
  0
LINE
  5
209C
330
1F
100
AcDbEntity
  8
外形
100
AcDbLine
 10
626.9182867953517
 20
356.4884403652095
 30
0.0
 11
626.9182867953517
 21
359.7692599766055
 31
0.0
  0
LINE
  5
209D
330
1F
100
AcDbEntity
  8
外形
100
AcDbLine
 10
655.5241878121598
 20
356.4884403652095
 30
0.0
 11
655.5241878121599
 21
348.537828178246
 31
0.0
  0
LINE
  5
209E
330
1F
100
AcDbEntity
  8
外形
100
AcDbLine
 10
652.0356632979153
 20
341.5343423082298
 30
0.0
 11
652.0356632979154
 21
356.4884403652095
 31
0.0
  0
LINE
  5
209F
330
1F
100
AcDbEntity
  8
外形
100
AcDbLine
 10
631.1045162124456
 20
350.4068011424175
 30
0.0
 11
631.1045162124456
 21
343.727825619446
 31
0.0
  0
LINE
  5
20A0
330
1F
100
AcDbEntity
  8
外形
100
AcDbLine
 10
662.8366800697088
 20
345.0228668224748
 30
0.0
 11
662.5012368406499
 21
341.5343423082298
 31
0.0
  0
ARC
  5
20A1
330
1F
100
AcDbEntity
  8
外形
100
AcDbCircle
 10
657.0371908997668
 20
341.2527768881407
 30
0.0
 40
3.101309475670404
100
AcDbArc
 50
5.209011059543245
 51
174.7909889404567
  0
LINE
  5
20A2
330
1F
100
AcDbEntity
  8
外形
100
AcDbLine
 10
650.6402534922173
 20
341.5343423082298
 30
0.0
 11
662.5012368406501
 21
341.5343423082298
 31
0.0
  0
ARC
  5
20A3
330
1F
100
AcDbEntity
  8
外形
100
AcDbCircle
 10
669.392525834311
 20
309.5872531712278
 30
0.0
 40
2.0
100
AcDbArc
 50
45.0
 51
225.0
  0
DIMENSION
  5
20A4
330
1F
100
AcDbEntity
  8
寸法
 62
     5
100
AcDbDimension
  2
*D3
 10
780.7879847097939
 20
359.7692599766056
 30
0.0
 11
776.9379847097938
 21
296.7716383315936
 31
0.0
 70
    32
 71
     5
 42
125.9952432900242
  3
ISO-25
100
AcDbAlignedDimension
 13
770.4996771708453
 23
233.7740166865814
 33
0.0
 14
737.0098418340948
 24
359.7692599766056
 34
0.0
 50
90.0
100
AcDbRotatedDimension
1001
ACAD
1000
DSTYLE
1002
{
1070
   140
1040
0.7
1002
}
  0
LINE
  5
20A5
330
1F
100
AcDbEntity
  8
外形
100
AcDbLine
 10
711.3405800400779
 20
233.7740166865813
 30
0.0
 11
711.340580040078
 21
326.3825393484014
 31
0.0
  0
LINE
  5
20A6
330
1F
100
AcDbEntity
  8
外形
100
AcDbLine
 10
713.4336947486257
 20
309.0355179271384
 30
0.0
 11
713.4336947486257
 21
302.4201333117537
 31
0.0
  0
LINE
  5
20A7
330
1F
100
AcDbEntity
  8
外形
100
AcDbLine
 10
713.4336947486255
 20
256.5355179271383
 30
0.0
 11
713.4336947486255
 21
250.4201333117537
 31
0.0
  0
CIRCLE
  5
20A8
330
1F
100
AcDbEntity
  8
外形
100
AcDbCircle
 10
706.580954130374
 20
248.4950475389674
 30
0.0
 40
3.0
  0
LINE
  5
20A9
330
1F
100
AcDbEntity
  8
外形
  6
CENTER
 62
     1
 48
0.08
100
AcDbLine
 10
706.5809541303739
 20
245.4950475389674
 30
0.0
 11
706.5809541303739
 21
251.4950475389674
 31
0.0
  0
LINE
  5
20AA
330
1F
100
AcDbEntity
  8
外形
100
AcDbLine
 10
713.4336947486255
 20
241.2510657150709
 30
0.0
 11
770.4996771708453
 21
241.2510657150709
 31
0.0
  0
LINE
  5
20AB
330
1F
100
AcDbEntity
  8
外形
100
AcDbLine
 10
713.4336947486255
 20
246.5355179271383
 30
0.0
 11
753.2639455845017
 21
247.2188067833991
 31
0.0
  0
LINE
  5
20AC
330
1F
100
AcDbEntity
  8
外形
100
AcDbLine
 10
713.4336947486255
 20
250.4201333117537
 30
0.0
 11
753.2639455845017
 21
249.7368444554926
 31
0.0
  0
LINE
  5
20AD
330
1F
100
AcDbEntity
  8
外形
100
AcDbLine
 10
711.3405800400779
 20
236.591164784877
 30
0.0
 11
751.9493775436156
 21
236.591164784877
 31
0.0
  0
LINE
  5
20AE
330
1F
100
AcDbEntity
  8
外形
100
AcDbLine
 10
713.4336947486254
 20
246.5355179271384
 30
0.0
 11
713.4336947486255
 21
241.2510657150709
 31
0.0
  0
LINE
  5
20AF
330
1F
100
AcDbEntity
  8
外形
  6
CENTER
 62
     1
 48
0.08
100
AcDbLine
 10
709.580954130374
 20
248.4950475389674
 30
0.0
 11
703.580954130374
 21
248.4950475389674
 31
0.0
  0
LINE
  5
20B0
330
1F
100
AcDbEntity
  8
外形
100
AcDbLine
 10
753.1567267285999
 20
233.7740166865814
 30
0.0
 11
770.4996771708453
 21
233.7740166865814
 31
0.0
  0
LINE
  5
20B1
330
1F
100
AcDbEntity
  8
外形
100
AcDbLine
 10
753.1567267285999
 20
233.7740166865814
 30
0.0
 11
751.9493775436156
 21
236.591164784877
 31
0.0
  0
LINE
  5
20B2
330
1F
100
AcDbEntity
  8
外形
100
AcDbLine
 10
753.75475950247
 20
249.2369288467177
 30
0.0
 11
753.75475950247
 21
247.7187223921742
 31
0.0
  0
LINE
  5
20B3
330
1F
100
AcDbEntity
  8
外形
100
AcDbLine
 10
770.4996771708453
 20
241.2510657150709
 30
0.0
 11
770.4996771708453
 21
233.7740166865814
 31
0.0
  0
LINE
  5
20B4
330
1F
100
AcDbEntity
  8
外形
100
AcDbLine
 10
713.4336947486255
 20
256.5355179271383
 30
0.0
 11
753.2639455845019
 21
257.2188067833992
 31
0.0
  0
LINE
  5
20B5
330
1F
100
AcDbEntity
  8
外形
100
AcDbLine
 10
713.4336947486255
 20
260.4201333117537
 30
0.0
 11
753.2639455845017
 21
259.7368444554926
 31
0.0
  0
LINE
  5
20B6
330
1F
100
AcDbEntity
  8
外形
100
AcDbLine
 10
713.4336947486255
 20
277.5355179271384
 30
0.0
 11
753.2639455845018
 21
278.2188067833993
 31
0.0
  0
LINE
  5
20B7
330
1F
100
AcDbEntity
  8
外形
100
AcDbLine
 10
713.4336947486255
 20
281.4201333117537
 30
0.0
 11
753.2639455845015
 21
280.7368444554926
 31
0.0
  0
LINE
  5
20B8
330
1F
100
AcDbEntity
  8
外形
100
AcDbLine
 10
713.4336947486255
 20
288.0355179271384
 30
0.0
 11
753.2639455845018
 21
288.7188067833992
 31
0.0
  0
LINE
  5
20B9
330
1F
100
AcDbEntity
  8
外形
100
AcDbLine
 10
713.4336947486255
 20
291.9201333117537
 30
0.0
 11
753.2639455845014
 21
291.2368444554926
 31
0.0
  0
LINE
  5
20BA
330
1F
100
AcDbEntity
  8
外形
100
AcDbLine
 10
713.4336947486255
 20
298.5355179271384
 30
0.0
 11
753.2639455845018
 21
299.2188067833992
 31
0.0
  0
LINE
  5
20BB
330
1F
100
AcDbEntity
  8
外形
100
AcDbLine
 10
713.4336947486255
 20
302.4201333117537
 30
0.0
 11
753.2639455845014
 21
301.7368444554926
 31
0.0
  0
LINE
  5
20BC
330
1F
100
AcDbEntity
  8
外形
100
AcDbLine
 10
713.4336947486255
 20
267.0355179271384
 30
0.0
 11
753.2639455845018
 21
267.7188067833992
 31
0.0
  0
LINE
  5
20BD
330
1F
100
AcDbEntity
  8
外形
100
AcDbLine
 10
713.4336947486255
 20
270.9201333117537
 30
0.0
 11
753.2639455845013
 21
270.2368444554926
 31
0.0
  0
LINE
  5
20BE
330
1F
100
AcDbEntity
  8
外形
100
AcDbLine
 10
713.4336947486255
 20
267.0355179271384
 30
0.0
 11
713.4336947486255
 21
260.4201333117537
 31
0.0
  0
LINE
  5
20BF
330
1F
100
AcDbEntity
  8
外形
100
AcDbLine
 10
713.4336947486257
 20
277.5355179271383
 30
0.0
 11
713.4336947486255
 21
270.9201333117537
 31
0.0
  0
LINE
  5
20C0
330
1F
100
AcDbEntity
  8
外形
100
AcDbLine
 10
713.4336947486257
 20
298.5355179271383
 30
0.0
 11
713.4336947486257
 21
291.9201333117537
 31
0.0
  0
LINE
  5
20C1
330
1F
100
AcDbEntity
  8
外形
100
AcDbLine
 10
713.4336947486258
 20
288.0355179271383
 30
0.0
 11
713.4336947486258
 21
281.4201333117537
 31
0.0
  0
LINE
  5
20C2
330
1F
100
AcDbEntity
  8
外形
100
AcDbLine
 10
753.7547595024699
 20
280.2369288467177
 30
0.0
 11
753.7547595024701
 21
278.7187223921744
 31
0.0
  0
LINE
  5
20C3
330
1F
100
AcDbEntity
  8
外形
100
AcDbLine
 10
753.75475950247
 20
259.2369288467177
 30
0.0
 11
753.7547595024703
 21
257.7187223921743
 31
0.0
  0
LINE
  5
20C4
330
1F
100
AcDbEntity
  8
外形
100
AcDbLine
 10
753.7547595024697
 20
269.7369288467177
 30
0.0
 11
753.7547595024701
 21
268.2187223921743
 31
0.0
  0
LINE
  5
20C5
330
1F
100
AcDbEntity
  8
外形
100
AcDbLine
 10
753.7547595024697
 20
290.7369288467177
 30
0.0
 11
753.7547595024701
 21
289.2187223921743
 31
0.0
  0
LINE
  5
20C6
330
1F
100
AcDbEntity
  8
外形
100
AcDbLine
 10
753.7547595024697
 20
301.2369288467177
 30
0.0
 11
753.7547595024701
 21
299.7187223921743
 31
0.0
  0
LINE
  5
20C7
330
1F
100
AcDbEntity
  8
外形
100
AcDbLine
 10
753.2547595024701
 20
350.4068011424174
 30
0.0
 11
723.8992682913601
 21
350.4068011424175
 31
0.0
  0
LINE
  5
20C8
330
1F
100
AcDbEntity
  8
外形
100
AcDbLine
 10
723.8992682913601
 20
333.227825619446
 30
0.0
 11
753.2639455845017
 21
332.7368444554927
 31
0.0
  0
LINE
  5
20C9
330
1F
100
AcDbEntity
  8
外形
100
AcDbLine
 10
723.8992682913601
 20
329.727825619446
 30
0.0
 11
753.2639455845019
 21
330.2188067833991
 31
0.0
  0
LINE
  5
20CA
330
1F
100
AcDbEntity
  8
外形
100
AcDbLine
 10
723.8992682913601
 20
340.227825619446
 30
0.0
 11
753.2639455845018
 21
340.7188067833992
 31
0.0
  0
LINE
  5
20CB
330
1F
100
AcDbEntity
  8
外形
100
AcDbLine
 10
723.8992682913601
 20
343.727825619446
 30
0.0
 11
753.2639455845014
 21
343.2368444554926
 31
0.0
  0
LINE
  5
20CC
330
1F
100
AcDbEntity
  8
外形
100
AcDbLine
 10
713.4336947486258
 20
319.5355179271383
 30
0.0
 11
753.2639455845018
 21
320.2188067833992
 31
0.0
  0
LINE
  5
20CD
330
1F
100
AcDbEntity
  8
外形
100
AcDbLine
 10
723.8992682913601
 20
323.227825619446
 30
0.0
 11
753.2639455845015
 21
322.7368444554926
 31
0.0
  0
LINE
  5
20CE
330
1F
100
AcDbEntity
  8
外形
100
AcDbLine
 10
713.4336947486255
 20
309.0355179271384
 30
0.0
 11
753.2639455845018
 21
309.7188067833993
 31
0.0
  0
LINE
  5
20CF
330
1F
100
AcDbEntity
  8
外形
100
AcDbLine
 10
713.4336947486255
 20
312.9201333117536
 30
0.0
 11
753.2639455845015
 21
312.2368444554926
 31
0.0
  0
LINE
  5
20D0
330
1F
100
AcDbEntity
  8
外形
100
AcDbLine
 10
704.3635310115884
 20
341.5343423082298
 30
0.0
 11
704.3635310115885
 21
332.6618834740422
 31
0.0
  0
LINE
  5
20D1
330
1F
100
AcDbEntity
  8
外形
100
AcDbLine
 10
723.8992682913602
 20
340.2278256194461
 30
0.0
 11
723.8992682913601
 21
333.2278256194459
 31
0.0
  0
LINE
  5
20D2
330
1F
100
AcDbEntity
  8
外形
100
AcDbLine
 10
717.6199241657194
 20
326.3825393484014
 30
0.0
 11
720.4805142673998
 21
356.4884403652095
 31
0.0
  0
CIRCLE
  5
20D3
330
1F
100
AcDbEntity
  8
外形
100
AcDbCircle
 10
669.392525834311
 20
317.0872531712278
 30
0.0
 40
2.0
  0
ARC
  5
20D4
330
1F
100
AcDbEntity
  8
外形
100
AcDbCircle
 10
676.5391402464068
 20
316.7126633381
 30
0.0
 40
2.192401695296607
100
AcDbArc
 50
54.6774822036362
 51
224.6081555418443
  0
LINE
  5
20D5
330
1F
100
AcDbEntity
  8
外形
100
AcDbLine
 10
723.8992682913601
 20
329.727825619446
 30
0.0
 11
723.8992682913601
 21
323.227825619446
 31
0.0
  0
CIRCLE
  5
20D6
330
1F
100
AcDbEntity
  8
外形
100
AcDbCircle
 10
706.580954130374
 20
315.7085932178941
 30
0.0
 40
3.0
  0
LINE
  5
20D7
330
1F
100
AcDbEntity
  8
外形
  6
CENTER
 62
     1
 48
0.08
100
AcDbLine
 10
706.5809541303739
 20
318.7085932178941
 30
0.0
 11
706.5809541303739
 21
312.7085932178942
 31
0.0
  0
LINE
  5
20D8
330
1F
100
AcDbEntity
  8
外形
100
AcDbLine
 10
713.4336947486258
 20
319.5355179271383
 30
0.0
 11
713.4336947486257
 21
312.9201333117536
 31
0.0
  0
LINE
  5
20D9
330
1F
100
AcDbEntity
  8
外形
  6
CENTER
 62
     1
 48
0.08
100
AcDbLine
 10
709.580954130374
 20
315.7085932178941
 30
0.0
 11
703.580954130374
 21
315.7085932178941
 31
0.0
  0
ARC
  5
20DA
330
1F
100
AcDbEntity
  8
外形
100
AcDbCircle
 10
710.3405539311054
 20
332.6618834740421
 30
0.0
 40
3.31264452882209
100
AcDbArc
 50
0.000000000000007
 51
180.0
  0
LINE
  5
20DB
330
1F
100
AcDbEntity
  8
外形
100
AcDbLine
 10
716.2245143600213
 20
326.3825393484014
 30
0.0
 11
716.2245143600213
 21
332.6618834740421
 31
0.0
  0
LINE
  5
20DC
330
1F
100
AcDbEntity
  8
外形
100
AcDbLine
 10
704.3635310115884
 20
341.5343423082298
 30
0.0
 11
692.5025476631556
 21
341.5343423082298
 31
0.0
  0
ARC
  5
20DD
330
1F
100
AcDbEntity
  8
外形
100
AcDbCircle
 10
697.9665936040388
 20
341.2527768881407
 30
0.0
 40
3.101309475670404
100
AcDbArc
 50
5.209011059543261
 51
174.7909889404567
  0
LINE
  5
20DE
330
1F
100
AcDbEntity
  8
外形
100
AcDbLine
 10
699.4795966916459
 20
348.537828178246
 30
0.0
 11
683.475741027535
 21
348.537828178246
 31
0.0
  0
LINE
  5
20DF
330
1F
100
AcDbEntity
  8
外形
100
AcDbLine
 10
698.6833867674147
 20
349.8136864338706
 30
0.0
 11
684.2033099831915
 21
349.8136864338706
 31
0.0
  0
ELLIPSE
  5
20E0
330
1F
100
AcDbEntity
  8
外形
100
AcDbEllipse
 10
691.4433483753031
 20
348.537828178246
 30
0.0
 11
7.383158619015434
 21
0.0000000000000185
 31
0.0
210
0.0
220
0.0
230
-1.0
 40
0.8819231739723376
 41
3.141592653589793
 42
6.283185307179586
  0
LINE
  5
20E1
330
1F
100
AcDbEntity
  8
外形
100
AcDbLine
 10
679.9438594118742
 20
341.5343423082298
 30
0.0
 11
679.9438594118741
 21
356.4884403652095
 31
0.0
  0
LINE
  5
20E2
330
1F
100
AcDbEntity
  8
外形
100
AcDbLine
 10
683.4757410275349
 20
356.4884403652095
 30
0.0
 11
683.475741027535
 21
348.537828178246
 31
0.0
  0
LINE
  5
20E3
330
1F
100
AcDbEntity
  8
外形
100
AcDbLine
 10
671.5280434762708
 20
356.4884403652095
 30
0.0
 11
671.5280434762706
 21
348.537828178246
 31
0.0
  0
LINE
  5
20E4
330
1F
100
AcDbEntity
  8
外形
100
AcDbLine
 10
675.0599250919314
 20
341.5343423082298
 30
0.0
 11
675.0599250919316
 21
356.4884403652095
 31
0.0
  0
LINE
  5
20E5
330
1F
100
AcDbEntity
  8
外形
100
AcDbLine
 10
690.3996538582368
 20
341.5343423082298
 30
0.0
 11
679.9438594118742
 21
341.5343423082298
 31
0.0
  0
LINE
  5
20E6
330
1F
100
AcDbEntity
  8
外形
100
AcDbLine
 10
678.1995971547516
 20
345.7205717253237
 30
0.0
 11
679.9438594118742
 21
341.5343423082298
 31
0.0
  0
LINE
  5
20E7
330
1F
100
AcDbEntity
  8
外形
100
AcDbLine
 10
676.804187349054
 20
345.7205717253237
 30
0.0
 11
675.0599250919314
 21
341.5343423082298
 31
0.0
  0
LINE
  5
20E8
330
1F
100
AcDbEntity
  8
外形
100
AcDbLine
 10
664.26868741651
 20
345.0228668224748
 30
0.0
 11
664.6041306455689
 21
341.5343423082298
 31
0.0
  0
ARC
  5
20E9
330
1F
100
AcDbEntity
  8
外形
100
AcDbCircle
 10
670.068176586452
 20
341.2527768881407
 30
0.0
 40
3.101309475670404
100
AcDbArc
 50
5.209011059543261
 51
174.7909889404567
  0
LINE
  5
20EA
330
1F
100
AcDbEntity
  8
外形
100
AcDbLine
 10
664.6041306455689
 20
341.5343423082298
 30
0.0
 11
675.0599250919314
 21
341.5343423082298
 31
0.0
  0
LINE
  5
20EB
330
1F
100
AcDbEntity
  8
外形
100
AcDbLine
 10
676.804187349054
 20
345.7205717253237
 30
0.0
 11
678.1995971547516
 21
345.7205717253237
 31
0.0
  0
LINE
  5
20EC
330
1F
100
AcDbEntity
  8
外形
100
AcDbLine
 10
690.7350970872957
 20
345.0228668224748
 30
0.0
 11
690.3996538582368
 21
341.5343423082298
 31
0.0
  0
LINE
  5
20ED
330
1F
100
AcDbEntity
  8
外形
100
AcDbLine
 10
692.1671044340968
 20
345.0228668224748
 30
0.0
 11
692.5025476631557
 21
341.5343423082298
 31
0.0
  0
ARC
  5
20EE
330
1F
100
AcDbEntity
  8
外形
100
AcDbCircle
 10
684.9356079173536
 20
341.2527768881407
 30
0.0
 40
3.101309475670404
100
AcDbArc
 50
5.209011059543261
 51
174.7909889404567
  0
LINE
  5
20EF
330
1F
100
AcDbEntity
  8
外形
100
AcDbLine
 10
692.1671044340968
 20
345.0228668224748
 30
0.0
 11
690.7350970872955
 21
345.0228668224748
 31
0.0
  0
LINE
  5
20F0
330
1F
100
AcDbEntity
  8
外形
100
AcDbLine
 10
702.9681212058903
 20
341.5343423082298
 30
0.0
 11
702.9681212058902
 21
356.4884403652095
 31
0.0
  0
LINE
  5
20F1
330
1F
100
AcDbEntity
  8
外形
100
AcDbLine
 10
699.4795966916459
 20
356.4884403652095
 30
0.0
 11
699.479596691646
 21
348.537828178246
 31
0.0
  0
LINE
  5
20F2
330
1F
100
AcDbEntity
  8
外形
100
AcDbLine
 10
723.8992682913601
 20
350.4068011424175
 30
0.0
 11
723.8992682913601
 21
343.727825619446
 31
0.0
  0
ARC
  5
20F3
330
1F
100
AcDbEntity
  8
外形
100
AcDbCircle
 10
723.3165182369949
 20
359.4876945565165
 30
0.0
 40
3.101309475670404
100
AcDbArc
 50
5.209011059543261
 51
174.7909889404567
  0
LINE
  5
20F4
330
1F
100
AcDbEntity
  8
外形
100
AcDbLine
 10
728.085497708454
 20
356.4884403652095
 30
0.0
 11
728.0854977084542
 21
359.7692599766056
 31
0.0
  0
LINE
  5
20F5
330
1F
100
AcDbEntity
  8
外形
100
AcDbLine
 10
753.7547595024699
 20
311.7369288467177
 30
0.0
 11
753.7547595024701
 21
310.2187223921744
 31
0.0
  0
LINE
  5
20F6
330
1F
100
AcDbEntity
  8
外形
100
AcDbLine
 10
753.7547595024699
 20
322.2369288467176
 30
0.0
 11
753.7547595024701
 21
320.7187223921743
 31
0.0
  0
LINE
  5
20F7
330
1F
100
AcDbEntity
  8
外形
100
AcDbLine
 10
753.75475950247
 20
332.2369288467177
 30
0.0
 11
753.7547595024703
 21
330.7187223921743
 31
0.0
  0
LINE
  5
20F8
330
1F
100
AcDbEntity
  8
外形
100
AcDbLine
 10
753.7547595024704
 20
356.9719704853682
 30
0.0
 11
753.7547595024701
 21
350.9068011424174
 31
0.0
  0
LINE
  5
20F9
330
1F
100
AcDbEntity
  8
外形
100
AcDbLine
 10
753.7547595024697
 20
342.7369288467177
 30
0.0
 11
753.7547595024701
 21
341.2187223921743
 31
0.0
  0
ARC
  5
20FA
330
1F
100
AcDbEntity
  8
外形
100
AcDbCircle
 10
751.6616447939233
 20
356.9719704853682
 30
0.0
 40
2.093114708546863
100
AcDbArc
 50
0.000000000000007
 51
180.0
  0
LINE
  5
20FB
330
1F
100
AcDbEntity
  8
外形
100
AcDbLine
 10
737.0098418340948
 20
355.7907354623607
 30
0.0
 11
749.5687578611506
 21
355.7907354623607
 31
0.0
  0
LINE
  5
20FC
330
1F
100
AcDbEntity
  8
外形
100
AcDbLine
 10
737.0098418340948
 20
359.7692599766056
 30
0.0
 11
737.0098418340945
 21
355.7907354623608
 31
0.0
  0
LINE
  5
20FD
330
1F
100
AcDbEntity
  8
外形
100
AcDbLine
 10
749.5687578611506
 20
356.9410921796365
 30
0.0
 11
749.5687578611506
 21
355.7907354623607
 31
0.0
  0
LINE
  5
21C2
330
1F
100
AcDbEntity
  8
外形
  6
CENTER
 62
     1
 48
0.08
100
AcDbLine
 10
481.4822319186912
 20
355.0112165148411
 30
0.0
 11
475.4822319186912
 21
355.0112165148411
 31
0.0
  0
LINE
  5
21C3
330
1F
100
AcDbEntity
  8
外形
100
AcDbLine
 10
434.3663092768686
 20
235.4898042489431
 30
0.0
 11
444.7021521352182
 21
235.482715183899
 31
0.0
  0
MTEXT
  5
21DC
330
1F
100
AcDbEntity
  8
外形
100
AcDbMText
 10
448.267998211826
 20
380.8836736942782
 30
0.0
 40
4.9
 41
1.0
 71
     5
 72
     5
  1
{\fＭＳ ゴシック|b0|i0|c128|p49;2}
 73
     1
 44
1.0
  0
CIRCLE
  5
21DD
330
1F
100
AcDbEntity
  8
外形
100
AcDbCircle
 10
448.267998211826
 20
380.8836736942782
 30
0.0
 40
2.937884547468911
  0
MTEXT
  5
21DE
330
1F
100
AcDbEntity
  8
外形
100
AcDbMText
 10
407.0173227747951
 20
168.291107675628
 30
0.0
 40
4.9
 41
1.0
 71
     5
 72
     5
  1
{\fＭＳ ゴシック|b0|i0|c128|p49;4}
 73
     1
 44
1.0
  0
CIRCLE
  5
21DF
330
1F
100
AcDbEntity
  8
外形
100
AcDbCircle
 10
407.0173227747951
 20
168.291107675628
 30
0.0
 40
2.937884547468911
  0
MTEXT
  5
21E0
330
1F
100
AcDbEntity
  8
外形
100
AcDbMText
 10
452.731343352652
 20
168.291107675628
 30
0.0
 40
4.9
 41
1.0
 71
     5
 72
     5
  1
{\fＭＳ ゴシック|b0|i0|c128|p49;3}
 73
     1
 44
1.0
  0
CIRCLE
  5
21E1
330
1F
100
AcDbEntity
  8
外形
100
AcDbCircle
 10
452.731343352652
 20
168.291107675628
 30
0.0
 40
2.937884547468911
  0
DIMENSION
  5
224B
330
1F
100
AcDbEntity
  8
寸法
 62
     5
100
AcDbDimension
  2
*D4
 10
544.4224830715333
 20
233.7740166865813
 30
0.0
 11
540.5724830715333
 21
296.7740166865813
 31
0.0
 70
    32
 71
     5
 42
125.9999999999998
  3
ISO-25
100
AcDbAlignedDimension
 13
521.2639960162731
 23
359.7740166865812
 33
0.0
 14
521.2639960162732
 24
233.7740166865813
 34
0.0
 50
90.0
100
AcDbRotatedDimension
  0
LINE
  5
2370
330
1F
100
AcDbEntity
  8
外形
  6
CENTER
 62
     1
 48
0.08
100
AcDbLine
 10
521.232231918691
 20
233.7740166865813
 30
0.0
 11
510.732231918691
 21
233.7740166865813
 31
0.0
  0
LINE
  5
2371
330
1F
100
AcDbEntity
  8
外形
  6
CENTER
 62
     1
 48
0.08
100
AcDbLine
 10
515.9822319186909
 20
228.5240166865813
 30
0.0
 11
515.9822319186911
 21
239.0240166865813
 31
0.0
  0
LINE
  5
2372
330
1F
100
AcDbEntity
  8
外形
  6
CENTER
 62
     1
 48
0.08
100
AcDbLine
 10
350.2322319186912
 20
233.7740166865813
 30
0.0
 11
339.7322319186912
 21
233.7740166865813
 31
0.0
  0
LINE
  5
2373
330
1F
100
AcDbEntity
  8
外形
  6
CENTER
 62
     1
 48
0.08
100
AcDbLine
 10
344.9822319186911
 20
228.5240166865813
 30
0.0
 11
344.9822319186911
 21
239.0240166865813
 31
0.0
  0
LINE
  5
2374
330
1F
100
AcDbEntity
  8
外形
  6
CENTER
 62
     1
 48
0.08
100
AcDbLine
 10
350.2322319186912
 20
359.7740166865812
 30
0.0
 11
339.7322319186912
 21
359.7740166865812
 31
0.0
  0
LINE
  5
2375
330
1F
100
AcDbEntity
  8
外形
  6
CENTER
 62
     1
 48
0.08
100
AcDbLine
 10
344.9822319186911
 20
354.5240166865812
 30
0.0
 11
344.9822319186911
 21
365.0240166865812
 31
0.0
  0
LINE
  5
23AA
330
1F
100
AcDbEntity
  8
外形
100
AcDbLine
 10
508.4822319186911
 20
374.7740166865813
 30
0.0
 11
508.4822319186911
 21
218.7740166865813
 31
0.0
  0
LINE
  5
23AB
330
1F
100
AcDbEntity
  8
外形
100
AcDbLine
 10
352.4822319186911
 20
374.7740166865813
 30
0.0
 11
352.4822319186911
 21
218.7740166865813
 31
0.0
  0
LINE
  5
23AC
330
1F
100
AcDbEntity
  8
外形
100
AcDbLine
 10
504.4822319186911
 20
374.7740166865813
 30
0.0
 11
504.4822319186911
 21
218.7740166865813
 31
0.0
  0
LINE
  5
23AD
330
1F
100
AcDbEntity
  8
外形
100
AcDbLine
 10
356.4822319186911
 20
374.7740166865813
 30
0.0
 11
356.4822319186911
 21
218.7740166865813
 31
0.0
  0
LINE
  5
23EE
330
1F
100
AcDbEntity
  8
外形
  6
DASHED2
 48
0.25
100
AcDbLine
 10
426.5981545605136
 20
364.0084955759129
 30
0.0
 11
426.5981545605136
 21
346.740168146326
 31
0.0
  0
LINE
  5
23EF
330
1F
100
AcDbEntity
  8
外形
  6
DASHED2
 48
0.25
100
AcDbLine
 10
434.3663092768687
 20
363.8833266963282
 30
0.0
 11
434.3663092768686
 21
346.6149992667412
 31
0.0
  0
ARC
  5
23FF
330
1F
100
AcDbEntity
  8
外形
100
AcDbCircle
 10
601.7490250013357
 20
350.9068011424175
 30
0.0
 40
0.5
100
AcDbArc
 50
180.000000000002
 51
270.0
  0
ARC
  5
2400
330
1F
100
AcDbEntity
  8
外形
100
AcDbCircle
 10
601.7490250013358
 20
342.7369288467176
 30
0.0
 40
0.5
100
AcDbArc
 50
91.05270668815679
 51
179.9999999999948
  0
ARC
  5
2401
330
1F
100
AcDbEntity
  8
外形
100
AcDbCircle
 10
601.7490250013354
 20
341.2187223921742
 30
0.0
 40
0.5
100
AcDbArc
 50
179.9999999999935
 51
268.9472933118434
  0
ARC
  5
2402
330
1F
100
AcDbEntity
  8
外形
100
AcDbCircle
 10
601.7490250013358
 20
332.2369288467177
 30
0.0
 40
0.5
100
AcDbArc
 50
91.05270668815679
 51
179.9999999999948
  0
ARC
  5
2403
330
1F
100
AcDbEntity
  8
外形
100
AcDbCircle
 10
601.7490250013355
 20
330.7187223921743
 30
0.0
 40
0.5
100
AcDbArc
 50
179.9999999999935
 51
268.9472933118434
  0
ARC
  5
2404
330
1F
100
AcDbEntity
  8
外形
100
AcDbCircle
 10
601.7490250013357
 20
322.2369288467175
 30
0.0
 40
0.5
100
AcDbArc
 50
91.05270668815679
 51
179.9999999999948
  0
ARC
  5
2405
330
1F
100
AcDbEntity
  8
外形
100
AcDbCircle
 10
601.7490250013354
 20
320.7187223921743
 30
0.0
 40
0.5
100
AcDbArc
 50
179.9999999999967
 51
268.9472933118433
  0
ARC
  5
2406
330
1F
100
AcDbEntity
  8
外形
100
AcDbCircle
 10
601.7490250013358
 20
311.7369288467176
 30
0.0
 40
0.5
100
AcDbArc
 50
91.05270668815665
 51
179.9999999999948
  0
ARC
  5
2407
330
1F
100
AcDbEntity
  8
外形
100
AcDbCircle
 10
601.7490250013355
 20
310.2187223921743
 30
0.0
 40
0.5
100
AcDbArc
 50
179.9999999999935
 51
268.9472933118435
  0
ARC
  5
2408
330
1F
100
AcDbEntity
  8
外形
100
AcDbCircle
 10
601.7490250013358
 20
301.2369288467176
 30
0.0
 40
0.5
100
AcDbArc
 50
91.0527066881567
 51
179.9999999999948
  0
ARC
  5
2409
330
1F
100
AcDbEntity
  8
外形
100
AcDbCircle
 10
601.7490250013357
 20
299.7187223921743
 30
0.0
 40
0.5
100
AcDbArc
 50
179.9999999999935
 51
268.9472933118435
  0
ARC
  5
240A
330
1F
100
AcDbEntity
  8
外形
100
AcDbCircle
 10
601.7490250013358
 20
290.7369288467177
 30
0.0
 40
0.5
100
AcDbArc
 50
91.0527066881567
 51
179.9999999999948
  0
ARC
  5
240B
330
1F
100
AcDbEntity
  8
外形
100
AcDbCircle
 10
601.7490250013354
 20
289.2187223921743
 30
0.0
 40
0.5
100
AcDbArc
 50
179.9999999999935
 51
268.9472933118435
  0
ARC
  5
240C
330
1F
100
AcDbEntity
  8
外形
100
AcDbCircle
 10
601.7490250013357
 20
280.2369288467176
 30
0.0
 40
0.5
100
AcDbArc
 50
91.0527066881567
 51
179.9999999999948
  0
ARC
  5
240D
330
1F
100
AcDbEntity
  8
外形
100
AcDbCircle
 10
601.7490250013354
 20
278.7187223921742
 30
0.0
 40
0.5
100
AcDbArc
 50
179.9999999999967
 51
268.9472933118435
  0
ARC
  5
240E
330
1F
100
AcDbEntity
  8
外形
100
AcDbCircle
 10
601.7490250013357
 20
269.7369288467177
 30
0.0
 40
0.5
100
AcDbArc
 50
91.0527066881567
 51
179.9999999999948
  0
ARC
  5
240F
330
1F
100
AcDbEntity
  8
外形
100
AcDbCircle
 10
601.7490250013355
 20
268.2187223921742
 30
0.0
 40
0.5
100
AcDbArc
 50
179.9999999999967
 51
268.9472933118435
  0
ARC
  5
2410
330
1F
100
AcDbEntity
  8
外形
100
AcDbCircle
 10
601.7490250013357
 20
259.2369288467176
 30
0.0
 40
0.5
100
AcDbArc
 50
91.05270668815668
 51
179.9999999999948
  0
ARC
  5
2411
330
1F
100
AcDbEntity
  8
外形
100
AcDbCircle
 10
601.7490250013355
 20
257.7187223921743
 30
0.0
 40
0.5
100
AcDbArc
 50
179.9999999999967
 51
268.9472933118434
  0
ARC
  5
2412
330
1F
100
AcDbEntity
  8
外形
100
AcDbCircle
 10
601.7490250013357
 20
249.2369288467176
 30
0.0
 40
0.5
100
AcDbArc
 50
91.0527066881567
 51
179.9999999999948
  0
ARC
  5
2413
330
1F
100
AcDbEntity
  8
外形
100
AcDbCircle
 10
601.7490250013354
 20
247.7187223921742
 30
0.0
 40
0.5
100
AcDbArc
 50
179.9999999999967
 51
268.9472933118435
  0
ARC
  5
2414
330
1F
100
AcDbEntity
  8
外形
100
AcDbCircle
 10
753.25475950247
 20
249.2369288467176
 30
0.0
 40
0.5
100
AcDbArc
 50
0.0000000000051907
 51
88.94729331184327
  0
ARC
  5
2415
330
1F
100
AcDbEntity
  8
外形
100
AcDbCircle
 10
753.25475950247
 20
247.7187223921741
 30
0.0
 40
0.5
100
AcDbArc
 50
271.0527066881565
 51
0.0000000000032442
  0
ARC
  5
2416
330
1F
100
AcDbEntity
  8
外形
100
AcDbCircle
 10
753.2547595024702
 20
257.7187223921743
 30
0.0
 40
0.5
100
AcDbArc
 50
271.0527066881565
 51
0.0000000000052034
  0
ARC
  5
2417
330
1F
100
AcDbEntity
  8
外形
100
AcDbCircle
 10
753.25475950247
 20
259.2369288467176
 30
0.0
 40
0.5
100
AcDbArc
 50
0.0000000000097198
 51
88.94729331184331
  0
ARC
  5
2418
330
1F
100
AcDbEntity
  8
外形
100
AcDbCircle
 10
753.2547595024701
 20
268.2187223921743
 30
0.0
 40
0.5
100
AcDbArc
 50
271.0527066881564
 51
0.0000000000052034
  0
ARC
  5
2419
330
1F
100
AcDbEntity
  8
外形
100
AcDbCircle
 10
753.2547595024697
 20
269.7369288467176
 30
0.0
 40
0.5
100
AcDbArc
 50
0.0000000000064629
 51
88.94729331184327
  0
ARC
  5
241A
330
1F
100
AcDbEntity
  8
外形
100
AcDbCircle
 10
753.2547595024701
 20
278.7187223921743
 30
0.0
 40
0.5
100
AcDbArc
 50
271.0527066881564
 51
0.0000000000052034
  0
ARC
  5
241B
330
1F
100
AcDbEntity
  8
外形
100
AcDbCircle
 10
753.2547595024699
 20
280.2369288467176
 30
0.0
 40
0.5
100
AcDbArc
 50
0.0000000000064629
 51
88.94729331184327
  0
ARC
  5
241C
330
1F
100
AcDbEntity
  8
外形
100
AcDbCircle
 10
753.2547595024701
 20
289.2187223921743
 30
0.0
 40
0.5
100
AcDbArc
 50
271.0527066881564
 51
0.0000000000052034
  0
ARC
  5
241D
330
1F
100
AcDbEntity
  8
外形
100
AcDbCircle
 10
753.2547595024698
 20
290.7369288467176
 30
0.0
 40
0.5
100
AcDbArc
 50
0.0000000000064629
 51
88.94729331184327
  0
ARC
  5
241E
330
1F
100
AcDbEntity
  8
外形
100
AcDbCircle
 10
753.2547595024701
 20
299.7187223921743
 30
0.0
 40
0.5
100
AcDbArc
 50
271.0527066881564
 51
0.0000000000052034
  0
ARC
  5
241F
330
1F
100
AcDbEntity
  8
外形
100
AcDbCircle
 10
753.2547595024698
 20
301.2369288467176
 30
0.0
 40
0.5
100
AcDbArc
 50
0.0000000000064629
 51
88.94729331184327
  0
ARC
  5
2420
330
1F
100
AcDbEntity
  8
外形
100
AcDbCircle
 10
753.2547595024701
 20
310.2187223921743
 30
0.0
 40
0.5
100
AcDbArc
 50
271.0527066881564
 51
0.0000000000052034
  0
ARC
  5
2421
330
1F
100
AcDbEntity
  8
外形
100
AcDbCircle
 10
753.2547595024699
 20
311.7369288467176
 30
0.0
 40
0.5
100
AcDbArc
 50
0.0000000000064629
 51
88.94729331184334
  0
ARC
  5
2422
330
1F
100
AcDbEntity
  8
外形
100
AcDbCircle
 10
753.2547595024701
 20
320.7187223921743
 30
0.0
 40
0.5
100
AcDbArc
 50
271.0527066881566
 51
0.0000000000052034
  0
ARC
  5
2423
330
1F
100
AcDbEntity
  8
外形
100
AcDbCircle
 10
753.2547595024699
 20
322.2369288467175
 30
0.0
 40
0.5
100
AcDbArc
 50
0.0000000000064629
 51
88.9472933118432
  0
ARC
  5
2424
330
1F
100
AcDbEntity
  8
外形
100
AcDbCircle
 10
753.2547595024702
 20
330.7187223921742
 30
0.0
 40
0.5
100
AcDbArc
 50
271.0527066881565
 51
0.0000000000052034
  0
ARC
  5
2425
330
1F
100
AcDbEntity
  8
外形
100
AcDbCircle
 10
753.25475950247
 20
332.2369288467177
 30
0.0
 40
0.5
100
AcDbArc
 50
0.0000000000097198
 51
88.9472933118432
  0
ARC
  5
2426
330
1F
100
AcDbEntity
  8
外形
100
AcDbCircle
 10
753.2547595024701
 20
341.2187223921743
 30
0.0
 40
0.5
100
AcDbArc
 50
271.0527066881565
 51
0.0000000000052034
  0
ARC
  5
2427
330
1F
100
AcDbEntity
  8
外形
100
AcDbCircle
 10
753.2547595024698
 20
342.7369288467176
 30
0.0
 40
0.5
100
AcDbArc
 50
0.0000000000064629
 51
88.9472933118432
  0
ARC
  5
2428
330
1F
100
AcDbEntity
  8
外形
100
AcDbCircle
 10
753.2547595024701
 20
350.9068011424174
 30
0.0
 40
0.5
100
AcDbArc
 50
270.0
 51
359.999999999996
  0
LINE
  5
242A
330
1F
100
AcDbEntity
  8
外形
100
AcDbLine
 10
663.0604361285025
 20
355.034258369908
 30
0.0
 11
663.0604361285025
 21
354.0492068614693
 31
0.0
  0
LINE
  5
242B
330
1F
100
AcDbEntity
  8
外形
100
AcDbLine
 10
664.0604361285026
 20
355.034258369908
 30
0.0
 11
664.0604361285026
 21
354.0492068614693
 31
0.0
  0
LINE
  5
242C
330
1F
100
AcDbEntity
  8
外形
100
AcDbLine
 10
663.0604361285025
 20
354.0492068614693
 30
0.0
 11
664.0604361285026
 21
354.0492068614693
 31
0.0
  0
LINE
  5
242D
330
1F
100
AcDbEntity
  8
外形
100
AcDbLine
 10
692.0119893438778
 20
355.034258369908
 30
0.0
 11
692.0119893438778
 21
354.0492068614693
 31
0.0
  0
LINE
  5
242E
330
1F
100
AcDbEntity
  8
外形
100
AcDbLine
 10
691.0119893438778
 20
355.034258369908
 30
0.0
 11
691.0119893438778
 21
354.0492068614693
 31
0.0
  0
LINE
  5
242F
330
1F
100
AcDbEntity
  8
外形
100
AcDbLine
 10
691.0119893438778
 20
354.0492068614693
 30
0.0
 11
692.0119893438778
 21
354.0492068614693
 31
0.0
  0
VIEWPORT
  5
2D8
102
{ACAD_XDICTIONARY
360
305
102
}
330
2D1
100
AcDbEntity
 67
     1
  8
0
 62
     5
100
AcDbViewport
 10
100.1722543522882
 20
143.6910295125843
 30
0.0
 40
361.472876048157
 41
290.5747785171664
 68
     2
 69
     1
 12
100.1722543522882
 22
143.6910295125843
 13
0.0
 23
0.0
 14
10.0
 24
10.0
 15
10.0
 25
10.0
 16
0.0
 26
0.0
 36
1.0
 17
0.0
 27
0.0
 37
0.0
 42
50.0
 43
0.0
 44
0.0
 45
290.5747785171664
 50
0.0
 51
0.0
 72
   100
 90
    32800
  1

281
     0
 71
     1
 74
     0
110
0.0
120
0.0
130
0.0
111
1.0
121
0.0
131
0.0
112
0.0
122
1.0
132
0.0
 79
     0
146
0.0
  0
VIEWPORT
  5
1D82
330
2D1
100
AcDbEntity
 67
     1
  8
外形
100
AcDbViewport
 10
100.1712510585784
 20
143.6899168491363
 30
0.0
 40
200.3425021171569
 41
287.3798336982726
 68
     1
 69
     2
 12
651.0853136625642
 22
308.7543551517419
 13
0.0
 23
0.0
 14
10.0
 24
10.0
 15
10.0
 25
10.0
 16
0.0
 26
0.0
 36
1.0
 17
0.0
 27
0.0
 37
0.0
 42
50.0
 43
0.0
 44
0.0
 45
864.0114279039613
 50
0.0
 51
0.0
 72
   100
 90
    32864
  1

281
     0
 71
     1
 74
     0
110
0.0
120
0.0
130
0.0
111
1.0
121
0.0
131
0.0
112
0.0
122
1.0
132
0.0
 79
     0
146
0.0
  0
ENDSEC
  0
SECTION
  2
OBJECTS
  0
DICTIONARY
  5
C
330
0
100
AcDbDictionary
281
     1
  3
ACAD_COLOR
350
2EC
  3
ACAD_GROUP
350
D
  3
ACAD_LAYOUT
350
1A
  3
ACAD_MATERIAL
350
2EB
  3
ACAD_MLINESTYLE
350
17
  3
ACAD_PLOTSETTINGS
350
19
  3
ACAD_PLOTSTYLENAME
350
E
  3
ACAD_TABLESTYLE
350
2F4
  3
AcDbVariableDictionary
350
309
  0
DICTIONARY
  5
305
330
2D8
100
AcDbDictionary
280
     1
281
     1
  3
ACAD_XREC_ROUNDTRIP
360
306
  0
DICTIONARY
  5
2EC
102
{ACAD_REACTORS
330
C
102
}
330
C
100
AcDbDictionary
281
     1
  0
DICTIONARY
  5
D
102
{ACAD_REACTORS
330
C
102
}
330
C
100
AcDbDictionary
281
     1
  3
*A1
350
E30
  0
DICTIONARY
  5
1A
102
{ACAD_REACTORS
330
C
102
}
330
C
100
AcDbDictionary
281
     1
  3
Model
350
22
  3
ﾚｲｱｳﾄ2
350
2D2
  0
DICTIONARY
  5
2EB
102
{ACAD_REACTORS
330
C
102
}
330
C
100
AcDbDictionary
281
     1
  0
DICTIONARY
  5
17
102
{ACAD_REACTORS
330
C
102
}
330
C
100
AcDbDictionary
281
     1
  3
Standard
350
18
  0
DICTIONARY
  5
19
102
{ACAD_REACTORS
330
C
102
}
330
C
100
AcDbDictionary
281
     1
  0
ACDBDICTIONARYWDFLT
  5
E
102
{ACAD_REACTORS
330
C
102
}
330
C
100
AcDbDictionary
281
     1
  3
Normal
350
F
100
AcDbDictionaryWithDefault
340
F
  0
DICTIONARY
  5
2F4
102
{ACAD_REACTORS
330
C
102
}
330
C
100
AcDbDictionary
281
     1
  3
Standard
350
2F5
  0
DICTIONARY
  5
309
102
{ACAD_REACTORS
330
C
102
}
330
C
100
AcDbDictionary
281
     1
  3
CTABLESTYLE
350
30A
  3
DIMASSOC
350
30B
  3
PROJECTNAME
350
30C
  0
XRECORD
  5
306
102
{ACAD_REACTORS
330
305
102
}
330
305
100
AcDbXrecord
280
     1
102
SHADEPLOT
 70
     0
  0
GROUP
  5
E30
102
{ACAD_REACTORS
330
D
102
}
330
D
100
AcDbGroup
300

 70
     1
 71
     1
  0
LAYOUT
  5
22
102
{ACAD_XDICTIONARY
360
301
102
}
102
{ACAD_REACTORS
330
1A
102
}
330
1A
100
AcDbPlotSettings
  1

  2
Canon LBP-1420(RYU)
  4
A4
  6
VIEW1
 40
5.87375
 41
5.873747999999999
 42
5.873749
 43
5.873749
 44
209.973328
 45
296.925995
 46
21.89
 47
-2.97
 48
323.8738896848481
 49
143.0073582590014
140
906.1095825791886
141
451.9057579017719
142
1.0
143
2.0
 70
 11428
 72
     1
 73
     1
 74
     4
  7
monochrome.ctb
 75
     0
147
0.5
148
-323.8738896848481
149
-143.0073582590014
100
AcDbLayout
  1
Model
 70
     1
 71
     0
 10
0.0
 20
0.0
 11
12.0
 21
9.0
 12
0.0
 22
0.0
 32
0.0
 14
0.0
 24
0.0
 34
0.0
 15
0.0
 25
0.0
 35
0.0
146
0.0
 13
0.0
 23
0.0
 33
0.0
 16
1.0
 26
0.0
 36
0.0
 17
0.0
 27
1.0
 37
0.0
 76
     0
330
1F
  0
LAYOUT
  5
2D2
102
{ACAD_XDICTIONARY
360
303
102
}
102
{ACAD_REACTORS
330
1A
102
}
330
1A
100
AcDbPlotSettings
  1

  2
none_device
  4
none_user_media
  6

 40
4.773083209991455
 41
4.773089885711669
 42
4.857742309570312
 43
4.7730712890625
 44
209.9733276367187
 45
296.9259948730469
 46
0.0
 47
0.0
 48
0.0
 49
0.0
140
0.0
141
0.0
142
1.0
143
1.0
 70
   688
 72
     1
 73
     0
 74
     5
  7
monochrome.ctb
 75
    16
147
1.0
148
0.0
149
0.0
100
AcDbLayout
  1
ﾚｲｱｳﾄ2
 70
     1
 71
     1
 10
-4.773083209991455
 20
-4.773089885711669
 11
205.2002444267273
 21
292.1529049873352
 12
0.0
 22
0.0
 32
0.0
 14
0.0
 24
0.0
 34
0.0
 15
200.3425021171569
 25
287.3798336982726
 35
0.0
146
0.0
 13
0.0
 23
0.0
 33
0.0
 16
1.0
 26
0.0
 36
0.0
 17
0.0
 27
1.0
 37
0.0
 76
     0
330
2D1
331
1D82
  0
MLINESTYLE
  5
18
102
{ACAD_REACTORS
330
17
102
}
330
17
100
AcDbMlineStyle
  2
STANDARD
 70
     0
  3

 62
   256
 51
90.0
 52
90.0
 71
     2
 49
0.5
 62
   256
  6
BYLAYER
 49
-0.5
 62
   256
  6
BYLAYER
  0
ACDBPLACEHOLDER
  5
F
102
{ACAD_REACTORS
330
E
102
}
330
E
  0
ACAD_PROXY_OBJECT
  5
2F5
102
{ACAD_REACTORS
330
2F4
102
}
330
2F4
100
AcDbProxyObject
 90
      499
 91
      503
 95
   655383
 70
     0
 93
     1841
310
4214DD185B99185C9928000000000000F83F0000000000003E0FC00000000000004901028000000C1008070000C3001FDFF8000000C1003FBFF000000182007F7FE00000030400FEFFC00000060801FDFF8000000C1003FBFF000000182000000000000000C2020B0000001820100E000186003FBFF000000182007F7FE000
310
00030400FEFFC00000060801FDFF8000000C1003FBFF000000182007F7FE0000003040000000000000012404160000003040201C00030C007F7FE00000030400FEFFC00000060801FDFF8000000C1003FBFF000000182007F7FE00000030400FEFFC00000060804D
340
11
340
11
340
11
 94
        0
  0
DICTIONARYVAR
  5
30A
102
{ACAD_REACTORS
330
309
102
}
330
309
100
DictionaryVariables
280
     0
  1
STANDARD
  0
DICTIONARYVAR
  5
30B
102
{ACAD_REACTORS
330
309
102
}
330
309
100
DictionaryVariables
280
     0
  1
1
  0
DICTIONARYVAR
  5
30C
102
{ACAD_REACTORS
330
309
102
}
330
309
100
DictionaryVariables
280
     0
  1

  0
DICTIONARY
  5
301
330
22
100
AcDbDictionary
280
     1
281
     1
  3
ACAD_XREC_ROUNDTRIP
360
302
  0
DICTIONARY
  5
303
330
2D2
100
AcDbDictionary
280
     1
281
     1
  3
ACAD_XREC_ROUNDTRIP
360
304
  0
XRECORD
  5
302
102
{ACAD_REACTORS
330
301
102
}
330
301
100
AcDbXrecord
280
     1
102
SHADEPLOT
 70
     0
102
SHADEPLOTRESLEVEL
 70
     2
102
SHADEPLOTCUSTOMDPI
 70
   300
  0
XRECORD
  5
304
102
{ACAD_REACTORS
330
303
102
}
330
303
100
AcDbXrecord
280
     1
102
SHADEPLOT
 70
     0
102
SHADEPLOTRESLEVEL
 70
     2
102
SHADEPLOTCUSTOMDPI
 70
   300
  0
ENDSEC
  0
EOF
