  0
SECTION
  2
HEADER
  9
$ACADVER
  1
AC1015
  9
$ACADMAINTVER
 70
    10
  9
$DWGCODEPAGE
  3
ANSI_932
  9
$INSBASE
 10
0.0
 20
0.0
 30
0.0
  9
$EXTMIN
 10
460.509731209026
 20
235.4912011674584
 30
0.0
  9
$EXTMAX
 10
515.0005259944152
 20
316.4467380548872
 30
0.0
  9
$LIMMIN
 10
0.0
 20
0.0
  9
$LIMMAX
 10
420.0
 20
297.0
  9
$ORTHOMODE
 70
     1
  9
$REGENMODE
 70
     1
  9
$FILLMODE
 70
     1
  9
$QTEXTMODE
 70
     0
  9
$MIRRTEXT
 70
     1
  9
$LTSCALE
 40
1.0
  9
$ATTMODE
 70
     1
  9
$TEXTSIZE
 40
2.5
  9
$TRACEWID
 40
1.0
  9
$TEXTSTYLE
  7
Standard
  9
$CLAYER
  8
寸法
  9
$CELTYPE
  6
ByLayer
  9
$CECOLOR
 62
     5
  9
$CELTSCALE
 40
1.0
  9
$DISPSILH
 70
     0
  9
$DIMSCALE
 40
1.0
  9
$DIMASZ
 40
1.0
  9
$DIMEXO
 40
1.0
  9
$DIMDLI
 40
3.75
  9
$DIMRND
 40
0.0
  9
$DIMDLE
 40
0.0
  9
$DIMEXE
 40
0.5
  9
$DIMTP
 40
0.0
  9
$DIMTM
 40
0.0
  9
$DIMTXT
 40
0.7
  9
$DIMCEN
 40
2.5
  9
$DIMTSZ
 40
0.0
  9
$DIMTOL
 70
     0
  9
$DIMLIM
 70
     0
  9
$DIMTIH
 70
     0
  9
$DIMTOH
 70
     0
  9
$DIMSE1
 70
     0
  9
$DIMSE2
 70
     0
  9
$DIMTAD
 70
     1
  9
$DIMZIN
 70
     9
  9
$DIMBLK
  1

  9
$DIMASO
 70
     1
  9
$DIMSHO
 70
     1
  9
$DIMPOST
  1

  9
$DIMAPOST
  1

  9
$DIMALT
 70
     0
  9
$DIMALTD
 70
     3
  9
$DIMALTF
 40
0.03937007874016
  9
$DIMLFAC
 40
1.0
  9
$DIMTOFL
 70
     1
  9
$DIMTVP
 40
0.0
  9
$DIMTIX
 70
     0
  9
$DIMSOXD
 70
     0
  9
$DIMSAH
 70
     0
  9
$DIMBLK1
  1

  9
$DIMBLK2
  1

  9
$DIMSTYLE
  2
ISO-25
  9
$DIMCLRD
 70
     0
  9
$DIMCLRE
 70
     0
  9
$DIMCLRT
 70
     0
  9
$DIMTFAC
 40
1.0
  9
$DIMGAP
 40
0.2
  9
$DIMJUST
 70
     0
  9
$DIMSD1
 70
     0
  9
$DIMSD2
 70
     0
  9
$DIMTOLJ
 70
     0
  9
$DIMTZIN
 70
     8
  9
$DIMALTZ
 70
     0
  9
$DIMALTTZ
 70
     0
  9
$DIMUPT
 70
     0
  9
$DIMDEC
 70
     2
  9
$DIMTDEC
 70
     2
  9
$DIMALTU
 70
     2
  9
$DIMALTTD
 70
     3
  9
$DIMTXSTY
  7
Standard
  9
$DIMAUNIT
 70
     0
  9
$DIMADEC
 70
     1
  9
$DIMALTRND
 40
0.0
  9
$DIMAZIN
 70
     1
  9
$DIMDSEP
 70
    46
  9
$DIMATFIT
 70
     3
  9
$DIMFRAC
 70
     0
  9
$DIMLDRBLK
  1

  9
$DIMLUNIT
 70
     2
  9
$DIMLWD
 70
    -2
  9
$DIMLWE
 70
    -2
  9
$DIMTMOVE
 70
     0
  9
$LUNITS
 70
     2
  9
$LUPREC
 70
     4
  9
$SKETCHINC
 40
1.0
  9
$FILLETRAD
 40
0.5
  9
$AUNITS
 70
     0
  9
$AUPREC
 70
     0
  9
$MENU
  1
.
  9
$ELEVATION
 40
0.0
  9
$PELEVATION
 40
0.0
  9
$THICKNESS
 40
0.0
  9
$LIMCHECK
 70
     0
  9
$CHAMFERA
 40
0.0
  9
$CHAMFERB
 40
0.0
  9
$CHAMFERC
 40
20.0
  9
$CHAMFERD
 40
0.0
  9
$SKPOLY
 70
     0
  9
$TDCREATE
 40
2453483.907673240
  9
$TDUCREATE
 40
2453483.532673240
  9
$TDUPDATE
 40
2453518.752351886
  9
$TDUUPDATE
 40
2453518.377351886
  9
$TDINDWG
 40
0.1666744907
  9
$TDUSRTIMER
 40
0.1666743056
  9
$USRTIMER
 70
     1
  9
$ANGBASE
 50
0.0
  9
$ANGDIR
 70
     0
  9
$PDMODE
 70
     0
  9
$PDSIZE
 40
0.0
  9
$PLINEWID
 40
0.0
  9
$SPLFRAME
 70
     0
  9
$SPLINETYPE
 70
     6
  9
$SPLINESEGS
 70
     8
  9
$HANDSEED
  5
1464
  9
$SURFTAB1
 70
     6
  9
$SURFTAB2
 70
     6
  9
$SURFTYPE
 70
     6
  9
$SURFU
 70
     6
  9
$SURFV
 70
     6
  9
$UCSBASE
  2

  9
$UCSNAME
  2

  9
$UCSORG
 10
0.0
 20
0.0
 30
0.0
  9
$UCSXDIR
 10
1.0
 20
0.0
 30
0.0
  9
$UCSYDIR
 10
0.0
 20
1.0
 30
0.0
  9
$UCSORTHOREF
  2

  9
$UCSORTHOVIEW
 70
     0
  9
$UCSORGTOP
 10
0.0
 20
0.0
 30
0.0
  9
$UCSORGBOTTOM
 10
0.0
 20
0.0
 30
0.0
  9
$UCSORGLEFT
 10
0.0
 20
0.0
 30
0.0
  9
$UCSORGRIGHT
 10
0.0
 20
0.0
 30
0.0
  9
$UCSORGFRONT
 10
0.0
 20
0.0
 30
0.0
  9
$UCSORGBACK
 10
0.0
 20
0.0
 30
0.0
  9
$PUCSBASE
  2

  9
$PUCSNAME
  2

  9
$PUCSORG
 10
0.0
 20
0.0
 30
0.0
  9
$PUCSXDIR
 10
1.0
 20
0.0
 30
0.0
  9
$PUCSYDIR
 10
0.0
 20
1.0
 30
0.0
  9
$PUCSORTHOREF
  2

  9
$PUCSORTHOVIEW
 70
     0
  9
$PUCSORGTOP
 10
0.0
 20
0.0
 30
0.0
  9
$PUCSORGBOTTOM
 10
0.0
 20
0.0
 30
0.0
  9
$PUCSORGLEFT
 10
0.0
 20
0.0
 30
0.0
  9
$PUCSORGRIGHT
 10
0.0
 20
0.0
 30
0.0
  9
$PUCSORGFRONT
 10
0.0
 20
0.0
 30
0.0
  9
$PUCSORGBACK
 10
0.0
 20
0.0
 30
0.0
  9
$USERI1
 70
     0
  9
$USERI2
 70
     0
  9
$USERI3
 70
     0
  9
$USERI4
 70
     0
  9
$USERI5
 70
     0
  9
$USERR1
 40
0.0
  9
$USERR2
 40
0.0
  9
$USERR3
 40
0.0
  9
$USERR4
 40
0.0
  9
$USERR5
 40
0.0
  9
$WORLDVIEW
 70
     1
  9
$SHADEDGE
 70
     3
  9
$SHADEDIF
 70
    70
  9
$TILEMODE
 70
     1
  9
$MAXACTVP
 70
    64
  9
$PINSBASE
 10
0.0
 20
0.0
 30
0.0
  9
$PLIMCHECK
 70
     0
  9
$PEXTMIN
 10
-0.0022107197171408
 20
-0.0056219074012347
 30
-0.0015258207003583
  9
$PEXTMAX
 10
200.3467194242936
 20
287.3876809325698
 30
0.0000000349246037
  9
$PLIMMIN
 10
-4.773083209991455
 20
-4.773089885711669
  9
$PLIMMAX
 10
205.2002444267273
 20
292.1529049873352
  9
$UNITMODE
 70
     0
  9
$VISRETAIN
 70
     1
  9
$PLINEGEN
 70
     0
  9
$PSLTSCALE
 70
     1
  9
$TREEDEPTH
 70
  3020
  9
$CMLSTYLE
  2
Standard
  9
$CMLJUST
 70
     0
  9
$CMLSCALE
 40
20.0
  9
$PROXYGRAPHICS
 70
     1
  9
$MEASUREMENT
 70
     1
  9
$CELWEIGHT
370
    -1
  9
$ENDCAPS
280
     0
  9
$JOINSTYLE
280
     0
  9
$LWDISPLAY
290
     0
  9
$INSUNITS
 70
     4
  9
$HYPERLINKBASE
  1

  9
$STYLESHEET
  1
monochrome.ctb
  9
$XEDIT
290
     1
  9
$CEPSNTYPE
380
     0
  9
$PSTYLEMODE
290
     1
  9
$FINGERPRINTGUID
  2
{FDEAD578-A652-11D2-9A35-0060089B3A3F}
  9
$VERSIONGUID
  2
{EECED97D-283C-4A5B-8EE8-07C6312B3C5B}
  9
$EXTNAMES
290
     1
  9
$PSVPSCALE
 40
0.0
  9
$OLESTARTUP
290
     0
  0
ENDSEC
  0
SECTION
  2
CLASSES
  0
CLASS
  1
ACDBDICTIONARYWDFLT
  2
AcDbDictionaryWithDefault
  3
AutoCAD 2000
 90
        0
280
     0
281
     0
  0
CLASS
  1
ACDBPLACEHOLDER
  2
AcDbPlaceHolder
  3
AutoCAD 2000
 90
        0
280
     0
281
     0
  0
CLASS
  1
LAYOUT
  2
AcDbLayout
  3
AutoCAD 2000
 90
        0
280
     0
281
     0
  0
CLASS
  1
TABLESTYLE
  2
AcDbTableStyle
  3
ObjectDBX Classes
 90
     2047
280
     0
281
     0
  0
CLASS
  1
DICTIONARYVAR
  2
AcDbDictionaryVar
  3
AutoCAD 2000
 90
        0
280
     0
281
     0
  0
ENDSEC
  0
SECTION
  2
TABLES
  0
TABLE
  2
VPORT
  5
8
330
0
100
AcDbSymbolTable
 70
     2
  0
VPORT
  5
1463
330
8
100
AcDbSymbolTableRecord
100
AcDbViewportTableRecord
  2
*Active
 70
     0
 10
0.0
 20
0.0
 11
1.0
 21
1.0
 12
489.188029062929
 22
272.2849257921607
 13
0.0
 23
0.0
 14
10.0
 24
10.0
 15
10.0
 25
10.0
 16
0.0
 26
0.0
 36
1.0
 17
0.0
 27
0.0
 37
0.0
 40
91.95274950889993
 41
1.561128526645767
 42
50.0
 43
0.0
 44
0.0
 50
0.0
 51
0.0
 71
     0
 72
   100
 73
     1
 74
     3
 75
     0
 76
     0
 77
     0
 78
     0
281
     0
 65
     1
110
0.0
120
0.0
130
0.0
111
1.0
121
0.0
131
0.0
112
0.0
122
1.0
132
0.0
 79
     0
146
0.0
  0
ENDTAB
  0
TABLE
  2
LTYPE
  5
5
330
0
100
AcDbSymbolTable
 70
     1
  0
LTYPE
  5
14
330
5
100
AcDbSymbolTableRecord
100
AcDbLinetypeTableRecord
  2
ByBlock
 70
     0
  3

 72
    65
 73
     0
 40
0.0
  0
LTYPE
  5
15
330
5
100
AcDbSymbolTableRecord
100
AcDbLinetypeTableRecord
  2
ByLayer
 70
     0
  3

 72
    65
 73
     0
 40
0.0
  0
LTYPE
  5
16
330
5
100
AcDbSymbolTableRecord
100
AcDbLinetypeTableRecord
  2
Continuous
 70
     0
  3
Solid line
 72
    65
 73
     0
 40
0.0
  0
ENDTAB
  0
TABLE
  2
LAYER
  5
2
330
0
100
AcDbSymbolTable
 70
     4
  0
LAYER
  5
10
330
2
100
AcDbSymbolTableRecord
100
AcDbLayerTableRecord
  2
0
 70
     0
 62
     7
  6
Continuous
370
    -3
390
F
  0
LAYER
  5
64
330
2
100
AcDbSymbolTableRecord
100
AcDbLayerTableRecord
  2
外形
 70
     0
 62
     7
  6
Continuous
370
    -3
390
F
  0
LAYER
  5
65
330
2
100
AcDbSymbolTableRecord
100
AcDbLayerTableRecord
  2
寸法
 70
     0
 62
     7
  6
Continuous
370
    -3
390
F
  0
LAYER
  5
E3
330
2
100
AcDbSymbolTableRecord
100
AcDbLayerTableRecord
  2
Defpoints
 70
     0
 62
     7
  6
Continuous
290
     0
370
    -3
390
F
  0
ENDTAB
  0
TABLE
  2
STYLE
  5
3
330
0
100
AcDbSymbolTable
 70
     1
  0
STYLE
  5
11
330
3
100
AcDbSymbolTableRecord
100
AcDbTextStyleTableRecord
  2
Standard
 70
     0
 40
0.0
 41
1.0
 50
0.0
 71
     0
 42
2.5
  3
txt
  4

  0
ENDTAB
  0
TABLE
  2
VIEW
  5
6
330
0
100
AcDbSymbolTable
 70
     0
  0
ENDTAB
  0
TABLE
  2
UCS
  5
7
330
0
100
AcDbSymbolTable
 70
     0
  0
ENDTAB
  0
TABLE
  2
APPID
  5
9
330
0
100
AcDbSymbolTable
 70
     2
  0
APPID
  5
12
330
9
100
AcDbSymbolTableRecord
100
AcDbRegAppTableRecord
  2
ACAD
 70
     0
  0
APPID
  5
313
330
9
100
AcDbSymbolTableRecord
100
AcDbRegAppTableRecord
  2
QDRX_VIEW
 70
     0
  0
ENDTAB
  0
TABLE
  2
DIMSTYLE
  5
A
330
0
100
AcDbSymbolTable
 70
     1
100
AcDbDimStyleTable
 71
     1
340
27
  0
DIMSTYLE
105
27
102
{ACAD_REACTORS
330
455
330
4BF
330
53C
330
53A
330
53B
330
840
330
774
330
454
330
744
330
6F9
102
}
330
A
100
AcDbSymbolTableRecord
100
AcDbDimStyleTableRecord
  2
ISO-25
 70
     0
 41
1.0
 42
1.0
 43
3.75
 44
0.5
 73
     0
 74
     0
 77
     1
 78
     9
 79
     1
140
0.7
141
2.5
143
0.03937007874016
147
0.2
171
     3
172
     1
179
     1
271
     2
272
     2
274
     3
283
     0
284
     8
340
11
  0
ENDTAB
  0
TABLE
  2
BLOCK_RECORD
  5
1
330
0
100
AcDbSymbolTable
 70
    10
  0
BLOCK_RECORD
  5
1F
330
1
100
AcDbSymbolTableRecord
100
AcDbBlockTableRecord
  2
*Model_Space
340
22
  0
BLOCK_RECORD
  5
2D1
330
1
100
AcDbSymbolTableRecord
100
AcDbBlockTableRecord
  2
*Paper_Space
340
2D2
  0
BLOCK_RECORD
  5
456
330
1
100
AcDbSymbolTableRecord
100
AcDbBlockTableRecord
  2
*D0
340
0
  0
BLOCK_RECORD
  5
462
330
1
100
AcDbSymbolTableRecord
100
AcDbBlockTableRecord
  2
*D1
340
0
  0
BLOCK_RECORD
  5
4C3
330
1
100
AcDbSymbolTableRecord
100
AcDbBlockTableRecord
  2
*D2
340
0
  0
BLOCK_RECORD
  5
53D
330
1
100
AcDbSymbolTableRecord
100
AcDbBlockTableRecord
  2
*D3
340
0
  0
BLOCK_RECORD
  5
549
330
1
100
AcDbSymbolTableRecord
100
AcDbBlockTableRecord
  2
*D4
340
0
  0
BLOCK_RECORD
  5
555
330
1
100
AcDbSymbolTableRecord
100
AcDbBlockTableRecord
  2
*D5
340
0
  0
BLOCK_RECORD
  5
6FA
330
1
100
AcDbSymbolTableRecord
100
AcDbBlockTableRecord
  2
*D6
340
0
  0
BLOCK_RECORD
  5
745
330
1
100
AcDbSymbolTableRecord
100
AcDbBlockTableRecord
  2
*D7
340
0
  0
BLOCK_RECORD
  5
791
330
1
100
AcDbSymbolTableRecord
100
AcDbBlockTableRecord
  2
*D8
340
0
  0
BLOCK_RECORD
  5
841
330
1
100
AcDbSymbolTableRecord
100
AcDbBlockTableRecord
  2
*D9
340
0
  0
ENDTAB
  0
ENDSEC
  0
SECTION
  2
BLOCKS
  0
BLOCK
  5
20
330
1F
100
AcDbEntity
  8
0
100
AcDbBlockBegin
  2
*Model_Space
 70
     0
 10
0.0
 20
0.0
 30
0.0
  3
*Model_Space
  1

  0
ENDBLK
  5
21
330
1F
100
AcDbEntity
  8
0
100
AcDbBlockEnd
  0
BLOCK
  5
2D3
330
2D1
100
AcDbEntity
 67
     1
  8
0
 62
     5
100
AcDbBlockBegin
  2
*Paper_Space
 70
     0
 10
0.0
 20
0.0
 30
0.0
  3
*Paper_Space
  1

  0
ENDBLK
  5
2D4
330
2D1
100
AcDbEntity
 67
     1
  8
0
 62
     5
100
AcDbBlockEnd
  0
BLOCK
  5
460
330
456
100
AcDbEntity
  8
0
 62
     5
100
AcDbBlockBegin
  2
*D0
 70
     1
 10
0.0
 20
0.0
 30
0.0
  3
*D0
  1

  0
LINE
  5
13A7
330
456
100
AcDbEntity
  8
寸法
 62
     0
370
    -2
100
AcDbLine
 10
468.9681320752036
 20
297.7474570709881
 30
0.0
 11
466.0514989905751
 21
297.7474570709881
 31
0.0
  0
LINE
  5
13A8
330
456
100
AcDbEntity
  8
寸法
 62
     0
370
    -2
100
AcDbLine
 10
468.4681320752036
 20
277.2474570709881
 30
0.0
 11
466.0514989905751
 21
277.2474570709881
 31
0.0
  0
LINE
  5
13A9
330
456
100
AcDbEntity
  8
寸法
 62
     0
370
    -2
100
AcDbLine
 10
466.5514989905751
 20
296.7474570709881
 30
0.0
 11
466.5514989905751
 21
278.2474570709881
 31
0.0
  0
SOLID
  5
13AA
330
456
100
AcDbEntity
  8
寸法
 62
     0
100
AcDbTrace
 10
466.3848323239084
 20
296.7474570709881
 30
0.0
 11
466.7181656572418
 21
296.7474570709881
 31
0.0
 12
466.5514989905751
 22
297.7474570709881
 32
0.0
 13
466.5514989905751
 23
297.7474570709881
 33
0.0
  0
SOLID
  5
13AB
330
456
100
AcDbEntity
  8
寸法
 62
     0
100
AcDbTrace
 10
466.3848323239084
 20
278.2474570709881
 30
0.0
 11
466.7181656572418
 21
278.2474570709881
 31
0.0
 12
466.5514989905751
 22
277.2474570709881
 32
0.0
 13
466.5514989905751
 23
277.2474570709881
 33
0.0
  0
MTEXT
  5
13AC
330
456
100
AcDbEntity
  8
寸法
 62
     0
100
AcDbMText
 10
466.001498990575
 20
287.4974570709881
 30
0.0
 40
0.7
 41
0.0
 71
     5
 72
     1
  1
20.5Max
 11
0.0000000000000001
 21
1.0
 31
0.0
 73
     1
 44
1.0
  0
POINT
  5
13AD
330
456
100
AcDbEntity
  8
Defpoints
 62
     0
100
AcDbPoint
 10
469.9681320752036
 20
297.7474570709881
 30
0.0
  0
POINT
  5
13AE
330
456
100
AcDbEntity
  8
Defpoints
 62
     0
100
AcDbPoint
 10
469.4681320752037
 20
277.2474570709881
 30
0.0
  0
POINT
  5
13AF
330
456
100
AcDbEntity
  8
Defpoints
 62
     0
100
AcDbPoint
 10
466.5514989905751
 20
277.2474570709881
 30
0.0
  0
ENDBLK
  5
461
330
456
100
AcDbEntity
  8
0
 62
     5
100
AcDbBlockEnd
  0
BLOCK
  5
46C
330
462
100
AcDbEntity
  8
0
 62
     5
100
AcDbBlockBegin
  2
*D1
 70
     1
 10
0.0
 20
0.0
 30
0.0
  3
*D1
  1

  0
LINE
  5
13BD
330
462
100
AcDbEntity
  8
寸法
 62
     0
370
    -2
100
AcDbLine
 10
469.4681320752036
 20
298.247457070988
 30
0.0
 11
469.4681320752036
 21
301.2004825960327
 31
0.0
  0
LINE
  5
13BE
330
462
100
AcDbEntity
  8
寸法
 62
     0
370
    -2
100
AcDbLine
 10
493.9681320752036
 20
298.2474570709881
 30
0.0
 11
493.9681320752036
 21
301.2004825960327
 31
0.0
  0
LINE
  5
13BF
330
462
100
AcDbEntity
  8
寸法
 62
     0
370
    -2
100
AcDbLine
 10
470.4681320752036
 20
300.7004825960327
 30
0.0
 11
492.9681320752036
 21
300.7004825960327
 31
0.0
  0
SOLID
  5
13C0
330
462
100
AcDbEntity
  8
寸法
 62
     0
100
AcDbTrace
 10
470.4681320752036
 20
300.8671492626994
 30
0.0
 11
470.4681320752036
 21
300.533815929366
 31
0.0
 12
469.4681320752036
 22
300.7004825960327
 32
0.0
 13
469.4681320752036
 23
300.7004825960327
 33
0.0
  0
SOLID
  5
13C1
330
462
100
AcDbEntity
  8
寸法
 62
     0
100
AcDbTrace
 10
492.9681320752036
 20
300.8671492626994
 30
0.0
 11
492.9681320752036
 21
300.533815929366
 31
0.0
 12
493.9681320752036
 22
300.7004825960327
 32
0.0
 13
493.9681320752036
 23
300.7004825960327
 33
0.0
  0
MTEXT
  5
13C2
330
462
100
AcDbEntity
  8
寸法
 62
     0
100
AcDbMText
 10
481.7181320752037
 20
301.2504825960327
 30
0.0
 40
0.7
 41
0.0
 71
     5
 72
     1
  1
24.5Max
 73
     1
 44
1.0
  0
POINT
  5
13C3
330
462
100
AcDbEntity
  8
Defpoints
 62
     0
100
AcDbPoint
 10
469.4681320752036
 20
297.2474570709881
 30
0.0
  0
POINT
  5
13C4
330
462
100
AcDbEntity
  8
Defpoints
 62
     0
100
AcDbPoint
 10
493.9681320752036
 20
297.2474570709881
 30
0.0
  0
POINT
  5
13C5
330
462
100
AcDbEntity
  8
Defpoints
 62
     0
100
AcDbPoint
 10
493.9681320752036
 20
300.7004825960327
 30
0.0
  0
ENDBLK
  5
46D
330
462
100
AcDbEntity
  8
0
 62
     5
100
AcDbBlockEnd
  0
BLOCK
  5
4CD
330
4C3
100
AcDbEntity
  8
0
 62
     5
100
AcDbBlockBegin
  2
*D2
 70
     1
 10
0.0
 20
0.0
 30
0.0
  3
*D2
  1

  0
LINE
  5
1454
330
4C3
100
AcDbEntity
  8
寸法
 62
     0
370
    -2
100
AcDbLine
 10
468.4681320752036
 20
277.2474570709881
 30
0.0
 11
466.0905432165826
 21
277.2474570709881
 31
0.0
  0
LINE
  5
1455
330
4C3
100
AcDbEntity
  8
寸法
 62
     0
370
    -2
100
AcDbLine
 10
470.1581320752037
 20
273.247457070988
 30
0.0
 11
466.0905432165826
 21
273.247457070988
 31
0.0
  0
LINE
  5
1456
330
4C3
100
AcDbEntity
  8
寸法
 62
     0
370
    -2
100
AcDbLine
 10
466.5905432165827
 20
276.2474570709881
 30
0.0
 11
466.5905432165827
 21
274.247457070988
 31
0.0
  0
SOLID
  5
1457
330
4C3
100
AcDbEntity
  8
寸法
 62
     0
100
AcDbTrace
 10
466.423876549916
 20
276.2474570709881
 30
0.0
 11
466.7572098832493
 21
276.2474570709881
 31
0.0
 12
466.5905432165827
 22
277.2474570709881
 32
0.0
 13
466.5905432165827
 23
277.2474570709881
 33
0.0
  0
SOLID
  5
1458
330
4C3
100
AcDbEntity
  8
寸法
 62
     0
100
AcDbTrace
 10
466.423876549916
 20
274.247457070988
 30
0.0
 11
466.7572098832493
 21
274.247457070988
 31
0.0
 12
466.5905432165827
 22
273.247457070988
 32
0.0
 13
466.5905432165827
 23
273.247457070988
 33
0.0
  0
MTEXT
  5
1459
330
4C3
100
AcDbEntity
  8
寸法
 62
     0
100
AcDbMText
 10
466.0405432165825
 20
275.247457070988
 30
0.0
 40
0.7
 41
0.0
 71
     5
 72
     1
  1
4.0Min
 11
0.0000000000000001
 21
1.0
 31
0.0
 73
     1
 44
1.0
  0
POINT
  5
145A
330
4C3
100
AcDbEntity
  8
Defpoints
 62
     0
100
AcDbPoint
 10
469.4681320752037
 20
277.2474570709881
 30
0.0
  0
POINT
  5
145B
330
4C3
100
AcDbEntity
  8
Defpoints
 62
     0
100
AcDbPoint
 10
471.1581320752037
 20
273.247457070988
 30
0.0
  0
POINT
  5
145C
330
4C3
100
AcDbEntity
  8
Defpoints
 62
     0
100
AcDbPoint
 10
466.5905432165827
 20
273.247457070988
 30
0.0
  0
ENDBLK
  5
4CE
330
4C3
100
AcDbEntity
  8
0
 62
     5
100
AcDbBlockEnd
  0
BLOCK
  5
547
330
53D
100
AcDbEntity
  8
0
 62
     5
100
AcDbBlockBegin
  2
*D3
 70
     1
 10
0.0
 20
0.0
 30
0.0
  3
*D3
  1

  0
LINE
  5
13F9
330
53D
100
AcDbEntity
  8
寸法
 62
     0
370
    -2
100
AcDbLine
 10
471.5581320752035
 20
272.247457070988
 30
0.0
 11
471.5581320752035
 21
269.7949177453136
 31
0.0
  0
LINE
  5
13FA
330
53D
100
AcDbEntity
  8
寸法
 62
     0
370
    -2
100
AcDbLine
 10
474.0981320752036
 20
272.247457070988
 30
0.0
 11
474.0981320752036
 21
269.7949177453136
 31
0.0
  0
LINE
  5
13FB
330
53D
100
AcDbEntity
  8
寸法
 62
     0
370
    -2
100
AcDbLine
 10
473.0981320752035
 20
270.2949177453136
 30
0.0
 11
472.5581320752036
 21
270.2949177453136
 31
0.0
  0
LINE
  5
13FC
330
53D
100
AcDbEntity
  8
寸法
 62
     0
370
    -2
100
AcDbLine
 10
471.5581320752035
 20
270.2949177453136
 30
0.0
 11
468.0581320752036
 21
270.2949177453136
 31
0.0
  0
SOLID
  5
13FD
330
53D
100
AcDbEntity
  8
寸法
 62
     0
100
AcDbTrace
 10
473.0981320752035
 20
270.4615844119803
 30
0.0
 11
473.0981320752035
 21
270.1282510786469
 31
0.0
 12
474.0981320752036
 22
270.2949177453136
 32
0.0
 13
474.0981320752036
 23
270.2949177453136
 33
0.0
  0
SOLID
  5
13FE
330
53D
100
AcDbEntity
  8
寸法
 62
     0
100
AcDbTrace
 10
472.5581320752036
 20
270.4615844119803
 30
0.0
 11
472.5581320752036
 21
270.1282510786469
 31
0.0
 12
471.5581320752035
 22
270.2949177453136
 32
0.0
 13
471.5581320752035
 23
270.2949177453136
 33
0.0
  0
MTEXT
  5
13FF
330
53D
100
AcDbEntity
  8
寸法
 62
     0
100
AcDbMText
 10
469.3081320752035
 20
270.8449177453136
 30
0.0
 40
0.7
 41
0.0
 71
     5
 72
     1
  1
2.54
 73
     1
 44
1.0
  0
POINT
  5
1400
330
53D
100
AcDbEntity
  8
Defpoints
 62
     0
100
AcDbPoint
 10
471.5581320752035
 20
273.247457070988
 30
0.0
  0
POINT
  5
1401
330
53D
100
AcDbEntity
  8
Defpoints
 62
     0
100
AcDbPoint
 10
474.0981320752036
 20
273.247457070988
 30
0.0
  0
POINT
  5
1402
330
53D
100
AcDbEntity
  8
Defpoints
 62
     0
100
AcDbPoint
 10
474.0981320752036
 20
270.2949177453136
 30
0.0
  0
ENDBLK
  5
548
330
53D
100
AcDbEntity
  8
0
 62
     5
100
AcDbBlockEnd
  0
BLOCK
  5
553
330
549
100
AcDbEntity
  8
0
 62
     5
100
AcDbBlockBegin
  2
*D4
 70
     1
 10
0.0
 20
0.0
 30
0.0
  3
*D4
  1

  0
LINE
  5
13E6
330
549
100
AcDbEntity
  8
寸法
 62
     0
370
    -2
100
AcDbLine
 10
474.0981320752036
 20
272.247457070988
 30
0.0
 11
474.0981320752036
 21
269.7949177453136
 31
0.0
  0
LINE
  5
13E7
330
549
100
AcDbEntity
  8
寸法
 62
     0
370
    -2
100
AcDbLine
 10
484.2581320752036
 20
272.247457070988
 30
0.0
 11
484.2581320752036
 21
269.7949177453136
 31
0.0
  0
LINE
  5
13E8
330
549
100
AcDbEntity
  8
寸法
 62
     0
370
    -2
100
AcDbLine
 10
475.0981320752036
 20
270.2949177453136
 30
0.0
 11
483.2581320752036
 21
270.2949177453136
 31
0.0
  0
SOLID
  5
13E9
330
549
100
AcDbEntity
  8
寸法
 62
     0
100
AcDbTrace
 10
475.0981320752036
 20
270.4615844119803
 30
0.0
 11
475.0981320752036
 21
270.1282510786469
 31
0.0
 12
474.0981320752036
 22
270.2949177453136
 32
0.0
 13
474.0981320752036
 23
270.2949177453136
 33
0.0
  0
SOLID
  5
13EA
330
549
100
AcDbEntity
  8
寸法
 62
     0
100
AcDbTrace
 10
483.2581320752036
 20
270.4615844119803
 30
0.0
 11
483.2581320752036
 21
270.1282510786469
 31
0.0
 12
484.2581320752036
 22
270.2949177453136
 32
0.0
 13
484.2581320752036
 23
270.2949177453136
 33
0.0
  0
MTEXT
  5
13EB
330
549
100
AcDbEntity
  8
寸法
 62
     0
100
AcDbMText
 10
479.1781320752035
 20
270.8449177453136
 30
0.0
 40
0.7
 41
0.0
 71
     5
 72
     1
  1
10.16
 73
     1
 44
1.0
  0
POINT
  5
13EC
330
549
100
AcDbEntity
  8
Defpoints
 62
     0
100
AcDbPoint
 10
474.0981320752036
 20
273.247457070988
 30
0.0
  0
POINT
  5
13ED
330
549
100
AcDbEntity
  8
Defpoints
 62
     0
100
AcDbPoint
 10
484.2581320752036
 20
273.247457070988
 30
0.0
  0
POINT
  5
13EE
330
549
100
AcDbEntity
  8
Defpoints
 62
     0
100
AcDbPoint
 10
484.2581320752036
 20
270.2949177453136
 30
0.0
  0
ENDBLK
  5
554
330
549
100
AcDbEntity
  8
0
 62
     5
100
AcDbBlockEnd
  0
BLOCK
  5
55F
330
555
100
AcDbEntity
  8
0
 62
     5
100
AcDbBlockBegin
  2
*D5
 70
     1
 10
0.0
 20
0.0
 30
0.0
  3
*D5
  1

  0
LINE
  5
1403
330
555
100
AcDbEntity
  8
寸法
 62
     0
370
    -2
100
AcDbLine
 10
484.2581320752036
 20
272.247457070988
 30
0.0
 11
484.2581320752036
 21
269.7949177453136
 31
0.0
  0
LINE
  5
1404
330
555
100
AcDbEntity
  8
寸法
 62
     0
370
    -2
100
AcDbLine
 10
491.8781320752038
 20
272.247457070988
 30
0.0
 11
491.8781320752038
 21
269.7949177453136
 31
0.0
  0
LINE
  5
1405
330
555
100
AcDbEntity
  8
寸法
 62
     0
370
    -2
100
AcDbLine
 10
485.2581320752036
 20
270.2949177453136
 30
0.0
 11
490.8781320752037
 21
270.2949177453136
 31
0.0
  0
SOLID
  5
1406
330
555
100
AcDbEntity
  8
寸法
 62
     0
100
AcDbTrace
 10
485.2581320752036
 20
270.4615844119803
 30
0.0
 11
485.2581320752036
 21
270.1282510786469
 31
0.0
 12
484.2581320752036
 22
270.2949177453136
 32
0.0
 13
484.2581320752036
 23
270.2949177453136
 33
0.0
  0
SOLID
  5
1407
330
555
100
AcDbEntity
  8
寸法
 62
     0
100
AcDbTrace
 10
490.8781320752037
 20
270.4615844119803
 30
0.0
 11
490.8781320752037
 21
270.1282510786469
 31
0.0
 12
491.8781320752038
 22
270.2949177453136
 32
0.0
 13
491.8781320752038
 23
270.2949177453136
 33
0.0
  0
MTEXT
  5
1408
330
555
100
AcDbEntity
  8
寸法
 62
     0
100
AcDbMText
 10
488.0681320752036
 20
270.8449177453136
 30
0.0
 40
0.7
 41
0.0
 71
     5
 72
     1
  1
7.62
 73
     1
 44
1.0
  0
POINT
  5
1409
330
555
100
AcDbEntity
  8
Defpoints
 62
     0
100
AcDbPoint
 10
484.2581320752036
 20
273.247457070988
 30
0.0
  0
POINT
  5
140A
330
555
100
AcDbEntity
  8
Defpoints
 62
     0
100
AcDbPoint
 10
491.8781320752038
 20
273.247457070988
 30
0.0
  0
POINT
  5
140B
330
555
100
AcDbEntity
  8
Defpoints
 62
     0
100
AcDbPoint
 10
491.8781320752038
 20
270.2949177453136
 30
0.0
  0
ENDBLK
  5
560
330
555
100
AcDbEntity
  8
0
 62
     5
100
AcDbBlockEnd
  0
BLOCK
  5
706
330
6FA
100
AcDbEntity
  8
0
 62
     5
100
AcDbBlockBegin
  2
*D6
 70
     1
 10
0.0
 20
0.0
 30
0.0
  3
*D6
  1

  0
LINE
  5
1439
330
6FA
100
AcDbEntity
  8
寸法
 62
     0
370
    -2
100
AcDbLine
 10
485.6081320752037
 20
273.8142448906515
 30
0.0
 11
486.6081320752036
 21
273.8142448906515
 31
0.0
  0
LINE
  5
143A
330
6FA
100
AcDbEntity
  8
寸法
 62
     0
370
    -2
100
AcDbLine
 10
482.9081320752036
 20
273.8142448906515
 30
0.0
 11
480.2247987418703
 21
273.8142448906515
 31
0.0
  0
SOLID
  5
143B
330
6FA
100
AcDbEntity
  8
寸法
 62
     0
100
AcDbTrace
 10
485.6081320752037
 20
273.9809115573182
 30
0.0
 11
485.6081320752037
 21
273.6475782239849
 31
0.0
 12
484.6081320752037
 22
273.8142448906515
 32
0.0
 13
484.6081320752037
 23
273.8142448906515
 33
0.0
  0
SOLID
  5
143C
330
6FA
100
AcDbEntity
  8
寸法
 62
     0
100
AcDbTrace
 10
482.9081320752036
 20
273.9809115573182
 30
0.0
 11
482.9081320752036
 21
273.6475782239849
 31
0.0
 12
483.9081320752036
 22
273.8142448906515
 32
0.0
 13
483.9081320752036
 23
273.8142448906515
 33
0.0
  0
MTEXT
  5
143D
330
6FA
100
AcDbEntity
  8
寸法
 62
     0
100
AcDbMText
 10
481.066465408537
 20
274.3642448906516
 30
0.0
 40
0.7
 41
0.0
 71
     5
 72
     1
  1
0.7
 73
     1
 44
1.0
  0
POINT
  5
143E
330
6FA
100
AcDbEntity
  8
Defpoints
 62
     0
100
AcDbPoint
 10
484.6081320752037
 20
273.247457070988
 30
0.0
  0
POINT
  5
143F
330
6FA
100
AcDbEntity
  8
Defpoints
 62
     0
100
AcDbPoint
 10
483.9081320752036
 20
273.247457070988
 30
0.0
  0
POINT
  5
1440
330
6FA
100
AcDbEntity
  8
Defpoints
 62
     0
100
AcDbPoint
 10
483.9081320752036
 20
273.8142448906515
 30
0.0
  0
ENDBLK
  5
707
330
6FA
100
AcDbEntity
  8
0
 62
     5
100
AcDbBlockEnd
  0
BLOCK
  5
74F
330
745
100
AcDbEntity
  8
0
 62
     5
100
AcDbBlockBegin
  2
*D7
 70
     1
 10
0.0
 20
0.0
 30
0.0
  3
*D7
  1

  0
LINE
  5
1391
330
745
100
AcDbEntity
  8
寸法
 62
     0
370
    -2
100
AcDbLine
 10
508.6838593277485
 20
298.247457070988
 30
0.0
 11
508.6838593277485
 21
300.9601779127306
 31
0.0
  0
LINE
  5
1392
330
745
100
AcDbEntity
  8
寸法
 62
     0
370
    -2
100
AcDbLine
 10
514.1838593277488
 20
298.2474570709881
 30
0.0
 11
514.1838593277488
 21
300.9601779127306
 31
0.0
  0
LINE
  5
1393
330
745
100
AcDbEntity
  8
寸法
 62
     0
370
    -2
100
AcDbLine
 10
509.6838593277486
 20
300.4601779127306
 30
0.0
 11
513.1838593277487
 21
300.4601779127306
 31
0.0
  0
SOLID
  5
1394
330
745
100
AcDbEntity
  8
寸法
 62
     0
100
AcDbTrace
 10
509.6838593277486
 20
300.6268445793973
 30
0.0
 11
509.6838593277486
 21
300.2935112460639
 31
0.0
 12
508.6838593277485
 22
300.4601779127306
 32
0.0
 13
508.6838593277485
 23
300.4601779127306
 33
0.0
  0
SOLID
  5
1395
330
745
100
AcDbEntity
  8
寸法
 62
     0
100
AcDbTrace
 10
513.1838593277487
 20
300.6268445793973
 30
0.0
 11
513.1838593277487
 21
300.2935112460639
 31
0.0
 12
514.1838593277488
 22
300.4601779127306
 32
0.0
 13
514.1838593277488
 23
300.4601779127306
 33
0.0
  0
MTEXT
  5
1396
330
745
100
AcDbEntity
  8
寸法
 62
     0
100
AcDbMText
 10
511.4338593277486
 20
301.0101779127306
 30
0.0
 40
0.7
 41
0.0
 71
     5
 72
     1
  1
5.5Max
 73
     1
 44
1.0
  0
POINT
  5
1397
330
745
100
AcDbEntity
  8
Defpoints
 62
     0
100
AcDbPoint
 10
508.6838593277485
 20
297.2474570709881
 30
0.0
  0
POINT
  5
1398
330
745
100
AcDbEntity
  8
Defpoints
 62
     0
100
AcDbPoint
 10
514.1838593277488
 20
297.2474570709881
 30
0.0
  0
POINT
  5
1399
330
745
100
AcDbEntity
  8
Defpoints
 62
     0
100
AcDbPoint
 10
514.1838593277488
 20
300.4601779127306
 30
0.0
  0
ENDBLK
  5
750
330
745
100
AcDbEntity
  8
0
 62
     5
100
AcDbBlockEnd
  0
BLOCK
  5
79D
330
791
100
AcDbEntity
  8
0
 62
     5
100
AcDbBlockBegin
  2
*D8
 70
     1
 10
0.0
 20
0.0
 30
0.0
  3
*D8
  1

  0
LINE
  5
137E
330
791
100
AcDbEntity
  8
寸法
 62
     0
370
    -2
100
AcDbLine
 10
509.4838593277485
 20
274.247457070988
 30
0.0
 11
509.4838593277485
 21
274.3142448906516
 31
0.0
  0
LINE
  5
137F
330
791
100
AcDbEntity
  8
寸法
 62
     0
370
    -2
100
AcDbLine
 10
509.8838593277484
 20
274.247457070988
 30
0.0
 11
509.8838593277484
 21
274.3142448906516
 31
0.0
  0
LINE
  5
1380
330
791
100
AcDbEntity
  8
寸法
 62
     0
370
    -2
100
AcDbLine
 10
508.4838593277485
 20
273.8142448906515
 30
0.0
 11
507.4838593277485
 21
273.8142448906515
 31
0.0
  0
LINE
  5
1381
330
791
100
AcDbEntity
  8
寸法
 62
     0
370
    -2
100
AcDbLine
 10
510.8838593277485
 20
273.8142448906515
 30
0.0
 11
511.8838593277484
 21
273.8142448906515
 31
0.0
  0
SOLID
  5
1382
330
791
100
AcDbEntity
  8
寸法
 62
     0
100
AcDbTrace
 10
508.4838593277485
 20
273.9809115573182
 30
0.0
 11
508.4838593277485
 21
273.6475782239849
 31
0.0
 12
509.4838593277485
 22
273.8142448906515
 32
0.0
 13
509.4838593277485
 23
273.8142448906515
 33
0.0
  0
SOLID
  5
1383
330
791
100
AcDbEntity
  8
寸法
 62
     0
100
AcDbTrace
 10
510.8838593277485
 20
273.9809115573182
 30
0.0
 11
510.8838593277485
 21
273.6475782239849
 31
0.0
 12
509.8838593277484
 22
273.8142448906515
 32
0.0
 13
509.8838593277484
 23
273.8142448906515
 33
0.0
  0
MTEXT
  5
1384
330
791
100
AcDbEntity
  8
寸法
 62
     0
100
AcDbMText
 10
513.5421926610818
 20
273.8142448906515
 30
0.0
 40
0.7
 41
0.0
 71
     5
 72
     1
  1
0.4Min
 73
     1
 44
1.0
  0
POINT
  5
1385
330
791
100
AcDbEntity
  8
Defpoints
 62
     0
100
AcDbPoint
 10
509.4838593277485
 20
273.247457070988
 30
0.0
  0
POINT
  5
1386
330
791
100
AcDbEntity
  8
Defpoints
 62
     0
100
AcDbPoint
 10
509.8838593277484
 20
273.247457070988
 30
0.0
  0
POINT
  5
1387
330
791
100
AcDbEntity
  8
Defpoints
 62
     0
100
AcDbPoint
 10
509.8838593277484
 20
273.8142448906515
 30
0.0
  0
ENDBLK
  5
79E
330
791
100
AcDbEntity
  8
0
 62
     5
100
AcDbBlockEnd
  0
BLOCK
  5
84D
330
841
100
AcDbEntity
  8
0
 62
     5
100
AcDbBlockBegin
  2
*D9
 70
     1
 10
0.0
 20
0.0
 30
0.0
  3
*D9
  1

  0
LINE
  5
140D
330
841
100
AcDbEntity
  8
寸法
 62
     0
370
    -2
100
AcDbLine
 10
508.6838593277485
 20
275.9474570709881
 30
0.0
 11
508.6838593277485
 21
269.7949177453136
 31
0.0
  0
LINE
  5
140E
330
841
100
AcDbEntity
  8
寸法
 62
     0
370
    -2
100
AcDbLine
 10
509.6838593277484
 20
272.247457070988
 30
0.0
 11
509.6838593277484
 21
269.7949177453136
 31
0.0
  0
LINE
  5
140F
330
841
100
AcDbEntity
  8
寸法
 62
     0
370
    -2
100
AcDbLine
 10
507.6838593277486
 20
270.2949177453136
 30
0.0
 11
506.6838593277486
 21
270.2949177453136
 31
0.0
  0
LINE
  5
1410
330
841
100
AcDbEntity
  8
寸法
 62
     0
370
    -2
100
AcDbLine
 10
510.6838593277485
 20
270.2949177453136
 30
0.0
 11
511.6838593277485
 21
270.2949177453136
 31
0.0
  0
SOLID
  5
1411
330
841
100
AcDbEntity
  8
寸法
 62
     0
100
AcDbTrace
 10
507.6838593277486
 20
270.4615844119803
 30
0.0
 11
507.6838593277486
 21
270.1282510786469
 31
0.0
 12
508.6838593277485
 22
270.2949177453136
 32
0.0
 13
508.6838593277485
 23
270.2949177453136
 33
0.0
  0
SOLID
  5
1412
330
841
100
AcDbEntity
  8
寸法
 62
     0
100
AcDbTrace
 10
510.6838593277485
 20
270.4615844119803
 30
0.0
 11
510.6838593277485
 21
270.1282510786469
 31
0.0
 12
509.6838593277484
 22
270.2949177453136
 32
0.0
 13
509.6838593277484
 23
270.2949177453136
 33
0.0
  0
MTEXT
  5
1413
330
841
100
AcDbEntity
  8
寸法
 62
     0
100
AcDbMText
 10
512.4671926610818
 20
270.2949177453136
 30
0.0
 40
0.7
 41
0.0
 71
     5
 72
     1
  1
1,0
 73
     1
 44
1.0
  0
POINT
  5
1414
330
841
100
AcDbEntity
  8
Defpoints
 62
     0
100
AcDbPoint
 10
508.6838593277485
 20
276.9474570709881
 30
0.0
  0
POINT
  5
1415
330
841
100
AcDbEntity
  8
Defpoints
 62
     0
100
AcDbPoint
 10
509.6838593277484
 20
273.247457070988
 30
0.0
  0
POINT
  5
1416
330
841
100
AcDbEntity
  8
Defpoints
 62
     0
100
AcDbPoint
 10
509.6838593277484
 20
270.2949177453136
 30
0.0
  0
ENDBLK
  5
84E
330
841
100
AcDbEntity
  8
0
 62
     5
100
AcDbBlockEnd
  0
ENDSEC
  0
SECTION
  2
ENTITIES
  0
MTEXT
  5
CA
330
1F
100
AcDbEntity
  8
外形
100
AcDbMText
 10
485.7556596497618
 20
272.1455976787055
 30
0.0
 40
0.7
 41
0.5
 71
     5
 72
     5
  1
{\fＭＳ ゴシック|b0|i0|c128|p49;2}
 73
     1
 44
1.0
  0
MTEXT
  5
F7
330
1F
100
AcDbEntity
  8
外形
100
AcDbMText
 10
467.619106209026
 20
314.593044873069
 30
0.0
 40
2.5
 41
15.32881114699549
 71
     5
 72
     5
  1
{\fMS UI Gothic|b0|i0|c128|p17;外形寸法}
 73
     1
 44
1.0
  0
LINE
  5
44F
330
1F
100
AcDbEntity
  8
外形
100
AcDbLine
 10
469.4681320752036
 20
297.2474570709881
 30
0.0
 11
469.4681320752037
 21
277.2474570709881
 31
0.0
  0
LINE
  5
450
330
1F
100
AcDbEntity
  8
外形
100
AcDbLine
 10
493.9681320752036
 20
297.2474570709881
 30
0.0
 11
493.9681320752036
 21
277.2474570709881
 31
0.0
  0
LINE
  5
451
330
1F
100
AcDbEntity
  8
外形
100
AcDbLine
 10
469.9681320752036
 20
297.7474570709881
 30
0.0
 11
493.4681320752036
 21
297.7474570709881
 31
0.0
  0
LINE
  5
452
330
1F
100
AcDbEntity
  8
外形
100
AcDbLine
 10
493.9681320752036
 20
277.2474570709881
 30
0.0
 11
492.8281320752037
 21
277.2474570709881
 31
0.0
  0
DIMENSION
  5
454
330
1F
100
AcDbEntity
  8
寸法
 62
     5
100
AcDbDimension
  2
*D1
 10
493.9681320752036
 20
300.7004825960327
 30
0.0
 11
481.7181320752037
 21
301.2504825960327
 31
0.0
 70
    32
 71
     5
 42
24.50000000000005
  3
ISO-25
100
AcDbAlignedDimension
 13
469.4681320752036
 23
297.2474570709881
 33
0.0
 14
493.9681320752036
 24
297.2474570709881
 34
0.0
100
AcDbRotatedDimension
1001
ACAD
1000
DSTYLE
1002
{
1070
     3
1000
Max
1002
}
  0
DIMENSION
  5
455
330
1F
100
AcDbEntity
  8
寸法
 62
     5
100
AcDbDimension
  2
*D0
 10
466.5514989905751
 20
277.2474570709881
 30
0.0
 11
466.001498990575
 21
287.4974570709881
 31
0.0
 70
    32
 71
     5
 42
20.5
  3
ISO-25
100
AcDbAlignedDimension
 13
469.9681320752036
 23
297.7474570709881
 33
0.0
 14
469.4681320752037
 24
277.2474570709881
 34
0.0
 50
90.0
100
AcDbRotatedDimension
1001
ACAD
1000
DSTYLE
1002
{
1070
     3
1000
Max
1002
}
  0
DIMENSION
  5
4BF
330
1F
100
AcDbEntity
  8
寸法
 62
     5
100
AcDbDimension
  2
*D2
 10
466.5905432165827
 20
273.247457070988
 30
0.0
 11
466.0405432165825
 21
275.247457070988
 31
0.0
 70
    32
  1
<>
 71
     5
 42
4.000000000000056
  3
ISO-25
100
AcDbAlignedDimension
 13
469.4681320752037
 23
277.2474570709881
 33
0.0
 14
471.1581320752037
 24
273.247457070988
 34
0.0
 50
90.0
100
AcDbRotatedDimension
1001
ACAD
1000
DSTYLE
1002
{
1070
     3
1000
.0Min
1070
   271
1070
     1
1002
}
  0
LINE
  5
4EC
330
1F
100
AcDbEntity
  8
外形
100
AcDbLine
 10
472.1081320752037
 20
276.9474570709881
 30
0.0
 11
470.6081320752038
 21
276.9474570709881
 31
0.0
  0
LINE
  5
4ED
330
1F
100
AcDbEntity
  8
外形
100
AcDbLine
 10
472.1081320752037
 20
276.9474570709881
 30
0.0
 11
472.1081320752037
 21
277.2474570709881
 31
0.0
  0
LINE
  5
52A
330
1F
100
AcDbEntity
  8
外形
100
AcDbLine
 10
470.6081320752036
 20
276.9474570709881
 30
0.0
 11
470.6081320752036
 21
277.2474570709881
 31
0.0
  0
DIMENSION
  5
53A
330
1F
100
AcDbEntity
  8
寸法
 62
     5
100
AcDbDimension
  2
*D4
 10
484.2581320752036
 20
270.2949177453136
 30
0.0
 11
479.1781320752035
 21
270.2949177453136
 31
0.0
 70
   160
 71
     5
 42
10.16000000000002
  3
ISO-25
100
AcDbAlignedDimension
 13
474.0981320752036
 23
273.247457070988
 33
0.0
 14
484.2581320752036
 24
273.247457070988
 34
0.0
100
AcDbRotatedDimension
  0
DIMENSION
  5
53B
330
1F
100
AcDbEntity
  8
寸法
 62
     5
100
AcDbDimension
  2
*D5
 10
491.8781320752038
 20
270.2949177453136
 30
0.0
 11
488.0681320752036
 21
270.2949177453136
 31
0.0
 70
   160
 71
     5
 42
7.620000000000118
  3
ISO-25
100
AcDbAlignedDimension
 13
484.2581320752036
 23
273.247457070988
 33
0.0
 14
491.8781320752038
 24
273.247457070988
 34
0.0
100
AcDbRotatedDimension
  0
DIMENSION
  5
53C
330
1F
100
AcDbEntity
  8
寸法
 62
     5
100
AcDbDimension
  2
*D3
 10
474.0981320752036
 20
270.2949177453136
 30
0.0
 11
469.3081320752035
 21
270.2949177453136
 31
0.0
 70
   160
 71
     5
 42
2.539999999999963
  3
ISO-25
100
AcDbAlignedDimension
 13
471.5581320752035
 23
273.247457070988
 33
0.0
 14
474.0981320752036
 24
273.247457070988
 34
0.0
100
AcDbRotatedDimension
  0
LINE
  5
57D
330
1F
100
AcDbEntity
  8
外形
100
AcDbLine
 10
471.2081320752036
 20
276.947457070988
 30
0.0
 11
471.2081320752036
 21
273.247457070988
 31
0.0
  0
LINE
  5
57E
330
1F
100
AcDbEntity
  8
外形
100
AcDbLine
 10
471.9081320752036
 20
276.9474570709881
 30
0.0
 11
471.9081320752036
 21
273.247457070988
 31
0.0
  0
LINE
  5
57F
330
1F
100
AcDbEntity
  8
外形
100
AcDbLine
 10
471.9081320752036
 20
273.247457070988
 30
0.0
 11
471.2081320752036
 21
273.247457070988
 31
0.0
  0
LINE
  5
580
330
1F
100
AcDbEntity
  8
外形
100
AcDbLine
 10
491.5281320752037
 20
276.9474570709881
 30
0.0
 11
491.5281320752037
 21
273.247457070988
 31
0.0
  0
LINE
  5
581
330
1F
100
AcDbEntity
  8
外形
100
AcDbLine
 10
492.2281320752037
 20
276.947457070988
 30
0.0
 11
492.2281320752038
 21
273.247457070988
 31
0.0
  0
LINE
  5
582
330
1F
100
AcDbEntity
  8
外形
100
AcDbLine
 10
491.5281320752037
 20
273.247457070988
 30
0.0
 11
492.2281320752038
 21
273.247457070988
 31
0.0
  0
LINE
  5
583
330
1F
100
AcDbEntity
  8
外形
100
AcDbLine
 10
491.3281320752036
 20
276.9474570709881
 30
0.0
 11
491.3281320752036
 21
277.2474570709881
 31
0.0
  0
LINE
  5
585
330
1F
100
AcDbEntity
  8
外形
100
AcDbLine
 10
491.3281320752036
 20
276.9474570709881
 30
0.0
 11
492.8281320752035
 21
276.9474570709881
 31
0.0
  0
LINE
  5
586
330
1F
100
AcDbEntity
  8
外形
100
AcDbLine
 10
492.8281320752037
 20
276.9474570709881
 30
0.0
 11
492.8281320752037
 21
277.2474570709881
 31
0.0
  0
LINE
  5
588
330
1F
100
AcDbEntity
  8
外形
100
AcDbLine
 10
474.4481320752036
 20
277.2474570709881
 30
0.0
 11
474.4481320752036
 21
273.247457070988
 31
0.0
  0
LINE
  5
589
330
1F
100
AcDbEntity
  8
外形
100
AcDbLine
 10
474.4481320752036
 20
273.247457070988
 30
0.0
 11
473.7481320752036
 21
273.247457070988
 31
0.0
  0
LINE
  5
58A
330
1F
100
AcDbEntity
  8
外形
100
AcDbLine
 10
473.7481320752037
 20
277.2474570709881
 30
0.0
 11
473.7481320752036
 21
273.247457070988
 31
0.0
  0
LINE
  5
58B
330
1F
100
AcDbEntity
  8
外形
100
AcDbLine
 10
483.9081320752036
 20
277.2474570709881
 30
0.0
 11
483.9081320752036
 21
273.247457070988
 31
0.0
  0
LINE
  5
58C
330
1F
100
AcDbEntity
  8
外形
100
AcDbLine
 10
484.6081320752037
 20
277.2474570709881
 30
0.0
 11
484.6081320752037
 21
273.247457070988
 31
0.0
  0
LINE
  5
58D
330
1F
100
AcDbEntity
  8
外形
100
AcDbLine
 10
484.6081320752037
 20
273.247457070988
 30
0.0
 11
483.9081320752036
 21
273.247457070988
 31
0.0
  0
CIRCLE
  5
5F2
330
1F
100
AcDbEntity
  8
外形
100
AcDbCircle
 10
485.7556596497618
 20
272.1455976787055
 30
0.0
 40
0.5
  0
LINE
  5
651
330
1F
100
AcDbEntity
  8
外形
 62
     1
100
AcDbLine
 10
471.5581320752037
 20
237.4912011674584
 30
0.0
 11
471.5581320752037
 21
235.4912011674584
 31
0.0
  0
LINE
  5
652
330
1F
100
AcDbEntity
  8
外形
 62
     1
100
AcDbLine
 10
484.2581320752038
 20
237.4912011674584
 30
0.0
 11
484.2581320752038
 21
235.4912011674584
 31
0.0
  0
LINE
  5
654
330
1F
100
AcDbEntity
  8
外形
 62
     1
100
AcDbLine
 10
470.5581320752037
 20
236.4912011674583
 30
0.0
 11
492.8781320752038
 21
236.4912011674583
 31
0.0
  0
CIRCLE
  5
657
330
1F
100
AcDbEntity
  8
外形
100
AcDbCircle
 10
474.0981320752037
 20
236.4912011674583
 30
0.0
 40
0.5
  0
LINE
  5
658
330
1F
100
AcDbEntity
  8
外形
 62
     1
100
AcDbLine
 10
474.0981320752037
 20
237.4912011674584
 30
0.0
 11
474.0981320752037
 21
235.4912011674584
 31
0.0
  0
CIRCLE
  5
65A
330
1F
100
AcDbEntity
  8
外形
100
AcDbCircle
 10
491.8781320752038
 20
236.4912011674583
 30
0.0
 40
0.5
  0
LINE
  5
65B
330
1F
100
AcDbEntity
  8
外形
 62
     1
100
AcDbLine
 10
491.8781320752038
 20
237.4912011674584
 30
0.0
 11
491.8781320752038
 21
235.4912011674584
 31
0.0
  0
MTEXT
  5
65D
330
1F
100
AcDbEntity
  8
寸法
 62
     5
100
AcDbMText
 10
495.4786165298724
 20
238.9579262402649
 30
0.0
 40
0.7
 41
0.0
 71
     8
 72
     1
  1
{\fMS UI Gothic|b0|i0|c128|p17;4-φ1}
 73
     2
 44
1.0
  0
CIRCLE
  5
65E
330
1F
100
AcDbEntity
  8
外形
100
AcDbCircle
 10
471.5581320752037
 20
236.4912011674584
 30
0.0
 40
0.5
  0
CIRCLE
  5
661
330
1F
100
AcDbEntity
  8
外形
100
AcDbCircle
 10
484.2581320752038
 20
236.4912011674584
 30
0.0
 40
0.5
  0
MTEXT
  5
6F1
330
1F
100
AcDbEntity
  8
外形
100
AcDbMText
 10
493.3756596497619
 20
272.1455976787055
 30
0.0
 40
0.7
 41
0.5
 71
     5
 72
     5
  1
{\fＭＳ ゴシック|b0|i0|c128|p49;1}
 73
     1
 44
1.0
  0
CIRCLE
  5
6F2
330
1F
100
AcDbEntity
  8
外形
100
AcDbCircle
 10
493.3756596497619
 20
272.1455976787055
 30
0.0
 40
0.5
  0
CIRCLE
  5
6F3
330
1F
100
AcDbEntity
  8
外形
100
AcDbCircle
 10
475.5956596497617
 20
272.1455976787058
 30
0.0
 40
0.5
  0
MTEXT
  5
6F4
330
1F
100
AcDbEntity
  8
外形
100
AcDbMText
 10
475.5956596497617
 20
272.1455976787058
 30
0.0
 40
0.7
 41
0.5
 71
     5
 72
     5
  1
{\fＭＳ ゴシック|b0|i0|c128|p49;3}
 73
     1
 44
1.0
  0
CIRCLE
  5
6F5
330
1F
100
AcDbEntity
  8
外形
100
AcDbCircle
 10
470.0606045006455
 20
272.1455976787055
 30
0.0
 40
0.5
  0
MTEXT
  5
6F8
330
1F
100
AcDbEntity
  8
外形
100
AcDbMText
 10
470.0606045006455
 20
272.1455976787057
 30
0.0
 40
0.7
 41
0.5
 71
     5
 72
     5
  1
{\fＭＳ ゴシック|b0|i0|c128|p49;4}
 73
     1
 44
1.0
  0
DIMENSION
  5
6F9
330
1F
100
AcDbEntity
  8
寸法
 62
     5
100
AcDbDimension
  2
*D6
 10
483.9081320752036
 20
273.8142448906515
 30
0.0
 11
481.066465408537
 21
274.3642448906516
 31
0.0
 70
    32
 71
     5
 42
0.6999999999999887
  3
ISO-25
100
AcDbAlignedDimension
 13
484.6081320752037
 23
273.247457070988
 33
0.0
 14
483.9081320752036
 24
273.247457070988
 34
0.0
100
AcDbRotatedDimension
1001
ACAD
1000
DSTYLE
1002
{
1070
    76
1070
     1
1070
    75
1070
     1
1070
   172
1070
     0
1002
}
  0
ARC
  5
73E
330
1F
100
AcDbEntity
  8
外形
100
AcDbCircle
 10
493.4681320752036
 20
297.2474570709881
 30
0.0
 40
0.5
100
AcDbArc
 50
0.0
 51
90.0
  0
ARC
  5
73F
330
1F
100
AcDbEntity
  8
外形
100
AcDbCircle
 10
469.9681320752036
 20
297.2474570709881
 30
0.0
 40
0.5
100
AcDbArc
 50
90.00000000000014
 51
180.0
  0
LINE
  5
740
330
1F
100
AcDbEntity
  8
外形
100
AcDbLine
 10
514.1838593277486
 20
297.2474570709881
 30
0.0
 11
514.1838593277486
 21
276.9474570709881
 31
0.0
  0
LINE
  5
741
330
1F
100
AcDbEntity
  8
外形
100
AcDbLine
 10
509.1838593277485
 20
297.7474570709881
 30
0.0
 11
513.6838593277486
 21
297.7474570709881
 31
0.0
  0
LINE
  5
743
330
1F
100
AcDbEntity
  8
外形
100
AcDbLine
 10
513.6838593277486
 20
277.2474570709881
 30
0.0
 11
509.1838593277485
 21
277.2474570709881
 31
0.0
  0
DIMENSION
  5
744
330
1F
100
AcDbEntity
  8
寸法
 62
     5
100
AcDbDimension
  2
*D7
 10
514.1838593277488
 20
300.4601779127306
 30
0.0
 11
511.4338593277486
 21
301.0101779127306
 31
0.0
 70
    32
 71
     5
 42
5.50000000000017
  3
ISO-25
100
AcDbAlignedDimension
 13
508.6838593277485
 23
297.2474570709881
 33
0.0
 14
514.1838593277488
 24
297.2474570709881
 34
0.0
100
AcDbRotatedDimension
1001
ACAD
1000
DSTYLE
1002
{
1070
     3
1000
Max
1002
}
  0
LINE
  5
75A
330
1F
100
AcDbEntity
  8
外形
100
AcDbLine
 10
508.6838593277485
 20
297.2474570709881
 30
0.0
 11
508.6838593277485
 21
276.9474570709881
 31
0.0
  0
ARC
  5
764
330
1F
100
AcDbEntity
  8
外形
100
AcDbCircle
 10
509.1838593277485
 20
297.2474570709881
 30
0.0
 40
0.5
100
AcDbArc
 50
90.00000000000072
 51
180.0
  0
ARC
  5
765
330
1F
100
AcDbEntity
  8
外形
100
AcDbCircle
 10
513.6838593277486
 20
297.2474570709881
 30
0.0
 40
0.5
100
AcDbArc
 50
0.0
 51
90.00000000000072
  0
LINE
  5
771
330
1F
100
AcDbEntity
  8
外形
100
AcDbLine
 10
509.4838593277485
 20
277.247457070988
 30
0.0
 11
509.4838593277485
 21
273.247457070988
 31
0.0
  0
LINE
  5
772
330
1F
100
AcDbEntity
  8
外形
100
AcDbLine
 10
509.8838593277484
 20
277.247457070988
 30
0.0
 11
509.8838593277484
 21
273.247457070988
 31
0.0
  0
LINE
  5
773
330
1F
100
AcDbEntity
  8
外形
100
AcDbLine
 10
509.4838593277485
 20
273.247457070988
 30
0.0
 11
509.8838593277484
 21
273.247457070988
 31
0.0
  0
DIMENSION
  5
774
330
1F
100
AcDbEntity
  8
寸法
 62
     5
100
AcDbDimension
  2
*D8
 10
509.8838593277484
 20
273.8142448906515
 30
0.0
 11
513.5421926610818
 21
273.8142448906515
 31
0.0
 70
    32
 71
     5
 42
0.3999999999999772
  3
ISO-25
100
AcDbAlignedDimension
 13
509.4838593277485
 23
273.247457070988
 33
0.0
 14
509.8838593277484
 24
273.247457070988
 34
0.0
100
AcDbRotatedDimension
1001
ACAD
1000
DSTYLE
1002
{
1070
   172
1070
     0
1070
    77
1070
     0
1070
     3
1000
Min
1070
   271
1070
     1
1002
}
  0
DIMENSION
  5
840
330
1F
100
AcDbEntity
  8
寸法
 62
     5
100
AcDbDimension
  2
*D9
 10
509.6838593277484
 20
270.2949177453136
 30
0.0
 11
512.4671926610818
 21
270.2949177453136
 31
0.0
 70
    32
 71
     5
 42
0.9999999999998863
  3
ISO-25
100
AcDbAlignedDimension
 13
508.6838593277485
 23
276.9474570709881
 33
0.0
 14
509.6838593277484
 24
273.247457070988
 34
0.0
100
AcDbRotatedDimension
1001
ACAD
1000
DSTYLE
1002
{
1070
   172
1070
     0
1070
    77
1070
     0
1070
   280
1070
     0
1070
     3
1000
,0
1002
}
  0
LINE
  5
11D5
330
1F
100
AcDbEntity
  8
外形
100
AcDbLine
 10
509.1838593277486
 20
277.2474570709881
 30
0.0
 11
509.1838593277485
 21
276.9474570709881
 31
0.0
  0
LINE
  5
11D6
330
1F
100
AcDbEntity
  8
外形
100
AcDbLine
 10
508.6838593277485
 20
276.9474570709881
 30
0.0
 11
509.1838593277485
 21
276.9474570709881
 31
0.0
  0
LINE
  5
11D9
330
1F
100
AcDbEntity
  8
外形
100
AcDbLine
 10
513.6838593277486
 20
277.2474570709881
 30
0.0
 11
513.6838593277486
 21
276.9474570709881
 31
0.0
  0
LINE
  5
11DA
330
1F
100
AcDbEntity
  8
外形
100
AcDbLine
 10
514.1838593277486
 20
276.9474570709881
 30
0.0
 11
513.6838593277486
 21
276.9474570709881
 31
0.0
  0
LINE
  5
11EE
330
1F
100
AcDbEntity
  8
外形
100
AcDbLine
 10
470.6081320752036
 20
277.2474570709881
 30
0.0
 11
469.4681320752037
 21
277.2474570709881
 31
0.0
  0
LINE
  5
11EF
330
1F
100
AcDbEntity
  8
外形
100
AcDbLine
 10
491.3281320752036
 20
277.2474570709881
 30
0.0
 11
472.1081320752037
 21
277.2474570709881
 31
0.0
  0
MTEXT
  5
1255
330
1F
100
AcDbEntity
  8
外形
100
AcDbMText
 10
480.9295714654439
 20
253.1988415391493
 30
0.0
 40
2.5
 41
40.49999999999999
 71
     5
 72
     5
  1
{\fMS UI Gothic|b0|i0|c128|p17;プリント基板取付穴寸法図 }
 73
     1
 44
1.0
  0
LEADER
  5
1441
330
1F
100
AcDbEntity
  8
寸法
 62
     5
100
AcDbLeader
  3
ISO-25
 76
     2
 10
491.8781320752038
 20
236.4912011674583
 30
0.0
 10
494.2197323605967
 20
238.9579262402649
 30
0.0
  0
LINE
  5
1442
330
1F
100
AcDbEntity
  8
寸法
 62
     5
100
AcDbLine
 10
494.2197323605967
 20
238.9579262402649
 30
0.0
 11
496.8774550247593
 21
238.9579262402649
 31
0.0
  0
VIEWPORT
  5
2D8
102
{ACAD_XDICTIONARY
360
305
102
}
330
2D1
100
AcDbEntity
 67
     1
  8
0
 62
     5
100
AcDbViewport
 10
100.2135806083679
 20
143.6899075508117
 30
0.0
 40
412.2814610945638
 41
314.1477025756835
 68
     1
 69
     1
 12
100.2135806083679
 22
143.6899075508117
 13
0.0
 23
0.0
 14
10.0
 24
10.0
 15
10.0
 25
10.0
 16
0.0
 26
0.0
 36
1.0
 17
0.0
 27
0.0
 37
0.0
 42
50.0
 43
0.0
 44
0.0
 45
314.1477025756835
 50
0.0
 51
0.0
 72
   100
 90
    32800
  1

281
     0
 71
     1
 74
     0
110
0.0
120
0.0
130
0.0
111
1.0
121
0.0
131
0.0
112
0.0
122
1.0
132
0.0
 79
     0
146
0.0
  0
VIEWPORT
  5
12F6
330
2D1
100
AcDbEntity
 67
     1
  8
寸法
 62
     5
100
AcDbViewport
 10
100.1712510585784
 20
143.6899168491363
 30
0.0
 40
200.3425021171569
 41
287.3798336982726
 68
     2
 69
     2
 12
482.104842836559
 22
275.9689696111727
 13
0.0
 23
0.0
 14
10.0
 24
10.0
 15
10.0
 25
10.0
 16
0.0
 26
0.0
 36
1.0
 17
0.0
 27
0.0
 37
0.0
 42
50.0
 43
0.0
 44
0.0
 45
96.06928347282583
 50
0.0
 51
0.0
 72
   100
 90
    32864
  1

281
     0
 71
     1
 74
     0
110
0.0
120
0.0
130
0.0
111
1.0
121
0.0
131
0.0
112
0.0
122
1.0
132
0.0
 79
     0
146
0.0
  0
ENDSEC
  0
SECTION
  2
OBJECTS
  0
DICTIONARY
  5
C
330
0
100
AcDbDictionary
281
     1
  3
ACAD_COLOR
350
2EC
  3
ACAD_GROUP
350
D
  3
ACAD_LAYOUT
350
1A
  3
ACAD_MATERIAL
350
2EB
  3
ACAD_MLINESTYLE
350
17
  3
ACAD_PLOTSETTINGS
350
19
  3
ACAD_PLOTSTYLENAME
350
E
  3
ACAD_TABLESTYLE
350
2F4
  3
AcadDim
350
11D0
  3
AcDbVariableDictionary
350
309
  0
DICTIONARY
  5
305
330
2D8
100
AcDbDictionary
280
     1
281
     1
  3
ACAD_XREC_ROUNDTRIP
360
306
  0
DICTIONARY
  5
2EC
102
{ACAD_REACTORS
330
C
102
}
330
C
100
AcDbDictionary
281
     1
  0
DICTIONARY
  5
D
102
{ACAD_REACTORS
330
C
102
}
330
C
100
AcDbDictionary
281
     1
  0
DICTIONARY
  5
1A
102
{ACAD_REACTORS
330
C
102
}
330
C
100
AcDbDictionary
281
     1
  3
Model
350
22
  3
ﾚｲｱｳﾄ2
350
2D2
  0
DICTIONARY
  5
2EB
102
{ACAD_REACTORS
330
C
102
}
330
C
100
AcDbDictionary
281
     1
  0
DICTIONARY
  5
17
102
{ACAD_REACTORS
330
C
102
}
330
C
100
AcDbDictionary
281
     1
  3
Standard
350
18
  0
DICTIONARY
  5
19
102
{ACAD_REACTORS
330
C
102
}
330
C
100
AcDbDictionary
281
     1
  0
ACDBDICTIONARYWDFLT
  5
E
102
{ACAD_REACTORS
330
C
102
}
330
C
100
AcDbDictionary
281
     1
  3
Normal
350
F
100
AcDbDictionaryWithDefault
340
F
  0
DICTIONARY
  5
2F4
102
{ACAD_REACTORS
330
C
102
}
330
C
100
AcDbDictionary
281
     1
  3
Standard
350
2F5
  0
XRECORD
  5
11D0
102
{ACAD_REACTORS
330
C
102
}
330
C
100
AcDbXrecord
280
     1
 90
   990106
  3

 60
     0
 61
     0
 62
     1
 63
     3
 64
     0
 65
     0
 66
     1
 67
     6
 68
     1
 69
     0
 70
     0
 71
     0
 72
     0
 40
0.0
170
     1
  0
DICTIONARY
  5
309
102
{ACAD_REACTORS
330
C
102
}
330
C
100
AcDbDictionary
281
     1
  3
CTABLESTYLE
350
30A
  3
DIMASSOC
350
30B
  3
PROJECTNAME
350
30C
  0
XRECORD
  5
306
102
{ACAD_REACTORS
330
305
102
}
330
305
100
AcDbXrecord
280
     1
102
SHADEPLOT
 70
     0
  0
LAYOUT
  5
22
102
{ACAD_XDICTIONARY
360
301
102
}
102
{ACAD_REACTORS
330
1A
102
}
330
1A
100
AcDbPlotSettings
  1

  2
Canon LBP-1420(RYU)
  4
A4
  6
QQQQ
 40
5.873749732971191
 41
5.873747825622558
 42
5.873748779296875
 43
5.873748779296875
 44
209.9733276367187
 45
296.9259948730469
 46
-3.22
 47
-0.6700000000000001
 48
457.879275402605
 49
232.8325877164291
140
519.27971899794
141
318.791084666285
142
1.0
143
0.3
 70
 11428
 72
     1
 73
     0
 74
     4
  7
monochrome.ctb
 75
     0
147
3.333333333333333
148
-457.879275402605
149
-232.8325877164291
100
AcDbLayout
  1
Model
 70
     1
 71
     0
 10
0.0
 20
0.0
 11
12.0
 21
9.0
 12
0.0
 22
0.0
 32
0.0
 14
0.0
 24
0.0
 34
0.0
 15
0.0
 25
0.0
 35
0.0
146
0.0
 13
0.0
 23
0.0
 33
0.0
 16
1.0
 26
0.0
 36
0.0
 17
0.0
 27
1.0
 37
0.0
 76
     0
330
1F
  0
LAYOUT
  5
2D2
102
{ACAD_XDICTIONARY
360
303
102
}
102
{ACAD_REACTORS
330
1A
102
}
330
1A
100
AcDbPlotSettings
  1

  2
none_device
  4
none_user_media
  6

 40
4.773083209991455
 41
4.773089885711669
 42
4.857742309570312
 43
4.7730712890625
 44
209.9733276367187
 45
296.9259948730469
 46
0.0
 47
0.0
 48
0.0
 49
0.0
140
0.0
141
0.0
142
1.0
143
1.0
 70
   688
 72
     1
 73
     0
 74
     5
  7
monochrome.ctb
 75
    16
147
1.0
148
0.0
149
0.0
100
AcDbLayout
  1
ﾚｲｱｳﾄ2
 70
     1
 71
     1
 10
-4.773083209991455
 20
-4.773089885711669
 11
205.2002444267273
 21
292.1529049873352
 12
0.0
 22
0.0
 32
0.0
 14
-0.0022107197171408
 24
-0.0056219074012347
 34
-0.0015258207003583
 15
200.3467194242936
 25
287.3876809325698
 35
0.0000000349246037
146
0.0
 13
0.0
 23
0.0
 33
0.0
 16
1.0
 26
0.0
 36
0.0
 17
0.0
 27
1.0
 37
0.0
 76
     0
330
2D1
331
2D8
  0
MLINESTYLE
  5
18
102
{ACAD_REACTORS
330
17
102
}
330
17
100
AcDbMlineStyle
  2
STANDARD
 70
     0
  3

 62
   256
 51
90.0
 52
90.0
 71
     2
 49
0.5
 62
   256
  6
BYLAYER
 49
-0.5
 62
   256
  6
BYLAYER
  0
ACDBPLACEHOLDER
  5
F
102
{ACAD_REACTORS
330
E
102
}
330
E
  0
ACAD_PROXY_OBJECT
  5
2F5
102
{ACAD_REACTORS
330
2F4
102
}
330
2F4
100
AcDbProxyObject
 90
      499
 91
      503
 95
   655383
 70
     0
 93
     1841
310
4214DD185B99185C9928000000000000F83F0000000000003E0FC00000000000004901028000000C1008070000C3001FDFF8000000C1003FBFF000000182007F7FE00000030400FEFFC00000060801FDFF8000000C1003FBFF000000182000000000000000C2020B0000001820100E000186003FBFF000000182007F7FE000
310
00030400FEFFC00000060801FDFF8000000C1003FBFF000000182007F7FE0000003040000000000000012404160000003040201C00030C007F7FE00000030400FEFFC00000060801FDFF8000000C1003FBFF000000182007F7FE00000030400FEFFC00000060804D
340
11
340
11
340
11
 94
        0
  0
DICTIONARYVAR
  5
30A
102
{ACAD_REACTORS
330
309
102
}
330
309
100
DictionaryVariables
280
     0
  1
STANDARD
  0
DICTIONARYVAR
  5
30B
102
{ACAD_REACTORS
330
309
102
}
330
309
100
DictionaryVariables
280
     0
  1
1
  0
DICTIONARYVAR
  5
30C
102
{ACAD_REACTORS
330
309
102
}
330
309
100
DictionaryVariables
280
     0
  1

  0
DICTIONARY
  5
301
330
22
100
AcDbDictionary
280
     1
281
     1
  3
ACAD_XREC_ROUNDTRIP
360
302
  0
DICTIONARY
  5
303
330
2D2
100
AcDbDictionary
280
     1
281
     1
  3
ACAD_XREC_ROUNDTRIP
360
304
  0
XRECORD
  5
302
102
{ACAD_REACTORS
330
301
102
}
330
301
100
AcDbXrecord
280
     1
102
SHADEPLOT
 70
     0
102
SHADEPLOTRESLEVEL
 70
     2
102
SHADEPLOTCUSTOMDPI
 70
   300
  0
XRECORD
  5
304
102
{ACAD_REACTORS
330
303
102
}
330
303
100
AcDbXrecord
280
     1
102
SHADEPLOT
 70
     0
102
SHADEPLOTRESLEVEL
 70
     2
102
SHADEPLOTCUSTOMDPI
 70
   300
  0
ENDSEC
  0
EOF
