  0
SECTION
  2
HEADER
  9
$ACADVER
  1
AC1015
  9
$ACADMAINTVER
 70
    10
  9
$DWGCODEPAGE
  3
ANSI_932
  9
$INSBASE
 10
0.0
 20
0.0
 30
0.0
  9
$EXTMIN
 10
460.509731209026
 20
238.3943841944983
 30
0.0
  9
$EXTMAX
 10
508.5757794304894
 20
307.2276421814942
 30
0.0
  9
$LIMMIN
 10
0.0
 20
0.0
  9
$LIMMAX
 10
420.0
 20
297.0
  9
$ORTHOMODE
 70
     1
  9
$REGENMODE
 70
     1
  9
$FILLMODE
 70
     1
  9
$QTEXTMODE
 70
     0
  9
$MIRRTEXT
 70
     1
  9
$LTSCALE
 40
1.0
  9
$ATTMODE
 70
     1
  9
$TEXTSIZE
 40
2.5
  9
$TRACEWID
 40
1.0
  9
$TEXTSTYLE
  7
Standard
  9
$CLAYER
  8
寸法
  9
$CELTYPE
  6
ByLayer
  9
$CECOLOR
 62
     5
  9
$CELTSCALE
 40
1.0
  9
$DISPSILH
 70
     0
  9
$DIMSCALE
 40
1.0
  9
$DIMASZ
 40
1.0
  9
$DIMEXO
 40
1.0
  9
$DIMDLI
 40
3.75
  9
$DIMRND
 40
0.0
  9
$DIMDLE
 40
0.0
  9
$DIMEXE
 40
0.5
  9
$DIMTP
 40
0.0
  9
$DIMTM
 40
0.0
  9
$DIMTXT
 40
0.7
  9
$DIMCEN
 40
2.5
  9
$DIMTSZ
 40
0.0
  9
$DIMTOL
 70
     0
  9
$DIMLIM
 70
     0
  9
$DIMTIH
 70
     0
  9
$DIMTOH
 70
     0
  9
$DIMSE1
 70
     0
  9
$DIMSE2
 70
     0
  9
$DIMTAD
 70
     1
  9
$DIMZIN
 70
     9
  9
$DIMBLK
  1

  9
$DIMASO
 70
     1
  9
$DIMSHO
 70
     1
  9
$DIMPOST
  1

  9
$DIMAPOST
  1

  9
$DIMALT
 70
     0
  9
$DIMALTD
 70
     3
  9
$DIMALTF
 40
0.03937007874016
  9
$DIMLFAC
 40
1.0
  9
$DIMTOFL
 70
     1
  9
$DIMTVP
 40
0.0
  9
$DIMTIX
 70
     0
  9
$DIMSOXD
 70
     0
  9
$DIMSAH
 70
     0
  9
$DIMBLK1
  1

  9
$DIMBLK2
  1

  9
$DIMSTYLE
  2
ISO-25
  9
$DIMCLRD
 70
     0
  9
$DIMCLRE
 70
     0
  9
$DIMCLRT
 70
     0
  9
$DIMTFAC
 40
1.0
  9
$DIMGAP
 40
0.2
  9
$DIMJUST
 70
     0
  9
$DIMSD1
 70
     0
  9
$DIMSD2
 70
     0
  9
$DIMTOLJ
 70
     0
  9
$DIMTZIN
 70
     8
  9
$DIMALTZ
 70
     0
  9
$DIMALTTZ
 70
     0
  9
$DIMUPT
 70
     0
  9
$DIMDEC
 70
     2
  9
$DIMTDEC
 70
     2
  9
$DIMALTU
 70
     2
  9
$DIMALTTD
 70
     3
  9
$DIMTXSTY
  7
Standard
  9
$DIMAUNIT
 70
     0
  9
$DIMADEC
 70
     1
  9
$DIMALTRND
 40
0.0
  9
$DIMAZIN
 70
     1
  9
$DIMDSEP
 70
    46
  9
$DIMATFIT
 70
     3
  9
$DIMFRAC
 70
     0
  9
$DIMLDRBLK
  1

  9
$DIMLUNIT
 70
     2
  9
$DIMLWD
 70
    -2
  9
$DIMLWE
 70
    -2
  9
$DIMTMOVE
 70
     0
  9
$LUNITS
 70
     2
  9
$LUPREC
 70
     4
  9
$SKETCHINC
 40
1.0
  9
$FILLETRAD
 40
0.5
  9
$AUNITS
 70
     0
  9
$AUPREC
 70
     0
  9
$MENU
  1
.
  9
$ELEVATION
 40
0.0
  9
$PELEVATION
 40
0.0
  9
$THICKNESS
 40
0.0
  9
$LIMCHECK
 70
     0
  9
$CHAMFERA
 40
0.0
  9
$CHAMFERB
 40
0.0
  9
$CHAMFERC
 40
20.0
  9
$CHAMFERD
 40
0.0
  9
$SKPOLY
 70
     0
  9
$TDCREATE
 40
2453483.907673240
  9
$TDUCREATE
 40
2453483.532673240
  9
$TDUPDATE
 40
2453518.752579201
  9
$TDUUPDATE
 40
2453518.377579201
  9
$TDINDWG
 40
0.2108356366
  9
$TDUSRTIMER
 40
0.2108354514
  9
$USRTIMER
 70
     1
  9
$ANGBASE
 50
0.0
  9
$ANGDIR
 70
     0
  9
$PDMODE
 70
     0
  9
$PDSIZE
 40
0.0
  9
$PLINEWID
 40
0.0
  9
$SPLFRAME
 70
     0
  9
$SPLINETYPE
 70
     6
  9
$SPLINESEGS
 70
     8
  9
$HANDSEED
  5
1938
  9
$SURFTAB1
 70
     6
  9
$SURFTAB2
 70
     6
  9
$SURFTYPE
 70
     6
  9
$SURFU
 70
     6
  9
$SURFV
 70
     6
  9
$UCSBASE
  2

  9
$UCSNAME
  2

  9
$UCSORG
 10
0.0
 20
0.0
 30
0.0
  9
$UCSXDIR
 10
1.0
 20
0.0
 30
0.0
  9
$UCSYDIR
 10
0.0
 20
1.0
 30
0.0
  9
$UCSORTHOREF
  2

  9
$UCSORTHOVIEW
 70
     0
  9
$UCSORGTOP
 10
0.0
 20
0.0
 30
0.0
  9
$UCSORGBOTTOM
 10
0.0
 20
0.0
 30
0.0
  9
$UCSORGLEFT
 10
0.0
 20
0.0
 30
0.0
  9
$UCSORGRIGHT
 10
0.0
 20
0.0
 30
0.0
  9
$UCSORGFRONT
 10
0.0
 20
0.0
 30
0.0
  9
$UCSORGBACK
 10
0.0
 20
0.0
 30
0.0
  9
$PUCSBASE
  2

  9
$PUCSNAME
  2

  9
$PUCSORG
 10
0.0
 20
0.0
 30
0.0
  9
$PUCSXDIR
 10
1.0
 20
0.0
 30
0.0
  9
$PUCSYDIR
 10
0.0
 20
1.0
 30
0.0
  9
$PUCSORTHOREF
  2

  9
$PUCSORTHOVIEW
 70
     0
  9
$PUCSORGTOP
 10
0.0
 20
0.0
 30
0.0
  9
$PUCSORGBOTTOM
 10
0.0
 20
0.0
 30
0.0
  9
$PUCSORGLEFT
 10
0.0
 20
0.0
 30
0.0
  9
$PUCSORGRIGHT
 10
0.0
 20
0.0
 30
0.0
  9
$PUCSORGFRONT
 10
0.0
 20
0.0
 30
0.0
  9
$PUCSORGBACK
 10
0.0
 20
0.0
 30
0.0
  9
$USERI1
 70
     0
  9
$USERI2
 70
     0
  9
$USERI3
 70
     0
  9
$USERI4
 70
     0
  9
$USERI5
 70
     0
  9
$USERR1
 40
0.0
  9
$USERR2
 40
0.0
  9
$USERR3
 40
0.0
  9
$USERR4
 40
0.0
  9
$USERR5
 40
0.0
  9
$WORLDVIEW
 70
     1
  9
$SHADEDGE
 70
     3
  9
$SHADEDIF
 70
    70
  9
$TILEMODE
 70
     1
  9
$MAXACTVP
 70
    64
  9
$PINSBASE
 10
0.0
 20
0.0
 30
0.0
  9
$PLIMCHECK
 70
     0
  9
$PEXTMIN
 10
0.0
 20
0.0
 30
0.0
  9
$PEXTMAX
 10
258.6418503284453
 20
287.3798336982726
 30
0.0
  9
$PLIMMIN
 10
-4.773083209991455
 20
-4.773089885711669
  9
$PLIMMAX
 10
205.2002444267273
 20
292.1529049873352
  9
$UNITMODE
 70
     0
  9
$VISRETAIN
 70
     1
  9
$PLINEGEN
 70
     0
  9
$PSLTSCALE
 70
     1
  9
$TREEDEPTH
 70
  3020
  9
$CMLSTYLE
  2
Standard
  9
$CMLJUST
 70
     0
  9
$CMLSCALE
 40
20.0
  9
$PROXYGRAPHICS
 70
     1
  9
$MEASUREMENT
 70
     1
  9
$CELWEIGHT
370
    -1
  9
$ENDCAPS
280
     0
  9
$JOINSTYLE
280
     0
  9
$LWDISPLAY
290
     0
  9
$INSUNITS
 70
     4
  9
$HYPERLINKBASE
  1

  9
$STYLESHEET
  1
monochrome.ctb
  9
$XEDIT
290
     1
  9
$CEPSNTYPE
380
     0
  9
$PSTYLEMODE
290
     1
  9
$FINGERPRINTGUID
  2
{FDEAD578-A652-11D2-9A35-0060089B3A3F}
  9
$VERSIONGUID
  2
{A514FF31-91A6-4930-A251-EB4E1FAAC87C}
  9
$EXTNAMES
290
     1
  9
$PSVPSCALE
 40
0.0
  9
$OLESTARTUP
290
     0
  0
ENDSEC
  0
SECTION
  2
CLASSES
  0
CLASS
  1
ACDBDICTIONARYWDFLT
  2
AcDbDictionaryWithDefault
  3
AutoCAD 2000
 90
        0
280
     0
281
     0
  0
CLASS
  1
ACDBPLACEHOLDER
  2
AcDbPlaceHolder
  3
AutoCAD 2000
 90
        0
280
     0
281
     0
  0
CLASS
  1
LAYOUT
  2
AcDbLayout
  3
AutoCAD 2000
 90
        0
280
     0
281
     0
  0
CLASS
  1
TABLESTYLE
  2
AcDbTableStyle
  3
ObjectDBX Classes
 90
     2047
280
     0
281
     0
  0
CLASS
  1
DICTIONARYVAR
  2
AcDbDictionaryVar
  3
AutoCAD 2000
 90
        0
280
     0
281
     0
  0
ENDSEC
  0
SECTION
  2
TABLES
  0
TABLE
  2
VPORT
  5
8
330
0
100
AcDbSymbolTable
 70
     2
  0
VPORT
  5
1937
330
8
100
AcDbSymbolTableRecord
100
AcDbViewportTableRecord
  2
*Active
 70
     0
 10
0.0
 20
0.0
 11
1.0
 21
1.0
 12
485.752135059455
 22
272.8657553570639
 13
0.0
 23
0.0
 14
10.0
 24
10.0
 15
10.0
 25
10.0
 16
0.0
 26
0.0
 36
1.0
 17
0.0
 27
0.0
 37
0.0
 40
72.57142411597982
 41
1.561128526645767
 42
50.0
 43
0.0
 44
0.0
 50
0.0
 51
0.0
 71
     0
 72
   100
 73
     1
 74
     3
 75
     0
 76
     0
 77
     0
 78
     0
281
     0
 65
     1
110
0.0
120
0.0
130
0.0
111
1.0
121
0.0
131
0.0
112
0.0
122
1.0
132
0.0
 79
     0
146
0.0
  0
ENDTAB
  0
TABLE
  2
LTYPE
  5
5
330
0
100
AcDbSymbolTable
 70
     2
  0
LTYPE
  5
14
330
5
100
AcDbSymbolTableRecord
100
AcDbLinetypeTableRecord
  2
ByBlock
 70
     0
  3

 72
    65
 73
     0
 40
0.0
  0
LTYPE
  5
15
330
5
100
AcDbSymbolTableRecord
100
AcDbLinetypeTableRecord
  2
ByLayer
 70
     0
  3

 72
    65
 73
     0
 40
0.0
  0
LTYPE
  5
16
330
5
100
AcDbSymbolTableRecord
100
AcDbLinetypeTableRecord
  2
Continuous
 70
     0
  3
Solid line
 72
    65
 73
     0
 40
0.0
  0
LTYPE
  5
11DE
330
5
100
AcDbSymbolTableRecord
100
AcDbLinetypeTableRecord
  2
CENTER
 70
     0
  3
Center ____ _ ____ _ ____ _ ____ _ ____ _ ____
 72
    65
 73
     4
 40
50.8
 49
31.75
 74
     0
 49
-6.349999999999998
 74
     0
 49
6.349999999999998
 74
     0
 49
-6.349999999999998
 74
     0
  0
ENDTAB
  0
TABLE
  2
LAYER
  5
2
330
0
100
AcDbSymbolTable
 70
     4
  0
LAYER
  5
10
330
2
100
AcDbSymbolTableRecord
100
AcDbLayerTableRecord
  2
0
 70
     0
 62
     7
  6
Continuous
370
    -3
390
F
  0
LAYER
  5
64
330
2
100
AcDbSymbolTableRecord
100
AcDbLayerTableRecord
  2
外形
 70
     0
 62
     7
  6
Continuous
370
    -3
390
F
  0
LAYER
  5
65
330
2
100
AcDbSymbolTableRecord
100
AcDbLayerTableRecord
  2
寸法
 70
     0
 62
     7
  6
Continuous
370
    -3
390
F
  0
LAYER
  5
E3
330
2
100
AcDbSymbolTableRecord
100
AcDbLayerTableRecord
  2
Defpoints
 70
     0
 62
     7
  6
Continuous
290
     0
370
    -3
390
F
  0
ENDTAB
  0
TABLE
  2
STYLE
  5
3
330
0
100
AcDbSymbolTable
 70
     1
  0
STYLE
  5
11
330
3
100
AcDbSymbolTableRecord
100
AcDbTextStyleTableRecord
  2
Standard
 70
     0
 40
0.0
 41
1.0
 50
0.0
 71
     0
 42
2.5
  3
txt
  4

  0
ENDTAB
  0
TABLE
  2
VIEW
  5
6
330
0
100
AcDbSymbolTable
 70
     0
  0
ENDTAB
  0
TABLE
  2
UCS
  5
7
330
0
100
AcDbSymbolTable
 70
     0
  0
ENDTAB
  0
TABLE
  2
APPID
  5
9
330
0
100
AcDbSymbolTable
 70
     2
  0
APPID
  5
12
330
9
100
AcDbSymbolTableRecord
100
AcDbRegAppTableRecord
  2
ACAD
 70
     0
  0
APPID
  5
313
330
9
100
AcDbSymbolTableRecord
100
AcDbRegAppTableRecord
  2
QDRX_VIEW
 70
     0
  0
ENDTAB
  0
TABLE
  2
DIMSTYLE
  5
A
330
0
100
AcDbSymbolTable
 70
     1
100
AcDbDimStyleTable
 71
     1
340
27
  0
DIMSTYLE
105
27
102
{ACAD_REACTORS
330
454
330
455
330
4BF
330
53C
330
53A
330
53B
330
6F9
330
744
330
774
330
840
330
1349
330
1505
330
1538
330
1539
102
}
330
A
100
AcDbSymbolTableRecord
100
AcDbDimStyleTableRecord
  2
ISO-25
 70
     0
 41
1.0
 42
1.0
 43
3.75
 44
0.5
 73
     0
 74
     0
 77
     1
 78
     9
 79
     1
140
0.7
141
2.5
143
0.03937007874016
147
0.2
171
     3
172
     1
179
     1
271
     2
272
     2
274
     3
283
     0
284
     8
340
11
  0
ENDTAB
  0
TABLE
  2
BLOCK_RECORD
  5
1
330
0
100
AcDbSymbolTable
 70
    12
  0
BLOCK_RECORD
  5
1F
330
1
100
AcDbSymbolTableRecord
100
AcDbBlockTableRecord
  2
*Model_Space
340
22
  0
BLOCK_RECORD
  5
2D1
330
1
100
AcDbSymbolTableRecord
100
AcDbBlockTableRecord
  2
*Paper_Space
340
2D2
  0
BLOCK_RECORD
  5
456
330
1
100
AcDbSymbolTableRecord
100
AcDbBlockTableRecord
  2
*D0
340
0
  0
BLOCK_RECORD
  5
462
330
1
100
AcDbSymbolTableRecord
100
AcDbBlockTableRecord
  2
*D1
340
0
  0
BLOCK_RECORD
  5
4C3
330
1
100
AcDbSymbolTableRecord
100
AcDbBlockTableRecord
  2
*D2
340
0
  0
BLOCK_RECORD
  5
53D
330
1
100
AcDbSymbolTableRecord
100
AcDbBlockTableRecord
  2
*D3
340
0
  0
BLOCK_RECORD
  5
549
330
1
100
AcDbSymbolTableRecord
100
AcDbBlockTableRecord
  2
*D4
340
0
  0
BLOCK_RECORD
  5
555
330
1
100
AcDbSymbolTableRecord
100
AcDbBlockTableRecord
  2
*D5
340
0
  0
BLOCK_RECORD
  5
6FA
330
1
100
AcDbSymbolTableRecord
100
AcDbBlockTableRecord
  2
*D6
340
0
  0
BLOCK_RECORD
  5
745
330
1
100
AcDbSymbolTableRecord
100
AcDbBlockTableRecord
  2
*D7
340
0
  0
BLOCK_RECORD
  5
791
330
1
100
AcDbSymbolTableRecord
100
AcDbBlockTableRecord
  2
*D8
340
0
  0
BLOCK_RECORD
  5
841
330
1
100
AcDbSymbolTableRecord
100
AcDbBlockTableRecord
  2
*D9
340
0
  0
BLOCK_RECORD
  5
134A
330
1
100
AcDbSymbolTableRecord
100
AcDbBlockTableRecord
  2
*D10
340
0
  0
BLOCK_RECORD
  5
1506
330
1
100
AcDbSymbolTableRecord
100
AcDbBlockTableRecord
  2
*D11
340
0
  0
ENDTAB
  0
ENDSEC
  0
SECTION
  2
BLOCKS
  0
BLOCK
  5
20
330
1F
100
AcDbEntity
  8
0
100
AcDbBlockBegin
  2
*Model_Space
 70
     0
 10
0.0
 20
0.0
 30
0.0
  3
*Model_Space
  1

  0
ENDBLK
  5
21
330
1F
100
AcDbEntity
  8
0
100
AcDbBlockEnd
  0
BLOCK
  5
2D3
330
2D1
100
AcDbEntity
 67
     1
  8
0
 62
     5
100
AcDbBlockBegin
  2
*Paper_Space
 70
     0
 10
0.0
 20
0.0
 30
0.0
  3
*Paper_Space
  1

  0
ENDBLK
  5
2D4
330
2D1
100
AcDbEntity
 67
     1
  8
0
 62
     5
100
AcDbBlockEnd
  0
BLOCK
  5
460
330
456
100
AcDbEntity
  8
0
 62
     5
100
AcDbBlockBegin
  2
*D0
 70
     1
 10
0.0
 20
0.0
 30
0.0
  3
*D0
  1

  0
LINE
  5
1818
330
456
100
AcDbEntity
  8
寸法
 62
     0
370
    -2
100
AcDbLine
 10
486.7564987873512
 20
291.7474570709881
 30
0.0
 11
492.80818011515
 21
291.7474570709881
 31
0.0
  0
LINE
  5
1819
330
456
100
AcDbEntity
  8
寸法
 62
     0
370
    -2
100
AcDbLine
 10
487.2564987873512
 20
277.2474570709881
 30
0.0
 11
492.80818011515
 21
277.2474570709881
 31
0.0
  0
LINE
  5
181A
330
456
100
AcDbEntity
  8
寸法
 62
     0
370
    -2
100
AcDbLine
 10
492.30818011515
 20
290.7474570709881
 30
0.0
 11
492.30818011515
 21
278.2474570709881
 31
0.0
  0
SOLID
  5
181B
330
456
100
AcDbEntity
  8
寸法
 62
     0
100
AcDbTrace
 10
492.1415134484833
 20
290.7474570709881
 30
0.0
 11
492.4748467818167
 21
290.7474570709881
 31
0.0
 12
492.30818011515
 22
291.7474570709881
 32
0.0
 13
492.30818011515
 23
291.7474570709881
 33
0.0
  0
SOLID
  5
181C
330
456
100
AcDbEntity
  8
寸法
 62
     0
100
AcDbTrace
 10
492.1415134484833
 20
278.2474570709881
 30
0.0
 11
492.4748467818167
 21
278.2474570709881
 31
0.0
 12
492.30818011515
 22
277.2474570709881
 32
0.0
 13
492.30818011515
 23
277.2474570709881
 33
0.0
  0
MTEXT
  5
181D
330
456
100
AcDbEntity
  8
寸法
 62
     0
100
AcDbMText
 10
491.75818011515
 20
284.4974570709882
 30
0.0
 40
0.7
 41
0.0
 71
     5
 72
     1
  1
14.5
 11
0.0000000000000001
 21
1.0
 31
0.0
 73
     1
 44
1.0
  0
POINT
  5
181E
330
456
100
AcDbEntity
  8
Defpoints
 62
     0
100
AcDbPoint
 10
485.7564987873512
 20
291.7474570709881
 30
0.0
  0
POINT
  5
181F
330
456
100
AcDbEntity
  8
Defpoints
 62
     0
100
AcDbPoint
 10
486.2564987873512
 20
277.2474570709881
 30
0.0
  0
POINT
  5
1820
330
456
100
AcDbEntity
  8
Defpoints
 62
     0
100
AcDbPoint
 10
492.30818011515
 20
277.2474570709881
 30
0.0
  0
ENDBLK
  5
461
330
456
100
AcDbEntity
  8
0
 62
     5
100
AcDbBlockEnd
  0
BLOCK
  5
46C
330
462
100
AcDbEntity
  8
0
 62
     5
100
AcDbBlockBegin
  2
*D1
 70
     1
 10
0.0
 20
0.0
 30
0.0
  3
*D1
  1

  0
LINE
  5
18DA
330
462
100
AcDbEntity
  8
寸法
 62
     0
370
    -2
100
AcDbLine
 10
466.2564987873511
 20
292.247457070988
 30
0.0
 11
466.2564987873511
 21
295.6534917877581
 31
0.0
  0
LINE
  5
18DB
330
462
100
AcDbEntity
  8
寸法
 62
     0
370
    -2
100
AcDbLine
 10
486.2564987873512
 20
292.2474570709881
 30
0.0
 11
486.2564987873512
 21
295.6534917877581
 31
0.0
  0
LINE
  5
18DC
330
462
100
AcDbEntity
  8
寸法
 62
     0
370
    -2
100
AcDbLine
 10
467.2564987873512
 20
295.1534917877582
 30
0.0
 11
485.2564987873512
 21
295.1534917877582
 31
0.0
  0
SOLID
  5
18DD
330
462
100
AcDbEntity
  8
寸法
 62
     0
100
AcDbTrace
 10
467.2564987873512
 20
295.3201584544249
 30
0.0
 11
467.2564987873512
 21
294.9868251210915
 31
0.0
 12
466.2564987873511
 22
295.1534917877582
 32
0.0
 13
466.2564987873511
 23
295.1534917877582
 33
0.0
  0
SOLID
  5
18DE
330
462
100
AcDbEntity
  8
寸法
 62
     0
100
AcDbTrace
 10
485.2564987873512
 20
295.3201584544249
 30
0.0
 11
485.2564987873512
 21
294.9868251210915
 31
0.0
 12
486.2564987873512
 22
295.1534917877582
 32
0.0
 13
486.2564987873512
 23
295.1534917877582
 33
0.0
  0
MTEXT
  5
18DF
330
462
100
AcDbEntity
  8
寸法
 62
     0
100
AcDbMText
 10
476.2564987873512
 20
295.7034917877582
 30
0.0
 40
0.7
 41
0.0
 71
     5
 72
     1
  1
20
 73
     1
 44
1.0
  0
POINT
  5
18E0
330
462
100
AcDbEntity
  8
Defpoints
 62
     0
100
AcDbPoint
 10
466.2564987873511
 20
291.2474570709881
 30
0.0
  0
POINT
  5
18E1
330
462
100
AcDbEntity
  8
Defpoints
 62
     0
100
AcDbPoint
 10
486.2564987873512
 20
291.2474570709881
 30
0.0
  0
POINT
  5
18E2
330
462
100
AcDbEntity
  8
Defpoints
 62
     0
100
AcDbPoint
 10
486.2564987873512
 20
295.1534917877582
 30
0.0
  0
ENDBLK
  5
46D
330
462
100
AcDbEntity
  8
0
 62
     5
100
AcDbBlockEnd
  0
BLOCK
  5
4CD
330
4C3
100
AcDbEntity
  8
0
 62
     5
100
AcDbBlockBegin
  2
*D2
 70
     1
 10
0.0
 20
0.0
 30
0.0
  3
*D2
  1

  0
LINE
  5
1821
330
4C3
100
AcDbEntity
  8
寸法
 62
     0
370
    -2
100
AcDbLine
 10
487.2564987873512
 20
277.2474570709881
 30
0.0
 11
492.80818011515
 21
277.2474570709881
 31
0.0
  0
LINE
  5
1822
330
4C3
100
AcDbEntity
  8
寸法
 62
     0
370
    -2
100
AcDbLine
 10
486.5764987873514
 20
273.747457070988
 30
0.0
 11
492.80818011515
 21
273.747457070988
 31
0.0
  0
LINE
  5
1823
330
4C3
100
AcDbEntity
  8
寸法
 62
     0
370
    -2
100
AcDbLine
 10
492.30818011515
 20
276.2474570709881
 30
0.0
 11
492.30818011515
 21
274.747457070988
 31
0.0
  0
SOLID
  5
1824
330
4C3
100
AcDbEntity
  8
寸法
 62
     0
100
AcDbTrace
 10
492.1415134484833
 20
276.2474570709881
 30
0.0
 11
492.4748467818167
 21
276.2474570709881
 31
0.0
 12
492.30818011515
 22
277.2474570709881
 32
0.0
 13
492.30818011515
 23
277.2474570709881
 33
0.0
  0
SOLID
  5
1825
330
4C3
100
AcDbEntity
  8
寸法
 62
     0
100
AcDbTrace
 10
492.1415134484833
 20
274.747457070988
 30
0.0
 11
492.4748467818167
 21
274.747457070988
 31
0.0
 12
492.30818011515
 22
273.747457070988
 32
0.0
 13
492.30818011515
 23
273.747457070988
 33
0.0
  0
MTEXT
  5
1826
330
4C3
100
AcDbEntity
  8
寸法
 62
     0
100
AcDbMText
 10
491.75818011515
 20
275.497457070988
 30
0.0
 40
0.7
 41
0.0
 71
     5
 72
     1
  1
3.5
 11
0.0000000000000001
 21
1.0
 31
0.0
 73
     1
 44
1.0
  0
POINT
  5
1827
330
4C3
100
AcDbEntity
  8
Defpoints
 62
     0
100
AcDbPoint
 10
486.2564987873512
 20
277.2474570709881
 30
0.0
  0
POINT
  5
1828
330
4C3
100
AcDbEntity
  8
Defpoints
 62
     0
100
AcDbPoint
 10
485.5764987873514
 20
273.747457070988
 30
0.0
  0
POINT
  5
1829
330
4C3
100
AcDbEntity
  8
Defpoints
 62
     0
100
AcDbPoint
 10
492.30818011515
 20
273.747457070988
 30
0.0
  0
ENDBLK
  5
4CE
330
4C3
100
AcDbEntity
  8
0
 62
     5
100
AcDbBlockEnd
  0
BLOCK
  5
547
330
53D
100
AcDbEntity
  8
0
 62
     5
100
AcDbBlockBegin
  2
*D3
 70
     1
 10
0.0
 20
0.0
 30
0.0
  3
*D3
  1

  0
LINE
  5
18CF
330
53D
100
AcDbEntity
  8
寸法
 62
     0
370
    -2
100
AcDbLine
 10
469.9364987873511
 20
272.747457070988
 30
0.0
 11
469.9364987873511
 21
266.6694496632122
 31
0.0
  0
LINE
  5
18D0
330
53D
100
AcDbEntity
  8
寸法
 62
     0
370
    -2
100
AcDbLine
 10
467.3964987873512
 20
272.747457070988
 30
0.0
 11
467.3964987873512
 21
266.6694496632122
 31
0.0
  0
LINE
  5
18D1
330
53D
100
AcDbEntity
  8
寸法
 62
     0
370
    -2
100
AcDbLine
 10
468.9364987873512
 20
267.1694496632122
 30
0.0
 11
468.3964987873512
 21
267.1694496632122
 31
0.0
  0
SOLID
  5
18D2
330
53D
100
AcDbEntity
  8
寸法
 62
     0
100
AcDbTrace
 10
468.9364987873512
 20
267.3361163298789
 30
0.0
 11
468.9364987873512
 21
267.0027829965455
 31
0.0
 12
469.9364987873511
 22
267.1694496632122
 32
0.0
 13
469.9364987873511
 23
267.1694496632122
 33
0.0
  0
SOLID
  5
18D3
330
53D
100
AcDbEntity
  8
寸法
 62
     0
100
AcDbTrace
 10
468.3964987873512
 20
267.3361163298789
 30
0.0
 11
468.3964987873512
 21
267.0027829965455
 31
0.0
 12
467.3964987873512
 22
267.1694496632122
 32
0.0
 13
467.3964987873512
 23
267.1694496632122
 33
0.0
  0
MTEXT
  5
18D4
330
53D
100
AcDbEntity
  8
寸法
 62
     0
100
AcDbMText
 10
468.6664987873512
 20
267.7194496632122
 30
0.0
 40
0.7
 41
0.0
 71
     5
 72
     1
  1
2.54
 73
     1
 44
1.0
  0
POINT
  5
18D5
330
53D
100
AcDbEntity
  8
Defpoints
 62
     0
100
AcDbPoint
 10
469.9364987873511
 20
273.747457070988
 30
0.0
  0
POINT
  5
18D6
330
53D
100
AcDbEntity
  8
Defpoints
 62
     0
100
AcDbPoint
 10
467.3964987873512
 20
273.747457070988
 30
0.0
  0
POINT
  5
18D7
330
53D
100
AcDbEntity
  8
Defpoints
 62
     0
100
AcDbPoint
 10
467.3964987873512
 20
267.1694496632122
 30
0.0
  0
ENDBLK
  5
548
330
53D
100
AcDbEntity
  8
0
 62
     5
100
AcDbBlockEnd
  0
BLOCK
  5
553
330
549
100
AcDbEntity
  8
0
 62
     5
100
AcDbBlockBegin
  2
*D4
 70
     1
 10
0.0
 20
0.0
 30
0.0
  3
*D4
  1

  0
LINE
  5
18C6
330
549
100
AcDbEntity
  8
寸法
 62
     0
370
    -2
100
AcDbLine
 10
469.9364987873512
 20
272.747457070988
 30
0.0
 11
469.9364987873512
 21
266.6694496632122
 31
0.0
  0
LINE
  5
18C7
330
549
100
AcDbEntity
  8
寸法
 62
     0
370
    -2
100
AcDbLine
 10
477.5564987873512
 20
272.747457070988
 30
0.0
 11
477.5564987873512
 21
266.6694496632122
 31
0.0
  0
LINE
  5
18C8
330
549
100
AcDbEntity
  8
寸法
 62
     0
370
    -2
100
AcDbLine
 10
470.9364987873512
 20
267.1694496632122
 30
0.0
 11
476.5564987873512
 21
267.1694496632122
 31
0.0
  0
SOLID
  5
18C9
330
549
100
AcDbEntity
  8
寸法
 62
     0
100
AcDbTrace
 10
470.9364987873512
 20
267.3361163298789
 30
0.0
 11
470.9364987873512
 21
267.0027829965455
 31
0.0
 12
469.9364987873512
 22
267.1694496632122
 32
0.0
 13
469.9364987873512
 23
267.1694496632122
 33
0.0
  0
SOLID
  5
18CA
330
549
100
AcDbEntity
  8
寸法
 62
     0
100
AcDbTrace
 10
476.5564987873512
 20
267.3361163298789
 30
0.0
 11
476.5564987873512
 21
267.0027829965455
 31
0.0
 12
477.5564987873512
 22
267.1694496632122
 32
0.0
 13
477.5564987873512
 23
267.1694496632122
 33
0.0
  0
MTEXT
  5
18CB
330
549
100
AcDbEntity
  8
寸法
 62
     0
100
AcDbMText
 10
473.7464987873512
 20
267.7194496632122
 30
0.0
 40
0.7
 41
0.0
 71
     5
 72
     1
  1
7.62
 73
     1
 44
1.0
  0
POINT
  5
18CC
330
549
100
AcDbEntity
  8
Defpoints
 62
     0
100
AcDbPoint
 10
469.9364987873512
 20
273.747457070988
 30
0.0
  0
POINT
  5
18CD
330
549
100
AcDbEntity
  8
Defpoints
 62
     0
100
AcDbPoint
 10
477.5564987873512
 20
273.747457070988
 30
0.0
  0
POINT
  5
18CE
330
549
100
AcDbEntity
  8
Defpoints
 62
     0
100
AcDbPoint
 10
477.5564987873512
 20
267.1694496632122
 30
0.0
  0
ENDBLK
  5
554
330
549
100
AcDbEntity
  8
0
 62
     5
100
AcDbBlockEnd
  0
BLOCK
  5
55F
330
555
100
AcDbEntity
  8
0
 62
     5
100
AcDbBlockBegin
  2
*D5
 70
     1
 10
0.0
 20
0.0
 30
0.0
  3
*D5
  1

  0
LINE
  5
18BD
330
555
100
AcDbEntity
  8
寸法
 62
     0
370
    -2
100
AcDbLine
 10
477.5564987873512
 20
272.747457070988
 30
0.0
 11
477.5564987873512
 21
266.6694496632122
 31
0.0
  0
LINE
  5
18BE
330
555
100
AcDbEntity
  8
寸法
 62
     0
370
    -2
100
AcDbLine
 10
485.1764987873513
 20
272.747457070988
 30
0.0
 11
485.1764987873513
 21
266.6694496632122
 31
0.0
  0
LINE
  5
18BF
330
555
100
AcDbEntity
  8
寸法
 62
     0
370
    -2
100
AcDbLine
 10
478.5564987873512
 20
267.1694496632122
 30
0.0
 11
484.1764987873514
 21
267.1694496632122
 31
0.0
  0
SOLID
  5
18C0
330
555
100
AcDbEntity
  8
寸法
 62
     0
100
AcDbTrace
 10
478.5564987873512
 20
267.3361163298789
 30
0.0
 11
478.5564987873512
 21
267.0027829965455
 31
0.0
 12
477.5564987873512
 22
267.1694496632122
 32
0.0
 13
477.5564987873512
 23
267.1694496632122
 33
0.0
  0
SOLID
  5
18C1
330
555
100
AcDbEntity
  8
寸法
 62
     0
100
AcDbTrace
 10
484.1764987873514
 20
267.3361163298789
 30
0.0
 11
484.1764987873514
 21
267.0027829965455
 31
0.0
 12
485.1764987873513
 22
267.1694496632122
 32
0.0
 13
485.1764987873513
 23
267.1694496632122
 33
0.0
  0
MTEXT
  5
18C2
330
555
100
AcDbEntity
  8
寸法
 62
     0
100
AcDbMText
 10
481.3664987873512
 20
267.7194496632122
 30
0.0
 40
0.7
 41
0.0
 71
     5
 72
     1
  1
7.62
 73
     1
 44
1.0
  0
POINT
  5
18C3
330
555
100
AcDbEntity
  8
Defpoints
 62
     0
100
AcDbPoint
 10
477.5564987873512
 20
273.747457070988
 30
0.0
  0
POINT
  5
18C4
330
555
100
AcDbEntity
  8
Defpoints
 62
     0
100
AcDbPoint
 10
485.1764987873513
 20
273.747457070988
 30
0.0
  0
POINT
  5
18C5
330
555
100
AcDbEntity
  8
Defpoints
 62
     0
100
AcDbPoint
 10
485.1764987873513
 20
267.1694496632122
 30
0.0
  0
ENDBLK
  5
560
330
555
100
AcDbEntity
  8
0
 62
     5
100
AcDbBlockEnd
  0
BLOCK
  5
706
330
6FA
100
AcDbEntity
  8
0
 62
     5
100
AcDbBlockBegin
  2
*D6
 70
     1
 10
0.0
 20
0.0
 30
0.0
  3
*D6
  1

  0
LINE
  5
18FD
330
6FA
100
AcDbEntity
  8
寸法
 62
     0
370
    -2
100
AcDbLine
 10
486.5764987873514
 20
274.997457070988
 30
0.0
 11
487.5764987873513
 21
274.997457070988
 31
0.0
  0
LINE
  5
18FE
330
6FA
100
AcDbEntity
  8
寸法
 62
     0
370
    -2
100
AcDbLine
 10
483.7764987873513
 20
274.997457070988
 30
0.0
 11
479.6931654540181
 21
274.997457070988
 31
0.0
  0
SOLID
  5
18FF
330
6FA
100
AcDbEntity
  8
寸法
 62
     0
100
AcDbTrace
 10
486.5764987873514
 20
275.1641237376546
 30
0.0
 11
486.5764987873514
 21
274.8307904043213
 31
0.0
 12
485.5764987873514
 22
274.997457070988
 32
0.0
 13
485.5764987873514
 23
274.997457070988
 33
0.0
  0
SOLID
  5
1900
330
6FA
100
AcDbEntity
  8
寸法
 62
     0
100
AcDbTrace
 10
483.7764987873513
 20
275.1641237376546
 30
0.0
 11
483.7764987873513
 21
274.8307904043213
 31
0.0
 12
484.7764987873514
 22
274.997457070988
 32
0.0
 13
484.7764987873514
 23
274.997457070988
 33
0.0
  0
MTEXT
  5
1901
330
6FA
100
AcDbEntity
  8
寸法
 62
     0
100
AcDbMText
 10
481.2348321206846
 20
275.547457070988
 30
0.0
 40
0.7
 41
0.0
 71
     5
 72
     1
  1
2-0.8
 73
     1
 44
1.0
  0
POINT
  5
1902
330
6FA
100
AcDbEntity
  8
Defpoints
 62
     0
100
AcDbPoint
 10
485.5764987873514
 20
273.7474570709881
 30
0.0
  0
POINT
  5
1903
330
6FA
100
AcDbEntity
  8
Defpoints
 62
     0
100
AcDbPoint
 10
484.7764987873514
 20
273.7474570709881
 30
0.0
  0
POINT
  5
1904
330
6FA
100
AcDbEntity
  8
Defpoints
 62
     0
100
AcDbPoint
 10
484.7764987873514
 20
274.997457070988
 30
0.0
  0
ENDBLK
  5
707
330
6FA
100
AcDbEntity
  8
0
 62
     5
100
AcDbBlockEnd
  0
BLOCK
  5
74F
330
745
100
AcDbEntity
  8
0
 62
     5
100
AcDbBlockBegin
  2
*D7
 70
     1
 10
0.0
 20
0.0
 30
0.0
  3
*D7
  1

  0
LINE
  5
184F
330
745
100
AcDbEntity
  8
寸法
 62
     0
370
    -2
100
AcDbLine
 10
503.4722260398961
 20
292.247457070988
 30
0.0
 11
503.4722260398961
 21
295.6534917877581
 31
0.0
  0
LINE
  5
1850
330
745
100
AcDbEntity
  8
寸法
 62
     0
370
    -2
100
AcDbLine
 10
508.4722260398962
 20
292.2474570709881
 30
0.0
 11
508.4722260398962
 21
295.6534917877581
 31
0.0
  0
LINE
  5
1851
330
745
100
AcDbEntity
  8
寸法
 62
     0
370
    -2
100
AcDbLine
 10
504.4722260398961
 20
295.1534917877582
 30
0.0
 11
507.4722260398962
 21
295.1534917877582
 31
0.0
  0
SOLID
  5
1852
330
745
100
AcDbEntity
  8
寸法
 62
     0
100
AcDbTrace
 10
504.4722260398961
 20
295.3201584544249
 30
0.0
 11
504.4722260398961
 21
294.9868251210915
 31
0.0
 12
503.4722260398961
 22
295.1534917877582
 32
0.0
 13
503.4722260398961
 23
295.1534917877582
 33
0.0
  0
SOLID
  5
1853
330
745
100
AcDbEntity
  8
寸法
 62
     0
100
AcDbTrace
 10
507.4722260398962
 20
295.3201584544249
 30
0.0
 11
507.4722260398962
 21
294.9868251210915
 31
0.0
 12
508.4722260398962
 22
295.1534917877582
 32
0.0
 13
508.4722260398962
 23
295.1534917877582
 33
0.0
  0
MTEXT
  5
1854
330
745
100
AcDbEntity
  8
寸法
 62
     0
100
AcDbMText
 10
505.9722260398961
 20
295.7034917877582
 30
0.0
 40
0.7
 41
0.0
 71
     5
 72
     1
  1
5
 73
     1
 44
1.0
  0
POINT
  5
1855
330
745
100
AcDbEntity
  8
Defpoints
 62
     0
100
AcDbPoint
 10
503.4722260398961
 20
291.2474570709881
 30
0.0
  0
POINT
  5
1856
330
745
100
AcDbEntity
  8
Defpoints
 62
     0
100
AcDbPoint
 10
508.4722260398962
 20
291.2474570709881
 30
0.0
  0
POINT
  5
1857
330
745
100
AcDbEntity
  8
Defpoints
 62
     0
100
AcDbPoint
 10
508.4722260398962
 20
295.1534917877582
 30
0.0
  0
ENDBLK
  5
750
330
745
100
AcDbEntity
  8
0
 62
     5
100
AcDbBlockEnd
  0
BLOCK
  5
79D
330
791
100
AcDbEntity
  8
0
 62
     5
100
AcDbBlockBegin
  2
*D8
 70
     1
 10
0.0
 20
0.0
 30
0.0
  3
*D8
  1

  0
LINE
  5
1910
330
791
100
AcDbEntity
  8
寸法
 62
     0
370
    -2
100
AcDbLine
 10
504.9722260398961
 20
272.747457070988
 30
0.0
 11
504.9722260398961
 21
270.1694496632122
 31
0.0
  0
LINE
  5
1911
330
791
100
AcDbEntity
  8
寸法
 62
     0
370
    -2
100
AcDbLine
 10
504.5722260398961
 20
272.747457070988
 30
0.0
 11
504.5722260398961
 21
270.1694496632122
 31
0.0
  0
LINE
  5
1912
330
791
100
AcDbEntity
  8
寸法
 62
     0
370
    -2
100
AcDbLine
 10
505.9722260398961
 20
270.6694496632122
 30
0.0
 11
506.9722260398961
 21
270.6694496632122
 31
0.0
  0
LINE
  5
1913
330
791
100
AcDbEntity
  8
寸法
 62
     0
370
    -2
100
AcDbLine
 10
503.5722260398961
 20
270.6694496632122
 30
0.0
 11
500.8888927065628
 21
270.6694496632122
 31
0.0
  0
SOLID
  5
1914
330
791
100
AcDbEntity
  8
寸法
 62
     0
100
AcDbTrace
 10
505.9722260398961
 20
270.8361163298789
 30
0.0
 11
505.9722260398961
 21
270.5027829965455
 31
0.0
 12
504.9722260398961
 22
270.6694496632122
 32
0.0
 13
504.9722260398961
 23
270.6694496632122
 33
0.0
  0
SOLID
  5
1915
330
791
100
AcDbEntity
  8
寸法
 62
     0
100
AcDbTrace
 10
503.5722260398961
 20
270.8361163298789
 30
0.0
 11
503.5722260398961
 21
270.5027829965455
 31
0.0
 12
504.5722260398961
 22
270.6694496632122
 32
0.0
 13
504.5722260398961
 23
270.6694496632122
 33
0.0
  0
MTEXT
  5
1916
330
791
100
AcDbEntity
  8
寸法
 62
     0
100
AcDbMText
 10
501.7305593732295
 20
271.2194496632122
 30
0.0
 40
0.7
 41
0.0
 71
     5
 72
     1
  1
0.4
 73
     1
 44
1.0
  0
POINT
  5
1917
330
791
100
AcDbEntity
  8
Defpoints
 62
     0
100
AcDbPoint
 10
504.9722260398961
 20
273.747457070988
 30
0.0
  0
POINT
  5
1918
330
791
100
AcDbEntity
  8
Defpoints
 62
     0
100
AcDbPoint
 10
504.5722260398961
 20
273.747457070988
 30
0.0
  0
POINT
  5
1919
330
791
100
AcDbEntity
  8
Defpoints
 62
     0
100
AcDbPoint
 10
504.5722260398961
 20
270.6694496632122
 30
0.0
  0
ENDBLK
  5
79E
330
791
100
AcDbEntity
  8
0
 62
     5
100
AcDbBlockEnd
  0
BLOCK
  5
84D
330
841
100
AcDbEntity
  8
0
 62
     5
100
AcDbBlockBegin
  2
*D9
 70
     1
 10
0.0
 20
0.0
 30
0.0
  3
*D9
  1

  0
LINE
  5
1925
330
841
100
AcDbEntity
  8
寸法
 62
     0
370
    -2
100
AcDbLine
 10
505.9722260398962
 20
272.2474570709881
 30
0.0
 11
505.9722260398962
 21
267.1694496632122
 31
0.0
  0
LINE
  5
1926
330
841
100
AcDbEntity
  8
寸法
 62
     0
370
    -2
100
AcDbLine
 10
504.7722260398962
 20
272.747457070988
 30
0.0
 11
504.7722260398962
 21
267.1694496632122
 31
0.0
  0
LINE
  5
1927
330
841
100
AcDbEntity
  8
寸法
 62
     0
370
    -2
100
AcDbLine
 10
506.9722260398962
 20
267.6694496632122
 30
0.0
 11
507.9722260398962
 21
267.6694496632122
 31
0.0
  0
LINE
  5
1928
330
841
100
AcDbEntity
  8
寸法
 62
     0
370
    -2
100
AcDbLine
 10
503.7722260398961
 20
267.6694496632122
 30
0.0
 11
500.9252191394038
 21
267.6694496632122
 31
0.0
  0
SOLID
  5
1929
330
841
100
AcDbEntity
  8
寸法
 62
     0
100
AcDbTrace
 10
506.9722260398962
 20
267.8361163298788
 30
0.0
 11
506.9722260398962
 21
267.5027829965455
 31
0.0
 12
505.9722260398962
 22
267.6694496632122
 32
0.0
 13
505.9722260398962
 23
267.6694496632122
 33
0.0
  0
SOLID
  5
192A
330
841
100
AcDbEntity
  8
寸法
 62
     0
100
AcDbTrace
 10
503.7722260398961
 20
267.8361163298788
 30
0.0
 11
503.7722260398961
 21
267.5027829965455
 31
0.0
 12
504.7722260398962
 22
267.6694496632122
 32
0.0
 13
504.7722260398962
 23
267.6694496632122
 33
0.0
  0
MTEXT
  5
192B
330
841
100
AcDbEntity
  8
寸法
 62
     0
100
AcDbMText
 10
501.708552472737
 20
268.2194496632122
 30
0.0
 40
0.7
 41
0.0
 71
     5
 72
     1
  1
1.2
 73
     1
 44
1.0
  0
POINT
  5
192C
330
841
100
AcDbEntity
  8
Defpoints
 62
     0
100
AcDbPoint
 10
505.9722260398962
 20
273.2474570709881
 30
0.0
  0
POINT
  5
192D
330
841
100
AcDbEntity
  8
Defpoints
 62
     0
100
AcDbPoint
 10
504.7722260398962
 20
273.747457070988
 30
0.0
  0
POINT
  5
192E
330
841
100
AcDbEntity
  8
Defpoints
 62
     0
100
AcDbPoint
 10
504.7722260398962
 20
267.6694496632122
 30
0.0
  0
ENDBLK
  5
84E
330
841
100
AcDbEntity
  8
0
 62
     5
100
AcDbBlockEnd
  0
BLOCK
  5
1356
330
134A
100
AcDbEntity
  8
0
 62
     5
100
AcDbBlockBegin
  2
*D10
 70
     1
 10
0.0
 20
0.0
 30
0.0
  3
*D10
  1

  0
LINE
  5
18A9
330
134A
100
AcDbEntity
  8
寸法
 62
     0
370
    -2
100
AcDbLine
 10
477.5564987873512
 20
272.747457070988
 30
0.0
 11
477.5564987873512
 21
269.6694496632122
 31
0.0
  0
LINE
  5
18AA
330
134A
100
AcDbEntity
  8
寸法
 62
     0
370
    -2
100
AcDbLine
 10
476.2564987873512
 20
272.747457070988
 30
0.0
 11
476.2564987873512
 21
269.6694496632122
 31
0.0
  0
LINE
  5
18AB
330
134A
100
AcDbEntity
  8
寸法
 62
     0
370
    -2
100
AcDbLine
 10
478.5564987873512
 20
270.1694496632122
 30
0.0
 11
479.5564987873512
 21
270.1694496632122
 31
0.0
  0
LINE
  5
18AC
330
134A
100
AcDbEntity
  8
寸法
 62
     0
370
    -2
100
AcDbLine
 10
475.2564987873512
 20
270.1694496632122
 30
0.0
 11
472.6898321206845
 21
270.1694496632122
 31
0.0
  0
SOLID
  5
18AD
330
134A
100
AcDbEntity
  8
寸法
 62
     0
100
AcDbTrace
 10
478.5564987873512
 20
270.3361163298789
 30
0.0
 11
478.5564987873512
 21
270.0027829965455
 31
0.0
 12
477.5564987873512
 22
270.1694496632122
 32
0.0
 13
477.5564987873512
 23
270.1694496632122
 33
0.0
  0
SOLID
  5
18AE
330
134A
100
AcDbEntity
  8
寸法
 62
     0
100
AcDbTrace
 10
475.2564987873512
 20
270.3361163298789
 30
0.0
 11
475.2564987873512
 21
270.0027829965455
 31
0.0
 12
476.2564987873512
 22
270.1694496632122
 32
0.0
 13
476.2564987873512
 23
270.1694496632122
 33
0.0
  0
MTEXT
  5
18AF
330
134A
100
AcDbEntity
  8
寸法
 62
     0
100
AcDbMText
 10
473.4731654540178
 20
270.7194496632122
 30
0.0
 40
0.7
 41
0.0
 71
     5
 72
     1
  1
1.3
 73
     1
 44
1.0
  0
POINT
  5
18B0
330
134A
100
AcDbEntity
  8
Defpoints
 62
     0
100
AcDbPoint
 10
477.5564987873512
 20
273.747457070988
 30
0.0
  0
POINT
  5
18B1
330
134A
100
AcDbEntity
  8
Defpoints
 62
     0
100
AcDbPoint
 10
476.2564987873512
 20
273.747457070988
 30
0.0
  0
POINT
  5
18B2
330
134A
100
AcDbEntity
  8
Defpoints
 62
     0
100
AcDbPoint
 10
476.2564987873512
 20
270.1694496632122
 30
0.0
  0
ENDBLK
  5
1357
330
134A
100
AcDbEntity
  8
0
 62
     5
100
AcDbBlockEnd
  0
BLOCK
  5
1511
330
1506
100
AcDbEntity
  8
0
 62
     5
100
AcDbBlockBegin
  2
*D11
 70
     1
 10
0.0
 20
0.0
 30
0.0
  3
*D11
  1

  0
LINE
  5
18EC
330
1506
100
AcDbEntity
  8
寸法
 62
     0
370
    -2
100
AcDbLine
 10
468.6464987873511
 20
274.997457070988
 30
0.0
 11
469.6464987873511
 21
274.997457070988
 31
0.0
  0
LINE
  5
18ED
330
1506
100
AcDbEntity
  8
寸法
 62
     0
370
    -2
100
AcDbLine
 10
466.1464987873513
 20
274.997457070988
 30
0.0
 11
462.0631654540179
 21
274.997457070988
 31
0.0
  0
SOLID
  5
18EE
330
1506
100
AcDbEntity
  8
寸法
 62
     0
100
AcDbTrace
 10
468.6464987873511
 20
275.1641237376547
 30
0.0
 11
468.6464987873511
 21
274.8307904043213
 31
0.0
 12
467.6464987873512
 22
274.997457070988
 32
0.0
 13
467.6464987873512
 23
274.997457070988
 33
0.0
  0
SOLID
  5
18EF
330
1506
100
AcDbEntity
  8
寸法
 62
     0
100
AcDbTrace
 10
466.1464987873513
 20
275.1641237376547
 30
0.0
 11
466.1464987873513
 21
274.8307904043213
 31
0.0
 12
467.1464987873513
 22
274.997457070988
 32
0.0
 13
467.1464987873513
 23
274.997457070988
 33
0.0
  0
MTEXT
  5
18F0
330
1506
100
AcDbEntity
  8
寸法
 62
     0
100
AcDbMText
 10
463.6048321206845
 20
275.547457070988
 30
0.0
 40
0.7
 41
0.0
 71
     5
 72
     1
  1
2-0.5
 73
     1
 44
1.0
  0
POINT
  5
18F1
330
1506
100
AcDbEntity
  8
Defpoints
 62
     0
100
AcDbPoint
 10
467.6464987873512
 20
273.7474570709884
 30
0.0
  0
POINT
  5
18F2
330
1506
100
AcDbEntity
  8
Defpoints
 62
     0
100
AcDbPoint
 10
467.1464987873513
 20
273.7474570709884
 30
0.0
  0
POINT
  5
18F3
330
1506
100
AcDbEntity
  8
Defpoints
 62
     0
100
AcDbPoint
 10
467.1464987873513
 20
274.997457070988
 30
0.0
  0
ENDBLK
  5
1512
330
1506
100
AcDbEntity
  8
0
 62
     5
100
AcDbBlockEnd
  0
ENDSEC
  0
SECTION
  2
ENTITIES
  0
MTEXT
  5
CA
330
1F
100
AcDbEntity
  8
外形
100
AcDbMText
 10
479.0028870929895
 20
274.0093178641407
 30
0.0
 40
0.7
 41
0.5
 71
     5
 72
     5
  1
{\fＭＳ ゴシック|b0|i0|c128|p49;2}
 73
     1
 44
1.0
  0
MTEXT
  5
F7
330
1F
100
AcDbEntity
  8
外形
100
AcDbMText
 10
467.619106209026
 20
305.373948999676
 30
0.0
 40
2.5
 41
15.32881114699549
 71
     5
 72
     5
  1
{\fMS UI Gothic|b0|i0|c128|p17;外形寸法}
 73
     1
 44
1.0
  0
MTEXT
  5
F9
330
1F
100
AcDbEntity
  8
外形
100
AcDbMText
 10
480.4432895195715
 20
256.5090972619485
 30
0.0
 40
2.5
 41
40.49999999999999
 71
     5
 72
     5
  1
{\fMS UI Gothic|b0|i0|c128|p17;プリント基板取付穴寸法図 }
 73
     1
 44
1.0
  0
LINE
  5
44F
330
1F
100
AcDbEntity
  8
外形
100
AcDbLine
 10
466.2564987873511
 20
291.2474570709881
 30
0.0
 11
466.2564987873512
 21
277.2474570709881
 31
0.0
  0
LINE
  5
450
330
1F
100
AcDbEntity
  8
外形
100
AcDbLine
 10
486.2564987873512
 20
291.2474570709881
 30
0.0
 11
486.2564987873512
 21
277.2474570709881
 31
0.0
  0
LINE
  5
451
330
1F
100
AcDbEntity
  8
外形
100
AcDbLine
 10
466.7564987873511
 20
291.7474570709881
 30
0.0
 11
485.7564987873512
 21
291.7474570709881
 31
0.0
  0
LINE
  5
452
330
1F
100
AcDbEntity
  8
外形
100
AcDbLine
 10
486.2564987873512
 20
277.2474570709881
 30
0.0
 11
483.0264987873514
 21
277.2474570709881
 31
0.0
  0
DIMENSION
  5
454
330
1F
100
AcDbEntity
  8
寸法
 62
     5
100
AcDbDimension
  2
*D1
 10
486.2564987873512
 20
295.1534917877582
 30
0.0
 11
476.2564987873512
 21
295.7034917877582
 31
0.0
 70
    32
 71
     5
 42
20.00000000000005
  3
ISO-25
100
AcDbAlignedDimension
 13
466.2564987873511
 23
291.2474570709881
 33
0.0
 14
486.2564987873512
 24
291.2474570709881
 34
0.0
100
AcDbRotatedDimension
  0
DIMENSION
  5
455
330
1F
100
AcDbEntity
  8
寸法
 62
     5
100
AcDbDimension
  2
*D0
 10
492.30818011515
 20
277.2474570709881
 30
0.0
 11
491.75818011515
 21
284.4974570709882
 31
0.0
 70
    32
 71
     5
 42
14.50000000000005
  3
ISO-25
100
AcDbAlignedDimension
 13
485.7564987873512
 23
291.7474570709881
 33
0.0
 14
486.2564987873512
 24
277.2474570709881
 34
0.0
 50
90.0
100
AcDbRotatedDimension
  0
DIMENSION
  5
4BF
330
1F
100
AcDbEntity
  8
寸法
 62
     5
100
AcDbDimension
  2
*D2
 10
492.30818011515
 20
273.747457070988
 30
0.0
 11
491.75818011515
 21
275.497457070988
 31
0.0
 70
    32
 71
     5
 42
3.500000000000056
  3
ISO-25
100
AcDbAlignedDimension
 13
486.2564987873512
 23
277.2474570709881
 33
0.0
 14
485.5764987873514
 24
273.747457070988
 34
0.0
 50
90.0
100
AcDbRotatedDimension
  0
DIMENSION
  5
53A
330
1F
100
AcDbEntity
  8
寸法
 62
     5
100
AcDbDimension
  2
*D4
 10
477.5564987873512
 20
267.1694496632122
 30
0.0
 11
473.7464987873512
 21
267.7194496632122
 31
0.0
 70
    32
 71
     5
 42
7.620000000000004
  3
ISO-25
100
AcDbAlignedDimension
 13
469.9364987873512
 23
273.747457070988
 33
0.0
 14
477.5564987873512
 24
273.747457070988
 34
0.0
100
AcDbRotatedDimension
  0
DIMENSION
  5
53B
330
1F
100
AcDbEntity
  8
寸法
 62
     5
100
AcDbDimension
  2
*D5
 10
485.1764987873513
 20
267.1694496632122
 30
0.0
 11
481.3664987873512
 21
267.7194496632122
 31
0.0
 70
    32
 71
     5
 42
7.620000000000118
  3
ISO-25
100
AcDbAlignedDimension
 13
477.5564987873512
 23
273.747457070988
 33
0.0
 14
485.1764987873513
 24
273.747457070988
 34
0.0
100
AcDbRotatedDimension
  0
DIMENSION
  5
53C
330
1F
100
AcDbEntity
  8
寸法
 62
     5
100
AcDbDimension
  2
*D3
 10
467.3964987873512
 20
267.1694496632122
 30
0.0
 11
468.6664987873512
 21
267.7194496632122
 31
0.0
 70
    32
 71
     5
 42
2.539999999999963
  3
ISO-25
100
AcDbAlignedDimension
 13
469.9364987873511
 23
273.747457070988
 33
0.0
 14
467.3964987873512
 24
273.747457070988
 34
0.0
 50
180.0
100
AcDbRotatedDimension
  0
LINE
  5
57D
330
1F
100
AcDbEntity
  8
外形
100
AcDbLine
 10
467.1464987873513
 20
277.2474570709881
 30
0.0
 11
467.1464987873512
 21
273.747457070988
 31
0.0
  0
LINE
  5
57E
330
1F
100
AcDbEntity
  8
外形
100
AcDbLine
 10
467.6464987873512
 20
277.2474570709881
 30
0.0
 11
467.6464987873512
 21
273.747457070988
 31
0.0
  0
LINE
  5
57F
330
1F
100
AcDbEntity
  8
外形
100
AcDbLine
 10
467.6464987873512
 20
273.747457070988
 30
0.0
 11
467.1464987873512
 21
273.747457070988
 31
0.0
  0
LINE
  5
582
330
1F
100
AcDbEntity
  8
外形
100
AcDbLine
 10
484.7764987873512
 20
273.7474570709879
 30
0.0
 11
485.5764987873514
 21
273.7474570709881
 31
0.0
  0
LINE
  5
588
330
1F
100
AcDbEntity
  8
外形
100
AcDbLine
 10
470.1864987873516
 20
276.947457070988
 30
0.0
 11
470.1864987873512
 21
273.747457070988
 31
0.0
  0
LINE
  5
589
330
1F
100
AcDbEntity
  8
外形
100
AcDbLine
 10
470.1864987873512
 20
273.747457070988
 30
0.0
 11
469.6864987873512
 21
273.747457070988
 31
0.0
  0
LINE
  5
58A
330
1F
100
AcDbEntity
  8
外形
100
AcDbLine
 10
469.6864987873516
 20
276.947457070988
 30
0.0
 11
469.6864987873512
 21
273.747457070988
 31
0.0
  0
LINE
  5
58B
330
1F
100
AcDbEntity
  8
外形
100
AcDbLine
 10
477.1564987873512
 20
277.2474570709881
 30
0.0
 11
477.1564987873512
 21
273.747457070988
 31
0.0
  0
LINE
  5
58C
330
1F
100
AcDbEntity
  8
外形
100
AcDbLine
 10
477.9564987873512
 20
277.2474570709881
 30
0.0
 11
477.9564987873512
 21
273.747457070988
 31
0.0
  0
LINE
  5
58D
330
1F
100
AcDbEntity
  8
外形
100
AcDbLine
 10
477.9564987873512
 20
273.747457070988
 30
0.0
 11
477.1564987873512
 21
273.747457070988
 31
0.0
  0
CIRCLE
  5
5F2
330
1F
100
AcDbEntity
  8
外形
100
AcDbCircle
 10
479.0028870929895
 20
274.0093178641407
 30
0.0
 40
0.5
  0
LINE
  5
651
330
1F
100
AcDbEntity
  8
外形
 62
     1
 48
0.2
100
AcDbLine
 10
467.3964987873514
 20
242.2851311287826
 30
0.0
 11
467.3964987873514
 21
240.2851311287826
 31
0.0
  0
LINE
  5
652
330
1F
100
AcDbEntity
  8
外形
 62
     1
 48
0.2
100
AcDbLine
 10
477.5564987873513
 20
242.2851311287826
 30
0.0
 11
477.5564987873513
 21
240.2851311287826
 31
0.0
  0
LINE
  5
654
330
1F
100
AcDbEntity
  8
外形
 62
     1
 48
0.2
100
AcDbLine
 10
466.3964987873513
 20
241.2851311287826
 30
0.0
 11
486.1764987873513
 21
241.2851311287826
 31
0.0
  0
CIRCLE
  5
657
330
1F
100
AcDbEntity
  8
外形
100
AcDbCircle
 10
469.9364987873513
 20
241.2851311287826
 30
0.0
 40
0.4
  0
LINE
  5
658
330
1F
100
AcDbEntity
  8
外形
 62
     1
 48
0.2
100
AcDbLine
 10
469.9364987873513
 20
242.2851311287826
 30
0.0
 11
469.9364987873513
 21
240.2851311287826
 31
0.0
  0
CIRCLE
  5
65A
330
1F
100
AcDbEntity
  8
外形
100
AcDbCircle
 10
485.1764987873513
 20
241.2851311287826
 30
0.0
 40
0.5
  0
LINE
  5
65B
330
1F
100
AcDbEntity
  8
外形
 62
     1
 48
0.2
100
AcDbLine
 10
485.1764987873513
 20
242.2851311287826
 30
0.0
 11
485.1764987873513
 21
240.2851311287826
 31
0.0
  0
MTEXT
  5
65D
330
1F
100
AcDbEntity
  8
寸法
 62
     5
100
AcDbMText
 10
491.3737214059407
 20
243.8688244853987
 30
0.0
 40
0.7
 41
0.0
 71
     8
 72
     1
  1
{\fMS UI Gothic|b0|i0|c128|p17;穴径2-φ1.0}
 73
     2
 44
1.0
  0
CIRCLE
  5
65E
330
1F
100
AcDbEntity
  8
外形
100
AcDbCircle
 10
467.3964987873514
 20
241.2851311287826
 30
0.0
 40
0.4
  0
CIRCLE
  5
661
330
1F
100
AcDbEntity
  8
外形
100
AcDbCircle
 10
477.5564987873513
 20
241.2851311287826
 30
0.0
 40
0.5
  0
MTEXT
  5
6F1
330
1F
100
AcDbEntity
  8
外形
100
AcDbMText
 10
486.1640263619094
 20
273.0755773488788
 30
0.0
 40
0.7
 41
0.5
 71
     5
 72
     5
  1
{\fＭＳ ゴシック|b0|i0|c128|p49;1}
 73
     1
 44
1.0
  0
CIRCLE
  5
6F2
330
1F
100
AcDbEntity
  8
外形
100
AcDbCircle
 10
486.1640263619094
 20
273.0755773488788
 30
0.0
 40
0.5
  0
CIRCLE
  5
6F3
330
1F
100
AcDbEntity
  8
外形
100
AcDbCircle
 10
471.0505705116879
 20
274.0093178641407
 30
0.0
 40
0.5
  0
MTEXT
  5
6F4
330
1F
100
AcDbEntity
  8
外形
100
AcDbMText
 10
471.0505705116879
 20
274.0093178641407
 30
0.0
 40
0.7
 41
0.5
 71
     5
 72
     5
  1
{\fＭＳ ゴシック|b0|i0|c128|p49;3}
 73
     1
 44
1.0
  0
CIRCLE
  5
6F5
330
1F
100
AcDbEntity
  8
外形
100
AcDbCircle
 10
466.3050527731745
 20
274.0093178641407
 30
0.0
 40
0.5
  0
MTEXT
  5
6F8
330
1F
100
AcDbEntity
  8
外形
100
AcDbMText
 10
466.3050527731745
 20
274.0093178641407
 30
0.0
 40
0.7
 41
0.5
 71
     5
 72
     5
  1
{\fＭＳ ゴシック|b0|i0|c128|p49;4}
 73
     1
 44
1.0
  0
DIMENSION
  5
6F9
330
1F
100
AcDbEntity
  8
寸法
 62
     5
100
AcDbDimension
  2
*D6
 10
484.7764987873514
 20
274.997457070988
 30
0.0
 11
481.2348321206846
 21
275.547457070988
 31
0.0
 70
    32
 71
     5
 42
0.8000000000000113
  3
ISO-25
100
AcDbAlignedDimension
 13
485.5764987873514
 23
273.7474570709881
 33
0.0
 14
484.7764987873514
 24
273.7474570709881
 34
0.0
100
AcDbRotatedDimension
1001
ACAD
1000
DSTYLE
1002
{
1070
    76
1070
     1
1070
    75
1070
     1
1070
     3
1000
2-<>
1070
   172
1070
     0
1002
}
  0
ARC
  5
73E
330
1F
100
AcDbEntity
  8
外形
100
AcDbCircle
 10
485.7564987873512
 20
291.2474570709881
 30
0.0
 40
0.5
100
AcDbArc
 50
0.0
 51
90.0
  0
ARC
  5
73F
330
1F
100
AcDbEntity
  8
外形
100
AcDbCircle
 10
466.7564987873511
 20
291.2474570709881
 30
0.0
 40
0.5
100
AcDbArc
 50
90.00000000000014
 51
180.0
  0
LINE
  5
740
330
1F
100
AcDbEntity
  8
外形
100
AcDbLine
 10
508.4722260398962
 20
291.2474570709881
 30
0.0
 11
508.4722260398962
 21
276.947457070988
 31
0.0
  0
LINE
  5
741
330
1F
100
AcDbEntity
  8
外形
100
AcDbLine
 10
503.9722260398961
 20
291.7474570709881
 30
0.0
 11
507.9722260398962
 21
291.7474570709881
 31
0.0
  0
LINE
  5
743
330
1F
100
AcDbEntity
  8
外形
100
AcDbLine
 10
508.4722260398962
 20
277.2474570709882
 30
0.0
 11
503.4722260398961
 21
277.2474570709881
 31
0.0
  0
DIMENSION
  5
744
330
1F
100
AcDbEntity
  8
寸法
 62
     5
100
AcDbDimension
  2
*D7
 10
508.4722260398962
 20
295.1534917877582
 30
0.0
 11
505.9722260398961
 21
295.7034917877582
 31
0.0
 70
    32
 71
     5
 42
5.000000000000113
  3
ISO-25
100
AcDbAlignedDimension
 13
503.4722260398961
 23
291.2474570709881
 33
0.0
 14
508.4722260398962
 24
291.2474570709881
 34
0.0
100
AcDbRotatedDimension
  0
LINE
  5
75A
330
1F
100
AcDbEntity
  8
外形
100
AcDbLine
 10
503.4722260398961
 20
291.2474570709881
 30
0.0
 11
503.4722260398961
 21
276.947457070988
 31
0.0
  0
ARC
  5
764
330
1F
100
AcDbEntity
  8
外形
100
AcDbCircle
 10
503.9722260398961
 20
291.2474570709881
 30
0.0
 40
0.5
100
AcDbArc
 50
90.00000000000072
 51
180.0
  0
ARC
  5
765
330
1F
100
AcDbEntity
  8
外形
100
AcDbCircle
 10
507.9722260398962
 20
291.2474570709881
 30
0.0
 40
0.5
100
AcDbArc
 50
0.0
 51
90.00000000000072
  0
LINE
  5
771
330
1F
100
AcDbEntity
  8
外形
100
AcDbLine
 10
504.5722260398961
 20
277.247457070988
 30
0.0
 11
504.5722260398961
 21
273.747457070988
 31
0.0
  0
LINE
  5
772
330
1F
100
AcDbEntity
  8
外形
100
AcDbLine
 10
504.9722260398961
 20
277.247457070988
 30
0.0
 11
504.9722260398961
 21
273.747457070988
 31
0.0
  0
LINE
  5
773
330
1F
100
AcDbEntity
  8
外形
100
AcDbLine
 10
504.5722260398961
 20
273.747457070988
 30
0.0
 11
504.9722260398961
 21
273.747457070988
 31
0.0
  0
DIMENSION
  5
774
330
1F
100
AcDbEntity
  8
寸法
 62
     5
100
AcDbDimension
  2
*D8
 10
504.5722260398961
 20
270.6694496632122
 30
0.0
 11
501.7305593732295
 21
271.2194496632122
 31
0.0
 70
    32
 71
     5
 42
0.3999999999999772
  3
ISO-25
100
AcDbAlignedDimension
 13
504.9722260398961
 23
273.747457070988
 33
0.0
 14
504.5722260398961
 24
273.747457070988
 34
0.0
 50
180.0
100
AcDbRotatedDimension
1001
ACAD
1000
DSTYLE
1002
{
1070
   280
1070
     0
1070
    78
1070
     9
1070
   172
1070
     0
1070
    77
1070
     1
1070
     3
1000

1070
   271
1070
     1
1002
}
  0
DIMENSION
  5
840
330
1F
100
AcDbEntity
  8
寸法
 62
     5
100
AcDbDimension
  2
*D9
 10
504.7722260398962
 20
267.6694496632122
 30
0.0
 11
501.708552472737
 21
267.6694496632122
 31
0.0
 70
   160
 71
     5
 42
1.200000000000045
  3
ISO-25
100
AcDbAlignedDimension
 13
505.9722260398962
 23
273.2474570709881
 33
0.0
 14
504.7722260398962
 24
273.747457070988
 34
0.0
 50
180.0
100
AcDbRotatedDimension
1001
ACAD
1000
DSTYLE
1002
{
1070
   172
1070
     0
1070
   271
1070
     1
1002
}
  0
LINE
  5
11D5
330
1F
100
AcDbEntity
  8
外形
100
AcDbLine
 10
503.6722260398962
 20
277.2474570709881
 30
0.0
 11
503.6722260398961
 21
276.947457070988
 31
0.0
  0
LINE
  5
11D6
330
1F
100
AcDbEntity
  8
外形
100
AcDbLine
 10
503.4722260398961
 20
276.947457070988
 30
0.0
 11
503.6722260398961
 21
276.947457070988
 31
0.0
  0
LINE
  5
11D9
330
1F
100
AcDbEntity
  8
外形
100
AcDbLine
 10
508.2722260398963
 20
277.2474570709881
 30
0.0
 11
508.2722260398963
 21
276.947457070988
 31
0.0
  0
LINE
  5
11DA
330
1F
100
AcDbEntity
  8
外形
100
AcDbLine
 10
508.4722260398962
 20
276.947457070988
 30
0.0
 11
508.2722260398963
 21
276.947457070988
 31
0.0
  0
LINE
  5
11DD
330
1F
100
AcDbEntity
  8
外形
  6
CENTER
 62
     1
 48
0.08
100
AcDbLine
 10
476.2564987873512
 20
273.2474570709881
 30
0.0
 11
476.2564987873512
 21
293.2474570709881
 31
0.0
  0
LINE
  5
11DF
330
1F
100
AcDbEntity
  8
外形
  6
CENTER
 62
     1
 48
0.08
100
AcDbLine
 10
505.9722260398962
 20
273.2474570709881
 30
0.0
 11
505.9722260398962
 21
293.2474570709881
 31
0.0
  0
LINE
  5
1274
330
1F
100
AcDbEntity
  8
外形
100
AcDbLine
 10
485.5764987873513
 20
277.2474570709881
 30
0.0
 11
485.5764987873514
 21
273.747457070988
 31
0.0
  0
LINE
  5
1275
330
1F
100
AcDbEntity
  8
外形
100
AcDbLine
 10
484.7764987873513
 20
277.2474570709881
 30
0.0
 11
484.7764987873513
 21
273.747457070988
 31
0.0
  0
LINE
  5
12A2
330
1F
100
AcDbEntity
  8
外形
100
AcDbLine
 10
469.6864987873516
 20
276.947457070988
 30
0.0
 11
470.6864987873511
 21
276.947457070988
 31
0.0
  0
DIMENSION
  5
1349
330
1F
100
AcDbEntity
  8
寸法
 62
     5
100
AcDbDimension
  2
*D10
 10
476.2564987873512
 20
270.1694496632122
 30
0.0
 11
473.4731654540178
 21
270.7194496632122
 31
0.0
 70
    32
 71
     5
 42
1.300000000000011
  3
ISO-25
100
AcDbAlignedDimension
 13
477.5564987873512
 23
273.747457070988
 33
0.0
 14
476.2564987873512
 24
273.747457070988
 34
0.0
100
AcDbRotatedDimension
1001
ACAD
1000
DSTYLE
1002
{
1070
     3
1000
<>
1070
   172
1070
     0
1002
}
  0
LINE
  5
14FE
330
1F
100
AcDbEntity
  8
外形
100
AcDbLine
 10
469.4864987873511
 20
277.247457070988
 30
0.0
 11
469.6864987873516
 21
276.947457070988
 31
0.0
  0
LINE
  5
14FF
330
1F
100
AcDbEntity
  8
外形
100
AcDbLine
 10
470.8864987873511
 20
277.247457070988
 30
0.0
 11
470.6864987873512
 21
276.947457070988
 31
0.0
  0
LINE
  5
1500
330
1F
100
AcDbEntity
  8
外形
100
AcDbLine
 10
481.6264987873513
 20
277.247457070988
 30
0.0
 11
481.8264987873516
 21
276.9474570709881
 31
0.0
  0
LINE
  5
1501
330
1F
100
AcDbEntity
  8
外形
100
AcDbLine
 10
483.0264987873513
 20
277.247457070988
 30
0.0
 11
482.8264987873511
 21
276.9474570709881
 31
0.0
  0
LINE
  5
1502
330
1F
100
AcDbEntity
  8
外形
100
AcDbLine
 10
482.8264987873512
 20
276.9474570709881
 30
0.0
 11
481.8264987873517
 21
276.9474570709881
 31
0.0
  0
LINE
  5
1503
330
1F
100
AcDbEntity
  8
外形
100
AcDbLine
 10
481.6264987873512
 20
277.2474570709881
 30
0.0
 11
470.8864987873512
 21
277.2474570709881
 31
0.0
  0
LINE
  5
1504
330
1F
100
AcDbEntity
  8
外形
100
AcDbLine
 10
469.486498787351
 20
277.2474570709881
 30
0.0
 11
466.2564987873512
 21
277.2474570709881
 31
0.0
  0
DIMENSION
  5
1505
330
1F
100
AcDbEntity
  8
寸法
 62
     5
100
AcDbDimension
  2
*D11
 10
467.1464987873513
 20
274.997457070988
 30
0.0
 11
463.6048321206845
 21
275.547457070988
 31
0.0
 70
    32
 71
     5
 42
0.4999999999998864
  3
ISO-25
100
AcDbAlignedDimension
 13
467.6464987873512
 23
273.7474570709884
 33
0.0
 14
467.1464987873513
 24
273.7474570709884
 34
0.0
100
AcDbRotatedDimension
1001
ACAD
1000
DSTYLE
1002
{
1070
    76
1070
     1
1070
    75
1070
     1
1070
     3
1000
2-<>
1070
   172
1070
     0
1002
}
  0
LEADER
  5
1538
330
1F
100
AcDbEntity
  8
寸法
 62
     5
100
AcDbLeader
  3
ISO-25
 76
     3
 10
485.5743832833012
 20
241.5879312738994
 30
0.0
 10
488.5715154194929
 20
243.8688244853987
 30
0.0
 10
494.2253109547086
 20
243.8688244853987
 30
0.0
1001
ACAD
1000
DSTYLE
1002
{
1070
   147
1040
0.2
1070
    77
1070
     0
1002
}
  0
LEADER
  5
1539
330
1F
100
AcDbEntity
  8
寸法
 62
     5
100
AcDbLeader
  3
ISO-25
 76
     3
 10
470.225987836027
 20
241.0090947349921
 30
0.0
 10
472.9681264958445
 20
238.3943841944983
 30
0.0
 10
478.6219220310601
 20
238.3943841944983
 30
0.0
1001
ACAD
1000
DSTYLE
1002
{
1070
   147
1040
0.2
1070
    77
1070
     0
1002
}
  0
MTEXT
  5
153A
330
1F
100
AcDbEntity
  8
寸法
 62
     5
100
AcDbMText
 10
475.7703324822923
 20
238.3943841944983
 30
0.0
 40
0.7
 41
0.0
 71
     8
 72
     1
  1
{\fMS UI Gothic|b0|i0|c128|p17;穴径2-φ0.8}
 73
     2
 44
1.0
  0
VIEWPORT
  5
2D8
102
{ACAD_XDICTIONARY
360
305
102
}
330
2D1
100
AcDbEntity
 67
     1
  8
0
 62
     5
100
AcDbViewport
 10
100.2135806083679
 20
143.6899075508117
 30
0.0
 40
425.8173937256335
 41
314.1477025756835
 68
     2
 69
     1
 12
100.2135806083679
 22
143.6899075508117
 13
0.0
 23
0.0
 14
10.0
 24
10.0
 15
10.0
 25
10.0
 16
0.0
 26
0.0
 36
1.0
 17
0.0
 27
0.0
 37
0.0
 42
50.0
 43
0.0
 44
0.0
 45
314.1477025756835
 50
0.0
 51
0.0
 72
   100
 90
    32800
  1

281
     0
 71
     1
 74
     0
110
0.0
120
0.0
130
0.0
111
1.0
121
0.0
131
0.0
112
0.0
122
1.0
132
0.0
 79
     0
146
0.0
  0
VIEWPORT
  5
1662
330
2D1
100
AcDbEntity
 67
     1
  8
寸法
 62
     5
100
AcDbViewport
 10
100.1712510585784
 20
143.6899168491363
 30
0.0
 40
200.3425021171569
 41
287.3798336982726
 68
     1
 69
     2
 12
478.3401544070833
 22
272.8142321333718
 13
0.0
 23
0.0
 14
10.0
 24
10.0
 15
10.0
 25
10.0
 16
0.0
 26
0.0
 36
1.0
 17
0.0
 27
0.0
 37
0.0
 42
50.0
 43
0.0
 44
0.0
 45
88.34798850947169
 50
0.0
 51
0.0
 72
   100
 90
    32864
  1

281
     0
 71
     1
 74
     0
110
0.0
120
0.0
130
0.0
111
1.0
121
0.0
131
0.0
112
0.0
122
1.0
132
0.0
 79
     0
146
0.0
  0
ENDSEC
  0
SECTION
  2
OBJECTS
  0
DICTIONARY
  5
C
330
0
100
AcDbDictionary
281
     1
  3
ACAD_COLOR
350
2EC
  3
ACAD_GROUP
350
D
  3
ACAD_LAYOUT
350
1A
  3
ACAD_MATERIAL
350
2EB
  3
ACAD_MLINESTYLE
350
17
  3
ACAD_PLOTSETTINGS
350
19
  3
ACAD_PLOTSTYLENAME
350
E
  3
ACAD_TABLESTYLE
350
2F4
  3
AcadDim
350
11D0
  3
AcDbVariableDictionary
350
309
  0
DICTIONARY
  5
305
330
2D8
100
AcDbDictionary
280
     1
281
     1
  3
ACAD_XREC_ROUNDTRIP
360
306
  0
DICTIONARY
  5
2EC
102
{ACAD_REACTORS
330
C
102
}
330
C
100
AcDbDictionary
281
     1
  0
DICTIONARY
  5
D
102
{ACAD_REACTORS
330
C
102
}
330
C
100
AcDbDictionary
281
     1
  0
DICTIONARY
  5
1A
102
{ACAD_REACTORS
330
C
102
}
330
C
100
AcDbDictionary
281
     1
  3
Model
350
22
  3
ﾚｲｱｳﾄ2
350
2D2
  0
DICTIONARY
  5
2EB
102
{ACAD_REACTORS
330
C
102
}
330
C
100
AcDbDictionary
281
     1
  0
DICTIONARY
  5
17
102
{ACAD_REACTORS
330
C
102
}
330
C
100
AcDbDictionary
281
     1
  3
Standard
350
18
  0
DICTIONARY
  5
19
102
{ACAD_REACTORS
330
C
102
}
330
C
100
AcDbDictionary
281
     1
  0
ACDBDICTIONARYWDFLT
  5
E
102
{ACAD_REACTORS
330
C
102
}
330
C
100
AcDbDictionary
281
     1
  3
Normal
350
F
100
AcDbDictionaryWithDefault
340
F
  0
DICTIONARY
  5
2F4
102
{ACAD_REACTORS
330
C
102
}
330
C
100
AcDbDictionary
281
     1
  3
Standard
350
2F5
  0
XRECORD
  5
11D0
102
{ACAD_REACTORS
330
C
102
}
330
C
100
AcDbXrecord
280
     1
 90
   990106
  3

 60
     0
 61
     0
 62
     1
 63
     3
 64
     0
 65
     0
 66
     1
 67
     6
 68
     1
 69
     0
 70
     0
 71
     0
 72
     0
 40
0.0
170
     1
  0
DICTIONARY
  5
309
102
{ACAD_REACTORS
330
C
102
}
330
C
100
AcDbDictionary
281
     1
  3
CTABLESTYLE
350
30A
  3
DIMASSOC
350
30B
  3
PROJECTNAME
350
30C
  0
XRECORD
  5
306
102
{ACAD_REACTORS
330
305
102
}
330
305
100
AcDbXrecord
280
     1
102
SHADEPLOT
 70
     0
  0
LAYOUT
  5
22
102
{ACAD_XDICTIONARY
360
301
102
}
102
{ACAD_REACTORS
330
1A
102
}
330
1A
100
AcDbPlotSettings
  1

  2
Canon LBP-1420(RYU)
  4
A4
  6
QQQQ
 40
5.873749732971191
 41
5.873747825622558
 42
5.873748779296875
 43
5.873748779296875
 44
209.9733276367187
 45
296.9259948730469
 46
4.919999999999999
 47
5.459999999999999
 48
456.8187175850736
 49
227.6692277713753
140
513.3341655043371
141
309.9475276262273
142
1.0
143
0.3
 70
 11428
 72
     1
 73
     0
 74
     4
  7
monochrome.ctb
 75
     0
147
3.333333333333333
148
-456.8187175850736
149
-227.6692277713753
100
AcDbLayout
  1
Model
 70
     1
 71
     0
 10
0.0
 20
0.0
 11
12.0
 21
9.0
 12
0.0
 22
0.0
 32
0.0
 14
0.0
 24
0.0
 34
0.0
 15
0.0
 25
0.0
 35
0.0
146
0.0
 13
0.0
 23
0.0
 33
0.0
 16
1.0
 26
0.0
 36
0.0
 17
0.0
 27
1.0
 37
0.0
 76
     0
330
1F
  0
LAYOUT
  5
2D2
102
{ACAD_XDICTIONARY
360
303
102
}
102
{ACAD_REACTORS
330
1A
102
}
330
1A
100
AcDbPlotSettings
  1

  2
none_device
  4
none_user_media
  6

 40
4.773083209991455
 41
4.773089885711669
 42
4.857742309570312
 43
4.7730712890625
 44
209.9733276367187
 45
296.9259948730469
 46
0.0
 47
0.0
 48
0.0
 49
0.0
140
0.0
141
0.0
142
1.0
143
1.0
 70
   688
 72
     1
 73
     0
 74
     5
  7
monochrome.ctb
 75
    16
147
1.0
148
0.0
149
0.0
100
AcDbLayout
  1
ﾚｲｱｳﾄ2
 70
     1
 71
     1
 10
-4.773083209991455
 20
-4.773089885711669
 11
205.2002444267273
 21
292.1529049873352
 12
0.0
 22
0.0
 32
0.0
 14
0.0
 24
0.0
 34
0.0
 15
258.6418503284453
 25
287.3798336982726
 35
0.0
146
0.0
 13
0.0
 23
0.0
 33
0.0
 16
1.0
 26
0.0
 36
0.0
 17
0.0
 27
1.0
 37
0.0
 76
     0
330
2D1
331
1662
  0
MLINESTYLE
  5
18
102
{ACAD_REACTORS
330
17
102
}
330
17
100
AcDbMlineStyle
  2
STANDARD
 70
     0
  3

 62
   256
 51
90.0
 52
90.0
 71
     2
 49
0.5
 62
   256
  6
BYLAYER
 49
-0.5
 62
   256
  6
BYLAYER
  0
ACDBPLACEHOLDER
  5
F
102
{ACAD_REACTORS
330
E
102
}
330
E
  0
ACAD_PROXY_OBJECT
  5
2F5
102
{ACAD_REACTORS
330
2F4
102
}
330
2F4
100
AcDbProxyObject
 90
      499
 91
      503
 95
   655383
 70
     0
 93
     1841
310
4214DD185B99185C9928000000000000F83F0000000000003E0FC00000000000004901028000000C1008070000C3001FDFF8000000C1003FBFF000000182007F7FE00000030400FEFFC00000060801FDFF8000000C1003FBFF000000182000000000000000C2020B0000001820100E000186003FBFF000000182007F7FE000
310
00030400FEFFC00000060801FDFF8000000C1003FBFF000000182007F7FE0000003040000000000000012404160000003040201C00030C007F7FE00000030400FEFFC00000060801FDFF8000000C1003FBFF000000182007F7FE00000030400FEFFC00000060804D
340
11
340
11
340
11
 94
        0
  0
DICTIONARYVAR
  5
30A
102
{ACAD_REACTORS
330
309
102
}
330
309
100
DictionaryVariables
280
     0
  1
STANDARD
  0
DICTIONARYVAR
  5
30B
102
{ACAD_REACTORS
330
309
102
}
330
309
100
DictionaryVariables
280
     0
  1
1
  0
DICTIONARYVAR
  5
30C
102
{ACAD_REACTORS
330
309
102
}
330
309
100
DictionaryVariables
280
     0
  1

  0
DICTIONARY
  5
301
330
22
100
AcDbDictionary
280
     1
281
     1
  3
ACAD_XREC_ROUNDTRIP
360
302
  0
DICTIONARY
  5
303
330
2D2
100
AcDbDictionary
280
     1
281
     1
  3
ACAD_XREC_ROUNDTRIP
360
304
  0
XRECORD
  5
302
102
{ACAD_REACTORS
330
301
102
}
330
301
100
AcDbXrecord
280
     1
102
SHADEPLOT
 70
     0
102
SHADEPLOTRESLEVEL
 70
     2
102
SHADEPLOTCUSTOMDPI
 70
   300
  0
XRECORD
  5
304
102
{ACAD_REACTORS
330
303
102
}
330
303
100
AcDbXrecord
280
     1
102
SHADEPLOT
 70
     0
102
SHADEPLOTRESLEVEL
 70
     2
102
SHADEPLOTCUSTOMDPI
 70
   300
  0
ENDSEC
  0
EOF
